<?xml version="1.0" standalone="no"?>
<!DOCTYPE svg PUBLIC "-//W3C//DTD SVG 1.1//EN" "http://www.w3.org/Graphics/SVG/1.1/DTD/svg11.dtd" >
<svg xmlns="http://www.w3.org/2000/svg">
<metadata></metadata>
<defs>
<font id="hollywooddecosgmediumregular" horiz-adv-x="1212" >
<font-face units-per-em="2048" ascent="1638" descent="-410" />
<missing-glyph horiz-adv-x="512" />
<glyph horiz-adv-x="2048" />
<glyph horiz-adv-x="2048" />
<glyph horiz-adv-x="682" />
<glyph horiz-adv-x="481" d="M35 1577h98q8 -41 37 -60.5t70 -19.5t70.5 19.5t37.5 60.5h98q0 -39 -18 -71.5t-48 -56.5t-67 -37t-73 -13q-37 0 -73 13t-65.5 37t-48 56.5t-18.5 71.5z" />
<glyph horiz-adv-x="372" d="M102 1479q0 35 25 60.5t59 25.5q35 0 59.5 -25.5t24.5 -60.5t-24.5 -59.5t-59.5 -24.5t-59.5 24.5t-24.5 59.5z" />
<glyph horiz-adv-x="450" d="M76 1491q0 61 43 105t104 44t105.5 -44t44.5 -105t-44 -105.5t-106 -44.5q-61 0 -104 44.5t-43 105.5zM145 1491q0 -33 22.5 -56.5t55.5 -23.5t56.5 23.5t23.5 56.5t-23.5 55.5t-56.5 22.5t-55.5 -22.5t-22.5 -55.5z" />
<glyph unicode="&#xa;" horiz-adv-x="536" d="M39 1352l121 286h127l-168 -286h-80zM248 1352l121 286h127l-168 -286h-80z" />
<glyph horiz-adv-x="518" d="M76 -168q0 63 41 112.5t96 71.5h80q-47 -23 -82 -66.5t-35 -96.5q0 -37 23.5 -66t62.5 -29q78 0 119 68l59 -39q-29 -55 -75 -87t-109 -32q-72 0 -126 43t-54 121z" />
<glyph horiz-adv-x="507" d="M70 1638h80l104 -178l104 178h80l-121 -286h-127z" />
<glyph unicode="&#xd;" horiz-adv-x="471" d="M172 1214h125l2 -1214h-125z" />
<glyph horiz-adv-x="391" d="M-250 -18l731 1503h142l-729 -1503h-144z" />
<glyph horiz-adv-x="851" d="M43 1114v100h160v234q0 41 17.5 79t46 65.5t66.5 44t79 16.5q76 0 121 -29t77 -94l-75 -72q-14 37 -39 63.5t-68 26.5q-29 0 -48.5 -14t-30.5 -35.5t-16 -47.5t-5 -50v-187h397v-1214h-125v1114h-272v-1413h-125v1413h-160z" />
<glyph horiz-adv-x="851" d="M43 1114v100h160v234q0 41 17.5 79t46 65.5t66.5 44t79 16.5q72 0 115.5 -23.5t74.5 -81.5v90h123v-1638h-123v1114h-274v-1413h-125v1413h-160zM328 1214h274v308l-67 -64q-14 37 -39 63.5t-68 26.5q-29 0 -48.5 -14t-30.5 -35.5t-16 -47.5t-5 -50v-187z" />
<glyph horiz-adv-x="780" d="M25 743l100 58v717h125v-646l59 37l53 -90l-112 -65v-635h467v-119h-592v682l-49 -29z" />
<glyph horiz-adv-x="471" d="M68 743l102 60v835h123v-766l59 37l54 -90l-113 -65v-754h-123v682l-51 -29z" />
<glyph horiz-adv-x="1046" d="M61 0l697 1403h-613v115h809l-696 -1399h696v-119h-893zM332 1901h80l104 -179l105 179h79l-120 -287h-127z" />
<glyph horiz-adv-x="864" d="M45 0l576 1096h-531v118h729l-573 -1095h563v-119h-764zM260 1638h80l104 -178l105 178h80l-121 -286h-127z" />
<glyph unicode=" "  horiz-adv-x="512" />
<glyph unicode="&#x09;" horiz-adv-x="512" />
<glyph unicode="&#xa0;" horiz-adv-x="512" />
<glyph unicode="!" horiz-adv-x="507" d="M150 92q0 43 30.5 74t73.5 31t73.5 -31t30.5 -74t-30.5 -73.5t-73.5 -30.5t-73.5 30.5t-30.5 73.5zM182 1448q-2 29 19.5 49.5t56.5 20.5q41 0 59.5 -20.5t16.5 -49.5l-49 -1067h-62z" />
<glyph unicode="&#x22;" horiz-adv-x="540" d="M80 1528h158l-48 -445h-67zM303 1528h158l-47 -445h-68z" />
<glyph unicode="#" d="M248 848v98h135l27 215h-162v103h174l33 266h100l-33 -266h215l33 266h100l-34 -266h129v-103h-140l-26 -215h166v-98h-179l-41 -322h-98l39 322h-215l-39 -322h-102l41 322h-123zM483 946h215l27 215h-215z" />
<glyph unicode="$" d="M111 119v155q90 -80 190 -129t240 -59v659q-74 8 -149 31t-135 65t-98 106.5t-38 156.5q0 96 34.5 166.5t92 118t133.5 72t160 28.5v121h116v-123q104 -10 189.5 -45t140.5 -74v-145q-23 25 -59.5 50t-80.5 46.5t-92 36t-98 16.5v-508q82 -16 161 -41.5t142.5 -73 t102.5 -121t39 -182.5q0 -102 -35 -186t-95.5 -145.5t-141 -98t-173.5 -43.5v-239h-116v239q-109 8 -222.5 43t-207.5 103zM242 1106q2 -68 36.5 -111t82 -67.5t96.5 -35.5t84 -13v495q-59 6 -113.5 -9t-97.5 -49t-67.5 -86t-20.5 -124zM657 88q66 2 124.5 29.5t102.5 73 t69.5 106.5t25.5 135q0 80 -26.5 132t-70.5 85t-102.5 50.5t-122.5 27.5v-639z" />
<glyph unicode="%" horiz-adv-x="1667" d="M51 1001q0 72 17.5 155t56.5 152.5t101.5 115.5t150.5 46q76 0 131 -33.5t94 -86.5q119 -102 240 -95t237 117l56 113h141l-729 -1503h-144l584 1200q-150 -63 -307 2q25 -92 25 -183q0 -74 -17.5 -155.5t-56.5 -151t-101.5 -116t-152.5 -46.5q-92 0 -153.5 46.5 t-100.5 115t-55.5 151.5t-16.5 156zM166 1004q0 -55 11 -120t36 -118t64.5 -89t99.5 -36q59 0 99 35t64.5 89t36 118t11.5 121q0 55 -11.5 118.5t-37 117.5t-65.5 89t-97 35q-61 0 -102.5 -34t-65 -87t-33.5 -116.5t-10 -122.5zM965 451q0 72 17 154.5t56 152t101.5 116 t150.5 46.5t150.5 -46.5t101.5 -116t56.5 -152t17.5 -154.5q0 -74 -17.5 -156t-55.5 -151.5t-100.5 -115.5t-152.5 -46q-92 0 -153.5 46t-100.5 114.5t-55 151.5t-16 157zM1079 453q0 -55 10.5 -120t35 -118t64.5 -89t99 -36t100.5 35t66 89t35.5 118t11 121q0 55 -11 118.5 t-37 117.5t-66.5 89t-98.5 35q-61 0 -101 -34t-64.5 -87t-34 -116.5t-9.5 -122.5z" />
<glyph unicode="&#x26;" horiz-adv-x="1542" d="M72 528q0 147 65.5 272.5t198.5 196.5q37 20 84 38t94 22l-250 461h649v-115h-454l221 -426q-102 -4 -188 -34t-147.5 -85t-96.5 -136t-35 -187q0 -98 40 -180.5t105.5 -140.5t152.5 -91t183 -33q80 0 160 19.5t144.5 61.5t105.5 107.5t41 157.5q0 35 -8.5 73t-21.5 75 t-32.5 67.5t-42.5 50.5h-346v105h776v-105h-266q41 -53 61.5 -127.5t20.5 -140.5q0 -119 -53 -206t-137 -144t-189.5 -85t-210.5 -28q-123 0 -235.5 38t-199.5 109.5t-138 175t-51 234.5z" />
<glyph unicode="'" horiz-adv-x="303" d="M72 1528h157l-47 -445h-67z" />
<glyph unicode="(" horiz-adv-x="417" d="M55 668q0 152 17.5 281.5t49.5 244.5t78 217t103 199h59q-43 -115 -75.5 -219.5t-56 -214t-35 -233.5t-11.5 -277q0 -309 46 -566.5t132 -486.5h-59q-117 195 -182.5 469t-65.5 586z" />
<glyph unicode=")" horiz-adv-x="417" d="M55 -387q86 229 132 486t46 567q0 154 -11 277.5t-34.5 233t-56.5 214t-76 219.5h60q57 -96 103 -198.5t78 -217.5t49 -244.5t17 -281.5q0 -311 -65.5 -586t-181.5 -469h-60z" />
<glyph unicode="*" horiz-adv-x="638" d="M55 1327l19 72l209 -53v213h73v-213l209 53l19 -72l-217 -55l176 -193l-51 -53l-173 188l-172 -188l-51 53l180 193z" />
<glyph unicode="+" d="M332 549v135h209v209h133v-209h209v-135h-209v-209h-133v209h-209z" />
<glyph unicode="," horiz-adv-x="325" d="M57 100q4 43 37 73t76 26t72.5 -38t25.5 -89q-4 -47 -16 -96.5t-28.5 -95.5t-36 -84t-35.5 -62l-27 4q23 88 31 142t4 108q-53 -4 -80 32.5t-23 79.5z" />
<glyph unicode="-" horiz-adv-x="649" d="M100 549v135h449v-135h-449z" />
<glyph unicode="." horiz-adv-x="325" d="M57 92q0 43 31 74t74 31t73.5 -31t30.5 -74t-30.5 -73.5t-73.5 -30.5t-74 30.5t-31 73.5z" />
<glyph unicode="/" horiz-adv-x="729" d="M16 -76l557 1649h140l-557 -1649h-140z" />
<glyph unicode="0" d="M92 727q0 121 29 253t91 242.5t159.5 182.5t234.5 72t234.5 -72t160 -182.5t91 -242.5t28.5 -253t-28.5 -254t-90 -243.5t-159 -182.5t-236.5 -72q-141 0 -238.5 71t-159 181.5t-89 243.5t-27.5 256zM219 719q0 -92 19.5 -200.5t64.5 -204t119 -159t182 -63.5 q111 0 185.5 63.5t118.5 158t62.5 204t18.5 201.5q0 90 -19.5 201.5t-64.5 210t-118.5 165t-182.5 66.5q-115 0 -189.5 -64.5t-117.5 -161t-60.5 -209t-17.5 -208.5z" />
<glyph unicode="1" d="M543 0v1454h127v-1454h-127z" />
<glyph unicode="2" d="M100 0l578 598q43 45 91 99.5t87 114.5t64.5 127t25.5 134q0 68 -22.5 120t-61.5 88t-91 55.5t-114 21.5q-72 2 -137 -17.5t-123.5 -55.5t-108.5 -82t-91 -95v160q94 88 206.5 145t241.5 57q92 0 172 -26.5t138.5 -78.5t91 -127t32.5 -169q0 -78 -24.5 -148.5t-65.5 -136 t-94 -128t-113 -121.5l-405 -406h735v-129h-1012z" />
<glyph unicode="3" d="M137 260q33 -35 80 -65.5t99.5 -55t108.5 -39t110 -14.5q86 0 159.5 24.5t129 72.5t86 118t30.5 160q0 102 -37 169.5t-99.5 106.5t-143 53.5t-166.5 8.5v92q51 8 109.5 32.5t107.5 62.5t81.5 88t32.5 108q0 51 -17 86t-47 57.5t-69 32.5t-82 10q-119 0 -206 -39 t-179 -106v131q88 63 181.5 92t203.5 29q72 0 133.5 -18.5t107.5 -55.5t72.5 -92.5t26.5 -128.5q0 -51 -18.5 -98.5t-51 -86.5t-74.5 -68.5t-91 -43.5q162 -14 260 -122t100 -280q0 -123 -40 -218t-111.5 -158.5t-170 -96.5t-214.5 -33q-61 0 -122 13.5t-113 35t-94 47 t-71 52.5z" />
<glyph unicode="4" d="M57 258l889 1235v-1120h209v-115h-209v-258h-127v258h-762zM281 373h538v753z" />
<glyph unicode="5" d="M131 131v148q63 -72 158.5 -127.5t218.5 -51.5q211 8 325.5 134t114.5 348q0 84 -25.5 154.5t-73.5 121.5t-115.5 80t-149.5 29q-88 0 -186.5 -28t-176.5 -69l51 584h635v-111h-524l-27 -305q66 25 116 34t120 9q117 0 207 -36.5t153.5 -103.5t96 -157.5t32.5 -199.5 q0 -139 -43 -251t-119.5 -191t-182 -122t-228.5 -43q-68 0 -131.5 18.5t-114.5 43t-87 51.5t-44 41z" />
<glyph unicode="6" d="M94 573q0 94 18.5 185.5t53.5 177.5q39 100 103.5 186t147.5 153.5t179 116t199 74.5l20 -106q-84 -23 -167 -67t-154.5 -104.5t-127 -134t-85.5 -155.5q-29 -78 -45.5 -161t-16.5 -169q0 -94 21.5 -183t67.5 -158.5t121 -111.5t183 -42q96 0 168 32.5t119 90t70.5 132 t23.5 160.5t-19.5 163t-63.5 135.5t-113.5 92t-167.5 33.5q-57 0 -117.5 -23.5t-89.5 -55.5l-57 88q18 20 51 38.5t69.5 31t73.5 19.5t66 7q131 4 224 -39t153.5 -118t88 -173.5t27.5 -202.5q0 -119 -37 -215t-104.5 -164.5t-160.5 -105.5t-206 -37q-133 0 -230 49 t-160.5 133t-94.5 195t-31 233z" />
<glyph unicode="7" d="M104 1343v111h1004l-719 -1452h-145l665 1341h-805z" />
<glyph unicode="8" d="M90 461q0 80 25.5 148.5t69.5 125t105.5 97t133.5 65.5q-86 39 -139.5 109.5t-53.5 156.5q0 63 29 118.5t80 96.5t118.5 65.5t145.5 24.5t145.5 -24.5t118 -65.5t79 -96t28.5 -119q0 -86 -50.5 -155.5t-133.5 -108.5q150 -45 240.5 -160.5t90.5 -277.5 q0 -104 -34.5 -193.5t-100 -154t-161 -101.5t-218.5 -37q-117 0 -212 37t-162.5 102.5t-105.5 153.5t-38 193zM219 463q0 -76 25.5 -144.5t75 -121t122 -84t166.5 -31.5q92 0 166 31.5t124 84t76.5 121t26.5 144.5q0 82 -30.5 141.5t-76.5 100t-101.5 65.5t-105.5 38t-87 17 t-47 4q-18 0 -72.5 -20.5t-113 -64.5t-103.5 -113.5t-45 -167.5zM358 1161q0 -43 34 -82t79 -67.5t92 -45t76 -16.5q12 0 47 15.5t73 43t67.5 66.5t29.5 86q0 84 -61.5 144.5t-194.5 62.5q-57 0 -102 -16.5t-76 -45t-47.5 -66.5t-16.5 -79z" />
<glyph unicode="9" d="M96 940q0 111 40 207t108.5 167.5t161 113.5t196.5 42q137 0 235.5 -52t161 -141t90 -208t27.5 -250q0 -158 -46 -297t-131 -250.5t-208 -190.5t-278 -114l-4 105q145 37 249.5 111.5t171 178t96 231.5t27.5 269q-2 94 -26.5 185.5t-72.5 163t-122 114.5t-174 43 q-86 0 -156.5 -34t-121 -92t-77 -137t-26.5 -167q0 -86 22.5 -164t66.5 -136t109.5 -91t153.5 -27q31 2 65 10.5t65.5 21.5t58 27.5t41.5 28.5l49 -84q-10 -14 -39 -32.5t-69 -36t-85 -28.5t-84 -13q-117 -4 -206 31.5t-148 104t-90 168t-31 222.5z" />
<glyph unicode=":" horiz-adv-x="325" d="M57 92q0 43 31 74t74 31t73.5 -31t30.5 -74t-30.5 -73.5t-73.5 -30.5t-74 30.5t-31 73.5zM57 1108q0 43 31 74.5t74 31.5t73.5 -31.5t30.5 -74.5t-30.5 -73.5t-73.5 -30.5t-74 30.5t-31 73.5z" />
<glyph unicode=";" horiz-adv-x="325" d="M57 100q4 43 37 73t76 26t72.5 -38t25.5 -89q-4 -47 -16 -96.5t-28.5 -95.5t-36 -84t-35.5 -62l-27 4q23 88 31 142t4 108q-53 -4 -80 32.5t-23 79.5zM59 1108q0 43 31 74.5t74 31.5t73.5 -31.5t30.5 -74.5t-30.5 -73.5t-73.5 -30.5t-74 30.5t-31 73.5z" />
<glyph unicode="&#x3c;" d="M332 627v123l551 342v-144l-406 -260l406 -260v-143z" />
<glyph unicode="=" d="M332 403v136h551v-136h-551zM332 694v135h551v-135h-551z" />
<glyph unicode="&#x3e;" d="M332 285v143l405 260l-405 260v144l551 -342v-123z" />
<glyph unicode="?" horiz-adv-x="780" d="M82 1366q66 63 140.5 108.5t170.5 45.5q131 0 218 -70t87 -211q0 -78 -23.5 -143.5t-59 -126t-77.5 -122t-78 -131t-59.5 -152.5t-23.5 -185h-68q-4 16 -4 40.5v45.5q0 84 20.5 157.5t51.5 139t67.5 126t67.5 117t51.5 111.5t20.5 111q0 92 -52.5 141t-140.5 49 q-47 0 -84 -12t-65.5 -30.5t-51 -40t-38.5 -42.5zM240 92q0 43 30.5 74t73.5 31t74 -31t31 -74t-31 -73.5t-74 -30.5t-73.5 30.5t-30.5 73.5z" />
<glyph unicode="@" horiz-adv-x="1564" d="M72 762q0 160 47 304t140 254t231.5 174.5t320.5 64.5q197 0 336 -69t222 -184.5t112.5 -264t9.5 -308.5q-10 -78 -25.5 -142.5t-52.5 -133.5q-37 -70 -89 -111t-108.5 -60.5t-111.5 -18.5t-99 18.5t-73 47t-31 68.5q-29 -61 -91 -93t-116 -32q-96 0 -157.5 38t-93 103.5 t-37 150.5t11.5 182q14 80 46 163.5t82 151.5t119.5 112t157.5 44q76 0 117 -23.5t61 -52.5l13 69h119l-123 -677q-14 -76 18.5 -112t82.5 -37t103.5 27.5t83.5 82.5q18 33 29.5 59.5t19 54t12.5 59t11 74.5q18 150 -9.5 279t-98 223t-185 148.5t-272.5 54.5 q-156 0 -268.5 -60.5t-186.5 -157.5t-109.5 -220t-35.5 -250q0 -125 35.5 -248t107.5 -219t176.5 -155.5t243.5 -59.5q31 0 76 4t67 14l15 -121q-12 -6 -34 -9t-46.5 -5t-46 -3t-31.5 -1q-166 0 -296 68.5t-219 180t-135 256t-46 298.5zM543 752q-35 -195 2 -281t135 -86 q43 0 81 17.5t68.5 46t51 66.5t26.5 79l64 367q-14 76 -57.5 117.5t-106.5 39.5q-57 0 -100 -28.5t-75 -77.5t-53.5 -116t-35.5 -144z" />
<glyph unicode="A" horiz-adv-x="1204" d="M37 0l563 1565l567 -1565h-135l-100 274h-666l-98 -274h-131zM311 401h576l-283 801z" />
<glyph unicode="B" horiz-adv-x="1087" d="M121 0v1516q12 2 35.5 4t52.5 4t58.5 3t56.5 1q76 0 149.5 -20.5t131 -62.5t93 -104.5t35.5 -148.5q0 -31 -10 -70t-28.5 -75.5t-46 -65.5t-60.5 -39q98 -4 181 -38t142.5 -94t92 -144.5t32.5 -184.5q0 -135 -46 -227t-126 -149.5t-186.5 -83t-224.5 -25.5q-84 0 -166 1 t-166 3zM260 119h219q86 0 163 20.5t135.5 63.5t92 111.5t33.5 164.5q0 111 -45 182.5t-118 112.5q-72 42 -162 56q-64 10 -129 10q-27 0 -54 -2v112q205 33 205 238q0 57 -25.5 99t-67.5 70.5t-92 43t-100 14.5q-14 0 -27.5 -1t-27.5 -3v-1292z" />
<glyph unicode="C" horiz-adv-x="1050" d="M76 750q0 162 58.5 303t163.5 246.5t251.5 167t318.5 63.5q49 0 103 -6l2 -117q-25 4 -47.5 4h-48.5q-141 0 -262 -49t-209.5 -137t-138.5 -209t-50 -262q0 -135 39 -252t121 -204t203.5 -137t287.5 -50q27 0 50.5 2t48.5 6v-125q-47 -6 -97 -6q-184 0 -330.5 54 t-250 153.5t-158.5 241t-55 313.5z" />
<glyph unicode="D" horiz-adv-x="1126" d="M127 0v1518q16 0 44 1t44 1q186 0 341 -46.5t267.5 -141.5t175 -241.5t62.5 -345.5q0 -190 -64.5 -331.5t-177 -234.5t-267.5 -138t-333 -45q-23 0 -46 1t-46 3zM266 117q143 0 263 41t206 119.5t134.5 194.5t48.5 263q0 152 -46.5 271.5t-132.5 203.5t-205.5 131.5 t-267.5 51.5v-1276z" />
<glyph unicode="E" horiz-adv-x="907" d="M123 0v1518h700v-115h-561v-397h381v-119h-381v-768h578v-119h-717z" />
<glyph unicode="F" horiz-adv-x="888" d="M119 0v1518h696v-115h-557v-399h373v-119h-373v-885h-139z" />
<glyph unicode="G" horiz-adv-x="1132" d="M92 756q0 174 53.5 314t151.5 239.5t237.5 156t313.5 62.5h49.5t48.5 -4l2 -117q-57 9 -110 9q-89 0 -170 -24q-131 -38 -229.5 -121t-155 -206t-56.5 -272q0 -141 38 -266.5t114 -219.5t189.5 -148.5t265.5 -54.5h30.5t30.5 2v850h-313v123h442v-1083q-43 -4 -88 -5 t-90 -1q-176 0 -315.5 54t-236.5 154.5t-149.5 242t-52.5 315.5z" />
<glyph unicode="H" horiz-adv-x="1167" d="M123 0v1518h139v-451h645v451h137v-1518h-137v942h-645v-942h-139z" />
<glyph unicode="I" horiz-adv-x="471" d="M166 0v1518h139v-1518h-139z" />
<glyph unicode="J" horiz-adv-x="690" d="M59 6l17 131q33 -4 56.5 -7t57.5 -3q115 0 175.5 48t60.5 171v1172h143v-1172q0 -180 -97 -267t-271 -87q-37 0 -71 2t-71 12z" />
<glyph unicode="K" horiz-adv-x="1071" d="M125 0v1518h143v-619l486 619h164l-416 -514q59 -31 108 -62t90 -72q86 -80 141.5 -184t88.5 -219t44 -235q7 -77 7 -151q0 -41 -2 -81h-141q0 143 -16.5 275.5t-62.5 249t-130 214t-221 170.5l-140 -170v-739h-143z" />
<glyph unicode="L" horiz-adv-x="780" d="M111 0v1518h125v-1399h466v-119h-591z" />
<glyph unicode="M" horiz-adv-x="1433" d="M127 0l68 1550l520 -608l516 617l76 -1559h-133l-60 1245l-399 -487l-414 485l-45 -1243h-129z" />
<glyph unicode="N" horiz-adv-x="1253" d="M150 0v1559l829 -775v734h125v-1518h-131v602l-699 662v-1264h-124z" />
<glyph unicode="O" horiz-adv-x="1501" d="M55 762q0 160 46 302t134.5 249.5t218.5 171t300 63.5q164 0 292 -65.5t217 -175t136 -251.5t47 -294q0 -160 -44 -305.5t-131 -256t-217 -176t-302 -65.5q-166 0 -296 67.5t-219.5 180t-135.5 257t-46 298.5zM188 762q0 -125 36 -247t107.5 -219t176 -156.5t244.5 -59.5 q143 0 249.5 58.5t175 153.5t102.5 218t34 252q0 125 -36 245.5t-106.5 214t-176 151t-242.5 57.5q-139 0 -245 -56.5t-176.5 -151t-106.5 -214t-36 -246.5z" />
<glyph unicode="P" horiz-adv-x="1124" d="M119 0v1518l264 -2q152 -2 274.5 -46.5t209.5 -127t134.5 -203.5t47.5 -277q0 -115 -36 -222.5t-103.5 -190t-165 -133t-220.5 -50.5q-33 0 -70.5 5t-75.5 15.5t-72 27t-56 38.5v-352h-131zM250 469q61 -37 109.5 -56.5t123.5 -19.5q111 0 191 38t132 103.5t76.5 155 t24.5 191.5q0 100 -31.5 188t-91 155.5t-142.5 111.5t-185 57q-25 2 -44.5 4t-42 3t-51 2t-69.5 1v-934z" />
<glyph unicode="Q" horiz-adv-x="1501" d="M55 762q0 160 45 302t133.5 249.5t217.5 171t299 63.5q164 0 292.5 -65.5t219 -175t137.5 -251.5t47 -294q0 -147 -37 -283.5t-111.5 -244t-186.5 -179t-259 -90.5q6 -61 11 -123.5t16 -126.5l-140 -8q-2 66 -3 128.5t-5 125.5q-162 4 -288 73.5t-212 180.5t-131 253 t-45 294zM188 762q0 -121 34 -241t101.5 -216t167 -157.5t232.5 -67.5q-10 129 -25 256l127 8q4 -66 8.5 -129t8.5 -129q121 18 210 80.5t147 156t86 207t28 232.5q0 125 -36 245.5t-106.5 214t-176 151t-242.5 57.5q-139 0 -245 -56.5t-176.5 -151t-106.5 -214t-36 -246.5z " />
<glyph unicode="R" horiz-adv-x="1110" d="M115 0v1522q29 4 55.5 6t54.5 2q154 0 299.5 -34t257 -110.5t180 -198.5t68.5 -300q0 -160 -70.5 -297t-205.5 -223l231 -367h-166l-174 305q-55 -23 -113.5 -35t-140.5 -12q-33 0 -71.5 6t-69.5 17v-281h-135zM250 391q33 -10 65.5 -13t67.5 -5h20q84 -1 165 29 q91 34 163 100.5t116 164t44 220.5q-2 135 -53.5 233.5t-137.5 163t-197.5 95t-232.5 30.5h-20v-1018z" />
<glyph unicode="S" horiz-adv-x="1089" d="M84 223q84 -66 186.5 -101.5t206.5 -35.5q82 0 155 25.5t125 72.5t82.5 116t30.5 155q0 133 -54 208.5t-137 120.5t-178 72t-178 66t-138.5 100t-55.5 176q0 82 28.5 145.5t80 107.5t121 67.5t151.5 23.5q94 0 184 -25.5t172 -70.5l6 -148q-31 31 -73.5 55.5t-92 41 t-98.5 24.5t-92 8q-49 0 -96 -11t-83 -35.5t-58.5 -64.5t-22.5 -95q0 -72 38 -113t98.5 -68.5t136 -47t151.5 -49.5t144.5 -75t113.5 -123q35 -59 51.5 -124.5t16.5 -131.5q0 -121 -40 -217t-111 -163.5t-170 -103.5t-216 -36q-100 0 -195.5 24.5t-183.5 72.5z" />
<glyph unicode="T" horiz-adv-x="1103" d="M55 1415v103h992v-103h-420v-1415h-144v1415h-428z" />
<glyph unicode="U" horiz-adv-x="1089" d="M123 426v1092h135v-1090q0 -78 13.5 -139.5t45 -103.5t87 -64.5t141.5 -22.5q84 0 139 22.5t89 65.5t47.5 104.5t13.5 137.5v1090h135v-1092q0 -207 -102.5 -326.5t-321.5 -119.5q-223 0 -322.5 118.5t-99.5 327.5z" />
<glyph unicode="V" horiz-adv-x="1259" d="M43 1518h143l457 -1237l440 1237h136l-576 -1573z" />
<glyph unicode="W" horiz-adv-x="1542" d="M49 1518h139l312 -1143l272 958l275 -958l313 1143h135l-444 -1573l-279 993l-278 -993z" />
<glyph unicode="X" horiz-adv-x="1400" d="M43 0l580 874l-424 644h153l348 -529l351 529h153l-424 -648l578 -870h-164l-492 754l-495 -754h-164z" />
<glyph unicode="Y" horiz-adv-x="1138" d="M43 1518h162l373 -521l366 521h152l-449 -633v-885h-139v885z" />
<glyph unicode="Z" horiz-adv-x="1046" d="M61 0l697 1403h-613v115h809l-696 -1399h696v-119h-893z" />
<glyph unicode="[" horiz-adv-x="485" d="M51 -387v1997h381v-103h-242v-1792h242v-102h-381z" />
<glyph unicode="\" horiz-adv-x="729" d="M16 1573h140l557 -1649h-140z" />
<glyph unicode="]" horiz-adv-x="485" d="M51 -285h242v1792h-242v103h381v-1997h-381v102z" />
<glyph unicode="^" d="M190 791l326 727h180l326 -727h-154l-262 589l-266 -589h-150z" />
<glyph unicode="_" horiz-adv-x="1024" d="M-2 -164h1028v-117h-1028v117z" />
<glyph unicode="`" horiz-adv-x="335" d="M43 1638h127l121 -286h-80z" />
<glyph unicode="a" horiz-adv-x="993" d="M68 457q0 123 34.5 216t93 156.5t135.5 96t161 32.5q104 0 169.5 -38.5t104.5 -92.5q0 43 -11.5 105.5t-54.5 116.5q-23 27 -54.5 43t-66 22t-70.5 6t-67 -2l19 113q16 0 53 1h11q33 0 70 -5q44 -6 91 -22.5t84 -49.5t59.5 -76t36 -91t17.5 -98t4 -93l4 -516 q-1 -14 -1 -31.5t1 -36.5q0 -35 3 -88t7 -125h-119q-2 31 -2 59.5t-2 51.5q-2 25 -2 49q-12 -29 -37.5 -59.5t-63.5 -55.5t-89 -41t-117 -16q-84 0 -156.5 28.5t-127 87t-86 146.5t-31.5 207zM197 461q0 -86 24.5 -154.5t64.5 -115t92 -70t107 -23.5q113 2 180.5 55.5 t102.5 118.5v422q-12 20 -32.5 46t-52.5 49.5t-77 40t-108 16.5q-61 0 -116.5 -26.5t-96.5 -76t-64.5 -121t-23.5 -161.5z" />
<glyph unicode="b" horiz-adv-x="989" d="M94 -4v1624h125v-559q12 39 43 68.5t68 50t75.5 32t69.5 11.5q121 0 202 -57.5t129 -146.5t68.5 -197t20.5 -206q0 -143 -29.5 -259.5t-95 -199.5t-171 -129t-259.5 -46q-59 0 -122.5 1t-123.5 13zM219 94q35 0 66.5 -1t66.5 -1q117 0 197 42t127 115t67.5 168t20.5 201 q0 68 -11.5 154t-42 161t-87 127t-146.5 52q-53 0 -100 -22.5t-82 -60.5t-55.5 -87t-20.5 -100v-748z" />
<glyph unicode="c" horiz-adv-x="870" d="M61 600q0 106 25 222t80 212t145 157.5t219 61.5q80 0 137.5 -19.5t104.5 -59.5l-2 -140q-41 57 -102.5 85t-130.5 28q-104 0 -171 -56.5t-107 -139.5t-55.5 -180t-15.5 -177q0 -76 16.5 -163t55.5 -162.5t104.5 -128t161.5 -58.5h19l67 5q43 7 81 21.5t66.5 34 t41.5 41.5v-125q-53 -47 -124 -71q-65 -22 -150 -21h-15q-127 2 -213 62.5t-139.5 153.5t-76 204t-22.5 213z" />
<glyph unicode="d" horiz-adv-x="993" d="M80 616q0 98 20.5 206t68.5 197t129 146.5t202 57.5q35 0 75.5 -11.5t77.5 -33t64.5 -51t40.5 -66.5v559h123v-1624q-59 -12 -123 -13t-123 -1q-154 0 -259.5 46t-171 129t-95 199.5t-29.5 259.5zM211 618q0 -106 20.5 -201t67.5 -168t127 -115t197 -42q35 0 67.5 1 t67.5 1v748q0 51 -20.5 100t-56.5 87t-83 60.5t-100 22.5q-90 0 -146.5 -52t-87.5 -127t-42 -161t-11 -154z" />
<glyph unicode="e" horiz-adv-x="899" d="M59 596q0 102 18.5 217t65.5 212t130 160.5t210 63.5q96 0 164 -44t109 -110.5t58 -144.5q15 -70 15 -132v-15h-626q-10 -68 -12.5 -116t-2.5 -101q0 -76 16.5 -163t54.5 -162t101.5 -124t157.5 -49q33 0 72 7t75.5 20.5t68.5 34t54 49.5v-125q-53 -57 -131.5 -80 t-152.5 -23q-127 0 -213 57.5t-137.5 148.5t-73 201.5t-21.5 217.5zM225 911h459v10q0 34 -12 71q-14 42 -39 75t-63 54.5t-87 21.5q-51 0 -93 -19.5t-74.5 -51.5t-55 -74t-35.5 -87z" />
<glyph unicode="f" horiz-adv-x="618" d="M43 1114v100h160v234q0 41 17.5 79t46 65.5t66.5 44t79 16.5q76 0 121 -29t77 -94l-75 -72q-14 37 -39 63.5t-68 26.5q-29 0 -48.5 -14t-30.5 -35.5t-16 -47.5t-5 -50v-187h247v-100h-247v-1413h-125v1413h-160z" />
<glyph unicode="g" horiz-adv-x="999" d="M88 604q0 109 20.5 219.5t66.5 200.5t122 146.5t186 56.5q59 0 107.5 -18.5t84.5 -43t59.5 -52.5t31.5 -46v147h123v-1216q0 -96 -25.5 -166t-69.5 -116t-103.5 -67.5t-129.5 -21.5q-72 0 -119 16.5t-104 41.5l35 104q31 -12 54.5 -22.5t44 -17.5t42 -10t47.5 -3 q37 0 75 13t67.5 44t48 80t18.5 121l-2 151q-18 -31 -47 -60.5t-66 -51t-76.5 -34.5t-78.5 -13q-121 0 -200 48t-126 132t-66.5 196.5t-19.5 241.5zM219 606q0 -266 70.5 -388t212.5 -122q92 0 162.5 58.5t103.5 171.5v565q-35 106 -106 167q-68 58 -156 58h-6 q-82 -2 -136.5 -43t-86 -109.5t-45 -160.5t-13.5 -197z" />
<glyph unicode="h" horiz-adv-x="976" d="M113 0v1620h125v-545q43 76 119.5 113t154.5 37q117 0 194.5 -49.5t125 -129t67 -178t19.5 -196.5q0 -106 -6.5 -188.5t-22 -157t-39 -152.5t-57.5 -174h-134q37 90 61.5 167t39 153.5t20.5 158.5t6 180q0 74 -11 153t-44 144.5t-89 108.5t-148 43q-66 0 -113 -24.5 t-80 -63.5t-48 -87t-15 -93v-840h-125z" />
<glyph unicode="i" horiz-adv-x="471" d="M147 1458q0 37 27 62.5t64 25.5t62.5 -25.5t25.5 -62.5t-26 -62.5t-62 -25.5q-37 0 -64 25.5t-27 62.5zM174 0v1214h125v-1214h-125z" />
<glyph unicode="j" horiz-adv-x="397" d="M63 -158q70 0 95.5 35t25.5 98v1239h125v-1208q0 -72 -11 -123t-39 -82.5t-75 -46t-121 -14.5v102zM158 1458q0 37 26.5 62.5t63.5 25.5t62.5 -25.5t25.5 -62.5t-25.5 -62.5t-62.5 -25.5t-63.5 25.5t-26.5 62.5z" />
<glyph unicode="k" horiz-adv-x="894" d="M111 0v1620h122v-1135q104 2 187.5 42t140.5 106.5t88 156t31 189.5q0 59 -9 119.5t-24 115.5h115q18 -51 27.5 -109t9.5 -112q0 -78 -17.5 -156.5t-51.5 -149.5t-87 -130t-123 -98l318 -459h-162l-277 410q-41 -10 -83 -15.5t-83 -5.5v-389h-122z" />
<glyph unicode="l" horiz-adv-x="471" d="M174 0v1638h123v-1638h-123z" />
<glyph unicode="m" horiz-adv-x="1632" d="M123 0v1214h127v-145q16 39 48 67.5t71 48t81 30t78 10.5q100 0 175 -37t116 -135q47 98 134 136t190 38q113 0 190.5 -49.5t125.5 -128t69.5 -177t21.5 -196.5q0 -100 -8 -184t-24.5 -163t-40 -159t-56.5 -170h-131q37 88 61.5 165t40 152.5t22.5 156.5t7 179 q0 72 -10 152t-41 146.5t-86 110.5t-147 44q-117 0 -185.5 -56.5t-68.5 -181.5v-868h-125v868q0 119 -73 178.5t-183 59.5q-109 0 -181.5 -68.5t-72.5 -179.5v-858h-125z" />
<glyph unicode="n" horiz-adv-x="989" d="M127 0v1214h125v-143q41 74 113.5 114t158.5 40q113 0 190 -50.5t122 -129t64.5 -176t19.5 -193.5q0 -104 -7.5 -187t-23 -160t-39 -155t-57.5 -174h-131q37 88 61.5 167t39.5 155.5t21.5 159.5t6.5 182q0 72 -11.5 149.5t-42 143t-87 108.5t-144.5 43 q-113 0 -172.5 -66.5t-81.5 -167.5v-874h-125z" />
<glyph unicode="o" horiz-adv-x="989" d="M63 606q0 102 20.5 215t71 208t134.5 156.5t209 61.5q127 0 210 -61.5t131 -156.5t67.5 -208t19.5 -215q0 -98 -21.5 -209.5t-73 -206t-133.5 -157t-202 -62.5q-123 0 -205 62.5t-133.5 157t-73 206t-21.5 209.5zM188 606q0 -68 14.5 -159t49.5 -174t94.5 -140t149.5 -57 t148 57t93 139t49.5 174t14.5 160q0 72 -12.5 164t-45 173t-93 137.5t-154.5 56.5t-153.5 -56.5t-93.5 -138.5t-47.5 -174t-13.5 -162z" />
<glyph unicode="p" horiz-adv-x="989" d="M123 -383v1597h125v-153q45 76 119.5 120t167.5 44q123 0 198.5 -58.5t117.5 -147.5t57.5 -197t15.5 -204q0 -92 -16.5 -203.5t-59.5 -207.5t-120 -161.5t-196 -65.5q-35 0 -76.5 9t-80.5 28.5t-73 52t-54 82.5v-535h-125zM248 369q0 -53 21.5 -102.5t57 -88.5t84 -62.5 t101.5 -23.5q96 0 152.5 56.5t86 137.5t39 171.5t9.5 160.5q0 74 -9.5 160t-39 160t-87 122t-153.5 48q-59 0 -107.5 -23.5t-82 -62.5t-53 -91t-19.5 -108v-454z" />
<glyph unicode="q" horiz-adv-x="989" d="M80 618q0 96 15.5 204t57.5 197t117.5 147.5t198.5 58.5q92 0 166 -43t121 -121v153h125v-1597h-125v535q-20 -49 -54 -82t-73 -52.5t-81 -28.5t-77 -9q-121 0 -196.5 65.5t-118.5 161.5t-59.5 207.5t-16.5 203.5zM205 618q0 -70 9 -160.5t39 -171.5t86 -137.5t153 -56.5 q53 0 101 23.5t84 62.5t57.5 88t21.5 103v454q0 55 -19.5 107.5t-53.5 91.5t-83 62.5t-106 23.5q-96 0 -153.5 -48t-87.5 -122t-39 -160t-9 -160z" />
<glyph unicode="r" horiz-adv-x="675" d="M94 1200l121 17q12 -47 12 -84v-78q29 72 83.5 119t133.5 47q39 0 72 -15.5t55.5 -41t36 -60.5t13.5 -72q0 -74 -46.5 -132t-105.5 -95l-55 82q41 23 69.5 48.5t28.5 76.5q0 39 -22.5 70.5t-63.5 31.5q-55 0 -92 -32.5t-58.5 -80t-30.5 -101.5t-9 -97v-803h-125v1044 q0 78 -17 156z" />
<glyph unicode="s" horiz-adv-x="839" d="M61 35v141q53 -47 123 -65.5t140 -18.5q74 0 134 17.5t104 53.5t68.5 92t24.5 134t-27.5 130t-73.5 88t-106.5 57.5t-123.5 40.5q-51 14 -96.5 35.5t-78 54t-52 76.5t-19.5 104q0 70 31.5 119t80 78.5t105.5 41.5q49 11 96 11h15q27 0 59.5 -5.5t66 -12.5t65.5 -16 t56 -20l11 -124q-53 29 -126 50t-132 23q-37 0 -74 -5t-66.5 -20.5t-49 -44t-19.5 -71.5q0 -66 48 -107t107 -57q76 -23 152 -51.5t136 -74.5t98 -117t40 -177v-11q0 -93 -32 -166q-34 -77 -94 -129t-142 -78.5t-176 -26.5q-80 0 -139.5 11t-133.5 40z" />
<glyph unicode="t" horiz-adv-x="569" d="M41 1114v100h160v265h125v-265h202v-100h-202v-1114h-125v1114h-160z" />
<glyph unicode="u" horiz-adv-x="1007" d="M98 428q0 68 11.5 133.5t23.5 130.5q18 100 32.5 200.5t14.5 203.5q0 59 -6 118h121q8 -27 10 -55.5t2 -56.5q0 -84 -12 -167t-26.5 -166t-27 -165t-12.5 -166q0 -166 80 -253t252 -87q49 0 98.5 3t98.5 8v1105h125v-1214q-88 0 -176.5 -7t-176.5 -7q-217 0 -324.5 115.5 t-107.5 326.5z" />
<glyph unicode="v" horiz-adv-x="987" d="M16 1214h142l334 -927l333 927h144l-477 -1255z" />
<glyph unicode="w" horiz-adv-x="1542" d="M72 526q0 106 7 191.5t21.5 162t38 156.5t58.5 178h129q-37 -90 -61.5 -169.5t-40 -157.5t-21.5 -162t-6 -184q0 -70 9 -149t36.5 -145.5t80 -110.5t138.5 -44q61 0 107 42t77 102.5t46.5 127t15.5 117.5v733h129v-733q0 -51 16 -117.5t47 -127t78 -102.5t108 -42 q88 0 139.5 46t78 115t33.5 148.5t7 149.5q0 96 -7 179t-22.5 161t-39 156.5t-57.5 166.5h126q33 -98 57.5 -178t40 -156.5t22.5 -162t7 -191.5q0 -98 -18 -197.5t-63.5 -179t-120 -130t-185.5 -50.5q-63 0 -115.5 23.5t-92 62.5t-66.5 87t-39 96q-12 -47 -40 -95.5 t-67.5 -87.5t-92 -62.5t-113.5 -23.5q-111 0 -185.5 50.5t-118.5 130t-62.5 179t-18.5 197.5z" />
<glyph unicode="x" horiz-adv-x="1073" d="M37 0l426 649l-367 565h144l297 -454l299 454h143l-369 -565l426 -649h-149l-350 537l-349 -537h-151z" />
<glyph unicode="y" horiz-adv-x="956" d="M106 428q0 80 8.5 158t19.5 156.5t19.5 157.5t8.5 159q0 39 -1 78t-5 77h127q4 -29 6 -57.5t2 -56.5q0 -123 -11.5 -244t-29.5 -244q-6 -43 -10 -86t-4 -88q0 -55 8 -114.5t31.5 -109.5t65.5 -82t112 -32q133 0 197.5 82t64.5 205v827h123v-1255q0 -70 -21.5 -130 t-61.5 -104t-98.5 -70t-130.5 -26q-63 0 -123.5 16.5t-117.5 41.5l45 106q82 -53 180 -53q57 0 96 19.5t63.5 54t35 80t10.5 98.5v149q-16 -37 -48 -64.5t-72 -47t-82 -28.5t-79 -9q-94 0 -156.5 38t-100.5 99t-54.5 140t-16.5 159z" />
<glyph unicode="z" horiz-adv-x="864" d="M31 0l575 1096h-530v118h729l-574 -1095h564v-119h-764z" />
<glyph unicode="{" horiz-adv-x="485" d="M59 725q20 14 37 27q14 10 24.5 23t12.5 26q4 74 7 163t11.5 179t25 174t47 149.5t79.5 104.5t123 39l-10 -54q-47 0 -76 -38.5t-43 -102t-18.5 -143.5t-3.5 -163t2.5 -163t-1.5 -141q-2 -16 -12 -29.5t-24 -25.5q-16 -14 -35 -27q18 -16 35 -31q14 -12 24 -26.5 t12 -26.5q2 -59 0 -153.5t-3 -203t3.5 -218t18.5 -197.5t43 -144.5t78 -56.5l8 -53q-74 0 -123 55.5t-80 145.5t-47 202.5t-24.5 227t-10.5 220t-6 179.5q-2 10 -12 24.5t-25 26.5q-16 14 -37 31z" />
<glyph unicode="|" d="M537 -387v1997h139v-1997h-139z" />
<glyph unicode="}" horiz-adv-x="485" d="M59 1610q74 0 123 -39t80 -104.5t47.5 -149.5t24.5 -174t11 -179.5t7 -162.5q0 -12 11.5 -25.5t25.5 -23.5q17 -13 37 -27q-20 -16 -37 -31q-14 -12 -25.5 -26.5t-11.5 -24.5q-4 -74 -6 -179.5t-10 -220t-24.5 -227t-47.5 -202.5t-80 -145.5t-123 -55.5l9 53 q49 0 77.5 56.5t43 144.5t18.5 197.5t3 218t-3 203t0 153.5q0 12 11 26.5t26 26.5q16 14 35 31q-18 12 -35 27q-14 12 -25.5 25t-11.5 30q-4 61 -2 141t3 163t-3 163t-18.5 143.5t-43 102t-75.5 38.5z" />
<glyph unicode="~" d="M264 606q2 25 18.5 53.5t40 53t52 42t57.5 21.5q63 10 109.5 -13.5t81 -55t66.5 -59t69 -23.5q43 4 73.5 38.5t45.5 75.5l71 -75q-6 -51 -53 -102.5t-123 -59.5q-78 -6 -124 17.5t-78.5 55t-59.5 57t-66 23.5q-43 -4 -70.5 -38.5t-47.5 -81.5z" />
<glyph unicode="&#xa0;" />
<glyph unicode="&#xa1;" horiz-adv-x="507" d="M150 1206q0 43 30.5 74t73.5 31t73.5 -31t30.5 -74t-30.5 -73.5t-73.5 -30.5t-73.5 30.5t-30.5 73.5zM182 -150l41 1068h62l49 -1068q2 -29 -16.5 -49t-59.5 -20q-35 0 -56.5 20.5t-19.5 48.5z" />
<glyph unicode="&#xa2;" d="M334 754q0 68 15.5 137.5t49 126.5t86 99t127.5 54v129h129v-129q74 -10 125 -55l-2 -155q-35 47 -79 78.5t-103 31.5q-63 0 -105 -30.5t-68 -78t-36 -103.5t-10 -107q0 -49 10 -102.5t34.5 -99.5t64.5 -76t100 -30q66 0 116 27t91 80v-148q-57 -49 -138 -61v-192h-129 v188q-76 10 -128 51t-85.5 99.5t-49 128t-15.5 137.5z" />
<glyph unicode="&#xa3;" d="M156 1071q-2 84 25.5 167t85 148.5t146.5 106.5t210 41q63 0 113 -7t91 -19.5t77 -30t71 -37.5l6 -158q-84 66 -170 99.5t-190 33.5t-170 -36t-103 -88t-48 -111.5t-9 -108.5q4 -78 41 -139.5t89 -110.5t108.5 -87t99.5 -64h352v-119h-227q37 -49 53 -102q12 -37 14 -79 t-9 -83t-39 -82t-75 -74q29 -10 63 -19.5t64 -9.5q45 0 82 28t45 71l105 -60q-35 -86 -91.5 -123.5t-148.5 -37.5q-45 0 -90 11t-89 24.5t-89 25.5t-92 12q-35 0 -56.5 -2t-40 -11t-36 -26.5t-41.5 -44.5l-109 62q35 61 80 92t95 42t105.5 8t110.5 -11q18 12 40 32.5 t40.5 46t31.5 53.5t13 56q0 66 -26.5 114t-71.5 87h-389v119h215q-49 31 -95.5 70.5t-83 89t-59 108.5t-24.5 133z" />
<glyph unicode="&#xa4;" d="M184 57l150 207q-61 88 -88 202t-27 216q0 104 25.5 218t85.5 202l-146 198h142l57 -137q41 39 96.5 61.5t124.5 22.5q72 0 126 -22.5t95 -63.5l60 139h143l-149 -202q57 -88 79.5 -200t22.5 -216q0 -98 -24.5 -210t-84.5 -200l156 -215h-143l-64 154q-41 -41 -95 -65.5 t-124 -24.5q-68 0 -121 21.5t-94 60.5l-61 -146h-142zM340 682q0 -57 12.5 -135t43 -148.5t80.5 -120t126 -49.5t126 49.5t79 119t41 147.5t12 137q0 61 -10 139t-38 147.5t-78 117t-132 47.5q-80 0 -131 -48.5t-80 -118t-40 -147.5t-11 -137z" />
<glyph unicode="&#xa5;" d="M80 1518h162l372 -521l367 521h152l-330 -465h178v-135h-274l-23 -33v-111h297v-135h-297v-639h-139v639h-295v135h295v111l-25 33h-270v135h170z" />
<glyph unicode="&#xa6;" d="M537 -387v870h139v-870h-139zM537 739v871h139v-871h-139z" />
<glyph unicode="&#xa7;" d="M307 84h121q0 -47 7 -102.5t26.5 -101.5t52.5 -76.5t84 -30.5t84 30.5t51.5 76.5t25.5 98.5t7 95.5q0 37 -7 73.5t-36 59.5q-49 -23 -105 -23q-84 0 -139 42t-89 104.5t-48 136.5t-14 139q0 76 17 160t61 149q-27 18 -43.5 45t-25.5 57t-12 59.5t-3 53.5q0 66 13 142 t47 139.5t90 105.5t142 42t142.5 -42t89.5 -106.5t45 -142.5t12 -148h-121q0 47 -7 102.5t-26.5 101.5t-52 77t-84.5 31q-51 0 -83.5 -31t-51 -77t-26 -98t-7.5 -96q0 -37 7.5 -73.5t35.5 -59.5q57 35 131 35q86 0 142.5 -42t89.5 -105.5t45 -138t12 -140.5q0 -39 -6 -81 t-18.5 -85t-30.5 -83t-43 -72q51 -39 65.5 -99.5t14.5 -111.5q0 -66 -13.5 -141.5t-47 -139t-90 -105.5t-142.5 -42t-142.5 42t-89 106.5t-45 142t-12.5 147.5zM449 606q0 -41 8 -92t28.5 -97t52 -78t80.5 -32t81 32t51.5 78t27.5 97t8 92q0 43 -7 95.5t-25.5 97.5t-51 75.5 t-84.5 30.5q-51 0 -83.5 -30.5t-52 -76.5t-26.5 -97.5t-7 -94.5z" />
<glyph unicode="&#xa8;" horiz-adv-x="542" d="M74 1479q0 35 24.5 60.5t59.5 25.5t59.5 -25.5t24.5 -60.5t-24.5 -59.5t-59.5 -24.5t-59.5 24.5t-24.5 59.5zM301 1479q0 35 24.5 60.5t59.5 25.5t59.5 -25.5t24.5 -60.5t-24.5 -59.5t-59.5 -24.5t-59.5 24.5t-24.5 59.5z" />
<glyph unicode="&#xa9;" horiz-adv-x="1558" d="M84 762q0 160 47 302t136 249.5t220 171t301 63.5q164 0 292 -66.5t215 -176t133.5 -250.5t46.5 -293q0 -160 -44.5 -305.5t-131.5 -256t-217 -176t-302 -65.5q-166 0 -296 67.5t-219 180t-135 257t-46 298.5zM217 762q0 -125 36 -247t107.5 -219t176 -156.5t243.5 -59.5 q143 0 250 58.5t175.5 153.5t102 218t33.5 252q0 125 -34.5 245.5t-103 214t-173 151t-242.5 57.5q-139 0 -245.5 -56.5t-179 -151t-109.5 -214t-37 -246.5zM483 756q0 80 18.5 160.5t58.5 146t105.5 106.5t157.5 41q57 0 113.5 -23.5t83.5 -64.5l-4 -139q-35 47 -78 82 t-104 35q-66 0 -109 -35t-67.5 -87t-35 -113.5t-10.5 -112.5q0 -49 10.5 -106.5t34 -107t64.5 -82t102 -32.5q68 0 117 29.5t90 83.5v-144q-41 -39 -98.5 -60.5t-122.5 -21.5q-90 0 -151.5 41t-100.5 105.5t-56.5 143.5t-17.5 155z" />
<glyph unicode="&#xaa;" horiz-adv-x="661" d="M37 639v78h590v-78h-590zM66 1057q0 74 21.5 129t56 94t81.5 58.5t97 19.5q61 0 101 -24.5t62 -55.5q0 27 -6 63.5t-33 69.5q-29 35 -72.5 40t-82.5 1l12 68h31.5t48.5 -3.5t54.5 -13.5t49.5 -28q45 -39 58.5 -100.5t13.5 -114.5l2 -310v-41q0 -41 6 -127h-71 q-2 18 -2 35v31q0 16 -2 31q-16 -35 -61.5 -70t-123.5 -35q-100 0 -170.5 70.5t-70.5 212.5zM143 1059q0 -104 53.5 -161.5t120.5 -55.5q68 2 109 33.5t61 70.5v252q-8 12 -19 27.5t-30.5 30t-46 24.5t-65.5 10q-74 0 -128.5 -61.5t-54.5 -169.5z" />
<glyph unicode="&#xab;" horiz-adv-x="776" d="M72 616l211 506h131l-219 -508l219 -505h-131zM360 616l211 506h131l-219 -508l219 -505h-131z" />
<glyph unicode="&#xac;" d="M238 664v135h737v-426h-135v291h-602z" />
<glyph unicode="&#xad;" d="M332 549v135h551v-135h-551z" />
<glyph unicode="&#xae;" horiz-adv-x="581" d="M39 1268q0 57 16.5 107t49 88t79.5 60.5t107 22.5q57 0 104 -23.5t80 -61.5t50.5 -88t17.5 -105q0 -57 -16.5 -109.5t-48.5 -91.5t-79 -61.5t-108 -22.5q-59 0 -106.5 23.5t-79 63.5t-49 91t-17.5 107zM96 1268q0 -43 12.5 -85t37 -74t61.5 -52.5t84 -20.5q49 0 86 19.5 t60.5 51.5t35.5 74t12 87q0 43 -12 84t-36.5 72.5t-61.5 51t-84 19.5t-84 -19.5t-61.5 -51t-37 -72.5t-12.5 -84zM201 1118v309q37 6 74.5 2t66.5 -19t47.5 -43t18.5 -71q0 -61 -52 -100l54 -78h-62l-35 56q-16 -4 -30.5 -7.5t-30.5 0.5v-49h-51zM252 1212q41 -6 72.5 16.5 t31.5 67.5t-31.5 69t-72.5 19v-172z" />
<glyph unicode="&#xaf;" horiz-adv-x="497" d="M49 1436v102h400v-102h-400z" />
<glyph unicode="&#xb0;" horiz-adv-x="819" />
<glyph unicode="&#xb1;" horiz-adv-x="1124" />
<glyph unicode="&#xb2;" horiz-adv-x="735" d="M33 545l377 391q27 27 54.5 59.5t50 67.5t36.5 71.5t14 73.5q0 72 -44 111t-111 41q-78 4 -150 -44t-143 -138v155q63 59 132.5 95t153.5 36q57 0 108.5 -17t89.5 -51t59.5 -82t21.5 -110q-2 -98 -57.5 -180t-126.5 -154l-211 -211h415v-114h-669z" />
<glyph unicode="&#xb3;" horiz-adv-x="735" d="M68 635v131q63 -61 130.5 -96t127.5 -35q98 0 160.5 54t62.5 153q0 55 -19.5 92t-55.5 58.5t-85 28.5t-106 3v92q37 6 72.5 20.5t63 35t45 47t17.5 55.5q0 49 -31.5 71.5t-78.5 22.5q-66 0 -120 -19.5t-130 -76.5v106q53 41 119.5 65.5t130.5 24.5q90 0 155.5 -47 t65.5 -147q0 -53 -28.5 -98.5t-71.5 -73.5q80 -23 128 -88.5t48 -159.5q0 -78 -26 -138.5t-71 -101.5t-107.5 -61.5t-135.5 -20.5q-78 0 -148.5 33t-111.5 70z" />
<glyph unicode="&#xb4;" horiz-adv-x="335" d="M43 1352l121 286h127l-168 -286h-80z" />
<glyph unicode="&#xb5;" horiz-adv-x="1179" />
<glyph unicode="&#xb6;" d="M90 1010q0 125 39 223t110.5 166.5t173 104.5t224.5 36h487v-1882h-139v1763h-121v-1763h-135v920q-45 -29 -99.5 -40.5t-105.5 -11.5q-102 0 -182 40t-136 106.5t-86 153.5t-30 184z" />
<glyph unicode="&#xb7;" horiz-adv-x="325" d="M57 664q0 43 31 73.5t74 30.5t73.5 -30.5t30.5 -73.5t-30.5 -74t-73.5 -31t-74 31t-31 74z" />
<glyph unicode="&#xb8;" horiz-adv-x="518" d="M86 -219l66 47q23 -27 51 -45.5t63 -18.5q20 0 40 8.5t20 32.5q0 18 -11.5 26.5t-27 11.5t-31.5 3h-29v168h90v-100q47 -2 81 -28.5t34 -75.5q0 -33 -14.5 -57.5t-38 -42t-52 -26t-59.5 -8.5q-59 0 -104 29t-78 76z" />
<glyph unicode="&#xb9;" horiz-adv-x="735" d="M311 545v909h113v-909h-113z" />
<glyph unicode="&#xba;" horiz-adv-x="661" d="M37 639v78h590v-78h-590zM72 1143q0 61 12 128.5t42 125t80 94.5t126 37t126 -37t79.5 -94.5t41 -125t11.5 -128.5q0 -59 -13.5 -126t-44 -124t-80 -94t-120.5 -37q-74 0 -123 37t-80 93t-44 123.5t-13 127.5zM147 1143q0 -41 8.5 -95.5t30 -103.5t57.5 -84t89 -35t89 35 t56.5 84t28.5 103.5t8 95.5q0 43 -7 98t-26.5 104.5t-55.5 83t-93 33.5q-55 0 -91 -33.5t-56.5 -83t-29 -104.5t-8.5 -98z" />
<glyph unicode="&#xbb;" horiz-adv-x="776" d="M72 109l219 505l-219 508h131l211 -506l-211 -507h-131zM360 109l220 505l-220 508h132l210 -506l-210 -507h-132z" />
<glyph unicode="&#xbc;" horiz-adv-x="1456" d="M176 -18l731 1503h142l-730 -1503h-143zM213 545v909h113v-909h-113zM582 131l600 834v-729h127v-105h-127v-131h-113v131h-487zM778 236h291v403z" />
<glyph unicode="&#xbd;" horiz-adv-x="1456" d="M127 -18l731 1503h141l-729 -1503h-143zM188 545v909h113v-909h-113zM659 0l377 391q27 27 54.5 59.5t50 67.5t37 72t14.5 74q0 72 -44 110.5t-112 40.5q-78 4 -149.5 -44t-143.5 -138v155q63 59 133 95.5t154 36.5q57 0 108.5 -17.5t89.5 -51.5t59.5 -82t21.5 -110 q-2 -98 -57.5 -180t-127.5 -153l-211 -211h416v-115h-670z" />
<glyph unicode="&#xbe;" horiz-adv-x="1456" d="M47 635v131q63 -61 131 -96t127 -35q98 0 160.5 54t62.5 153q0 55 -19.5 92t-55 58.5t-85 28.5t-106.5 3v92q37 6 73 20.5t63.5 35t45 47t17.5 55.5q0 49 -32 71.5t-79 22.5q-66 0 -120 -19.5t-130 -76.5v106q53 41 120 65.5t130 24.5q90 0 155.5 -47t65.5 -147 q0 -53 -28.5 -98.5t-71.5 -73.5q80 -23 128 -88.5t48 -159.5q0 -78 -25.5 -138.5t-70.5 -101.5t-107.5 -61.5t-136.5 -20.5q-78 0 -148.5 33t-111.5 70zM362 -18l732 1503h141l-729 -1503h-144zM692 131l600 834v-729h127v-105h-127v-131h-112v131h-488zM889 236h291v403z " />
<glyph unicode="&#xbf;" horiz-adv-x="780" d="M82 57q0 78 23.5 143.5t59.5 126t78 122t77.5 131t59 151.5t23.5 187h68q4 -16 4 -41v-46q0 -84 -20.5 -157.5t-51 -139t-67.5 -126t-67.5 -116.5t-51 -111.5t-20.5 -110.5q0 -92 52 -141.5t140 -49.5q45 0 82 12.5t66.5 31t52 40t39.5 41.5l69 -74q-66 -63 -140.5 -108 t-170.5 -45q-131 0 -218 69.5t-87 210.5zM332 1204q0 43 30.5 74t73.5 31t74 -31t31 -74t-31 -73.5t-74 -30.5t-73.5 30.5t-30.5 73.5z" />
<glyph unicode="&#xc0;" horiz-adv-x="1204" d="M37 0l563 1565l567 -1565h-135l-100 274h-666l-98 -274h-131zM311 401h576l-283 801zM393 1909h127l121 -287h-80z" />
<glyph unicode="&#xc1;" horiz-adv-x="1204" d="M37 0l563 1565l567 -1565h-135l-100 274h-666l-98 -274h-131zM311 401h576l-283 801zM559 1622l121 287h127l-168 -287h-80z" />
<glyph unicode="&#xc2;" horiz-adv-x="1204" d="M37 0l563 1565l567 -1565h-135l-100 274h-666l-98 -274h-131zM311 401h576l-283 801zM418 1614l121 287h127l120 -287h-79l-105 178l-104 -178h-80z" />
<glyph unicode="&#xc3;" horiz-adv-x="1204" d="M37 0l563 1565l567 -1565h-135l-100 274h-666l-98 -274h-131zM311 401h576l-283 801zM387 1698q6 18 17.5 41.5t29 43t38 33t44.5 13.5q31 0 52.5 -19.5t42 -44t40 -44t47.5 -19.5q35 0 59.5 28.5t39.5 55.5l37 -78q-18 -37 -47 -71.5t-85 -34.5q-33 0 -58.5 18 t-45.5 39.5t-39.5 40t-40.5 18.5q-12 0 -26.5 -10t-27.5 -25.5t-23.5 -32t-16.5 -28.5z" />
<glyph unicode="&#xc4;" horiz-adv-x="1204" d="M37 0l563 1565l567 -1565h-135l-100 274h-666l-98 -274h-131zM311 401h576l-283 801zM406 1692q0 35 24.5 60.5t58.5 25.5q35 0 59.5 -25.5t24.5 -60.5t-24.5 -59.5t-59.5 -24.5t-59 24.5t-24 59.5zM633 1692q0 35 24.5 60.5t59.5 25.5t59.5 -25.5t24.5 -60.5 t-24.5 -59.5t-59.5 -24.5t-59.5 24.5t-24.5 59.5z" />
<glyph unicode="&#xc5;" horiz-adv-x="1204" d="M37 0l563 1565l567 -1565h-135l-100 274h-666l-98 -274h-131zM311 401h576l-283 801zM455 1749q0 61 43 105t104 44t105.5 -44t44.5 -105t-44 -105.5t-106 -44.5q-61 0 -104 44.5t-43 105.5zM524 1749q0 -33 22.5 -56.5t55.5 -23.5t56.5 23.5t23.5 56.5t-23.5 55.5 t-56.5 22.5t-55.5 -22.5t-22.5 -55.5z" />
<glyph unicode="&#xc6;" horiz-adv-x="1785" d="M8 0l1002 1518h700v-115h-561v-397h381v-119h-381v-768h577v-119h-716v274h-660l-182 -274h-160zM432 401h578v875z" />
<glyph unicode="&#xc7;" horiz-adv-x="1050" d="M76 750q0 162 58.5 303t163.5 246.5t251.5 167t318.5 63.5q49 0 103 -6l2 -117q-25 4 -47.5 4h-48.5q-141 0 -262 -49t-209.5 -137t-138.5 -209t-50 -262q0 -135 39 -252t121 -204t203.5 -137t287.5 -50q27 0 50.5 2t48.5 6v-125q-47 -6 -97 -6q-14 0 -27.5 1t-27.5 1 v-76q47 -2 81 -28.5t34 -75.5q0 -33 -14.5 -57.5t-38 -42t-52 -26t-59.5 -8.5q-59 0 -104.5 29t-77.5 76l65 47q23 -27 51.5 -45.5t63.5 -18.5q20 0 39.5 8.5t19.5 32.5q0 18 -11 26.5t-26.5 11.5t-32 3h-28.5v152q-152 20 -271.5 82.5t-203.5 159t-129 225.5t-45 285z" />
<glyph unicode="&#xc8;" horiz-adv-x="907" d="M123 0v1518h700v-115h-561v-397h381v-119h-381v-768h578v-119h-717zM293 1909h127l121 -287h-80z" />
<glyph unicode="&#xc9;" horiz-adv-x="907" d="M123 0v1518h700v-115h-561v-397h381v-119h-381v-768h578v-119h-717zM432 1575l121 287h127l-168 -287h-80z" />
<glyph unicode="&#xca;" horiz-adv-x="907" d="M123 0v1518h700v-115h-561v-397h381v-119h-381v-768h578v-119h-717zM268 1614l121 287h127l121 -287h-80l-104 178l-105 -178h-80z" />
<glyph unicode="&#xcb;" horiz-adv-x="907" d="M123 0v1518h700v-115h-561v-397h381v-119h-381v-768h578v-119h-717zM256 1692q0 35 24.5 60.5t59.5 25.5t59.5 -25.5t24.5 -60.5t-24.5 -59.5t-59.5 -24.5t-59.5 24.5t-24.5 59.5zM483 1692q0 35 24.5 60.5t59.5 25.5t59.5 -25.5t24.5 -60.5t-24.5 -59.5t-59.5 -24.5 t-59.5 24.5t-24.5 59.5z" />
<glyph unicode="&#xcc;" horiz-adv-x="471" d="M25 1909h127l120 -287h-79zM166 0v1518h139v-1518h-139z" />
<glyph unicode="&#xcd;" horiz-adv-x="471" d="M166 0v1518h139v-1518h-139zM199 1622l120 287h127l-167 -287h-80z" />
<glyph unicode="&#xce;" horiz-adv-x="471" d="M51 1614l121 287h127l121 -287h-80l-104 178l-105 -178h-80zM166 0v1518h139v-1518h-139z" />
<glyph unicode="&#xcf;" horiz-adv-x="471" d="M37 1692q0 35 24.5 60.5t59.5 25.5t59.5 -25.5t24.5 -60.5t-24.5 -59.5t-59.5 -24.5t-59.5 24.5t-24.5 59.5zM166 0v1518h139v-1518h-139zM264 1692q0 35 24.5 60.5t59.5 25.5t59.5 -25.5t24.5 -60.5t-24.5 -59.5t-59.5 -24.5t-59.5 24.5t-24.5 59.5z" />
<glyph unicode="&#xd0;" horiz-adv-x="1126" d="M12 727v102h115v689q16 0 43 1t43 1q186 0 342 -46.5t268.5 -141.5t175 -241.5t62.5 -345.5q0 -190 -64.5 -331.5t-177 -234.5t-267.5 -138t-333 -45q-23 0 -46 1t-46 3v727h-115zM266 117q143 0 263 41t206 119.5t134.5 194.5t48.5 263q0 152 -46.5 271.5t-132.5 203.5 t-205.5 131.5t-267.5 51.5v-564h119v-102h-119v-610z" />
<glyph unicode="&#xd1;" horiz-adv-x="1253" d="M150 0v1559l829 -775v734h125v-1518h-131v602l-699 662v-1264h-124zM387 1698q6 18 17.5 41.5t29 43t38 33t44.5 13.5q31 0 52.5 -19.5t42 -44t40 -44t47.5 -19.5q35 0 59.5 28.5t39.5 55.5l37 -78q-18 -37 -47 -71.5t-85 -34.5q-33 0 -58.5 18t-45.5 39.5t-39.5 40 t-40.5 18.5q-12 0 -26.5 -10t-27.5 -25.5t-23.5 -32t-16.5 -28.5z" />
<glyph unicode="&#xd2;" horiz-adv-x="1501" d="M55 762q0 160 46 302t134.5 249.5t218.5 171t300 63.5q164 0 292 -65.5t217 -175t136 -251.5t47 -294q0 -160 -44 -305.5t-131 -256t-217 -176t-302 -65.5q-166 0 -296 67.5t-219.5 180t-135.5 257t-46 298.5zM188 762q0 -125 36 -247t107.5 -219t176 -156.5t244.5 -59.5 q143 0 249.5 58.5t175 153.5t102.5 218t34 252q0 125 -36 245.5t-106.5 214t-176 151t-242.5 57.5q-139 0 -245 -56.5t-176.5 -151t-106.5 -214t-36 -246.5zM535 1909h127l120 -287h-80z" />
<glyph unicode="&#xd3;" horiz-adv-x="1501" d="M55 762q0 160 46 302t134.5 249.5t218.5 171t300 63.5q164 0 292 -65.5t217 -175t136 -251.5t47 -294q0 -160 -44 -305.5t-131 -256t-217 -176t-302 -65.5q-166 0 -296 67.5t-219.5 180t-135.5 257t-46 298.5zM188 762q0 -125 36 -247t107.5 -219t176 -156.5t244.5 -59.5 q143 0 249.5 58.5t175 153.5t102.5 218t34 252q0 125 -36 245.5t-106.5 214t-176 151t-242.5 57.5q-139 0 -245 -56.5t-176.5 -151t-106.5 -214t-36 -246.5zM702 1622l121 287h127l-168 -287h-80z" />
<glyph unicode="&#xd4;" horiz-adv-x="1501" d="M55 762q0 160 46 302t134.5 249.5t218.5 171t300 63.5q164 0 292 -65.5t217 -175t136 -251.5t47 -294q0 -160 -44 -305.5t-131 -256t-217 -176t-302 -65.5q-166 0 -296 67.5t-219.5 180t-135.5 257t-46 298.5zM188 762q0 -125 36 -247t107.5 -219t176 -156.5t244.5 -59.5 q143 0 249.5 58.5t175 153.5t102.5 218t34 252q0 125 -36 245.5t-106.5 214t-176 151t-242.5 57.5q-139 0 -245 -56.5t-176.5 -151t-106.5 -214t-36 -246.5zM567 1614l121 287h127l121 -287h-80l-104 178l-105 -178h-80z" />
<glyph unicode="&#xd5;" horiz-adv-x="1501" d="M55 762q0 160 46 302t134.5 249.5t218.5 171t300 63.5q164 0 292 -65.5t217 -175t136 -251.5t47 -294q0 -160 -44 -305.5t-131 -256t-217 -176t-302 -65.5q-166 0 -296 67.5t-219.5 180t-135.5 257t-46 298.5zM188 762q0 -125 36 -247t107.5 -219t176 -156.5t244.5 -59.5 q143 0 249.5 58.5t175 153.5t102.5 218t34 252q0 125 -36 245.5t-106.5 214t-176 151t-242.5 57.5q-139 0 -245 -56.5t-176.5 -151t-106.5 -214t-36 -246.5zM528 1698q6 18 17.5 41.5t29 43t38 33t44.5 13.5q31 0 52.5 -19.5t42 -44t40 -44t48.5 -19.5q35 0 59.5 28.5 t38.5 55.5l37 -78q-18 -37 -47 -71.5t-84 -34.5q-33 0 -58.5 18t-46 39.5t-40 40t-40.5 18.5q-12 0 -26.5 -10t-27.5 -25.5t-23.5 -32t-16.5 -28.5z" />
<glyph unicode="&#xd6;" horiz-adv-x="1501" d="M55 762q0 160 46 302t134.5 249.5t218.5 171t300 63.5q164 0 292 -65.5t217 -175t136 -251.5t47 -294q0 -160 -44 -305.5t-131 -256t-217 -176t-302 -65.5q-166 0 -296 67.5t-219.5 180t-135.5 257t-46 298.5zM188 762q0 -125 36 -247t107.5 -219t176 -156.5t244.5 -59.5 q143 0 249.5 58.5t175 153.5t102.5 218t34 252q0 125 -36 245.5t-106.5 214t-176 151t-242.5 57.5q-139 0 -245 -56.5t-176.5 -151t-106.5 -214t-36 -246.5zM553 1692q0 35 24.5 60.5t59.5 25.5t59.5 -25.5t24.5 -60.5t-24.5 -59.5t-59.5 -24.5t-59.5 24.5t-24.5 59.5z M780 1692q0 35 24.5 60.5t59.5 25.5t59.5 -25.5t24.5 -60.5t-24.5 -59.5t-59.5 -24.5t-59.5 24.5t-24.5 59.5z" />
<glyph unicode="&#xd7;" d="M365 469l147 147l-147 148l94 94l147 -147l148 147l96 -94l-148 -148l148 -147l-94 -94l-148 147l-147 -147z" />
<glyph unicode="&#xd8;" horiz-adv-x="1501" d="M55 762q0 160 46 302t134.5 249.5t218.5 171t300 63.5q111 0 215 -33.5t190 -101.5l103 148l102 -72l-115 -162q100 -117 148.5 -264t48.5 -301q0 -160 -44 -305.5t-131 -256t-217 -176t-302 -65.5q-102 0 -198.5 29.5t-180.5 89.5l-103 -148l-100 72l109 158 q-115 121 -169.5 279.5t-54.5 322.5zM188 762q0 -133 40 -263t126 -233l733 1045q-72 59 -157.5 89t-177.5 30q-139 0 -245 -56.5t-176.5 -151t-106.5 -214t-36 -246.5zM444 180q66 -51 145 -75.5t163 -24.5q143 0 249.5 58.5t175 153.5t102.5 218t34 252q0 121 -34 239.5 t-105 217.5z" />
<glyph unicode="&#xd9;" horiz-adv-x="1089" d="M123 426v1092h135v-1090q0 -78 13.5 -139.5t45 -103.5t87 -64.5t141.5 -22.5q84 0 139 22.5t89 65.5t47.5 104.5t13.5 137.5v1090h135v-1092q0 -207 -102.5 -326.5t-321.5 -119.5q-223 0 -322.5 118.5t-99.5 327.5zM358 1909h127l121 -287h-80z" />
<glyph unicode="&#xda;" horiz-adv-x="1089" d="M123 426v1092h135v-1090q0 -78 13.5 -139.5t45 -103.5t87 -64.5t141.5 -22.5q84 0 139 22.5t89 65.5t47.5 104.5t13.5 137.5v1090h135v-1092q0 -207 -102.5 -326.5t-321.5 -119.5q-223 0 -322.5 118.5t-99.5 327.5zM455 1622l120 287h127l-167 -287h-80z" />
<glyph unicode="&#xdb;" horiz-adv-x="1089" d="M123 426v1092h135v-1090q0 -78 13.5 -139.5t45 -103.5t87 -64.5t141.5 -22.5q84 0 139 22.5t89 65.5t47.5 104.5t13.5 137.5v1090h135v-1092q0 -207 -102.5 -326.5t-321.5 -119.5q-223 0 -322.5 118.5t-99.5 327.5zM360 1614l121 287h127l121 -287h-80l-104 178 l-105 -178h-80z" />
<glyph unicode="&#xdc;" horiz-adv-x="1089" d="M123 426v1092h135v-1090q0 -78 13.5 -139.5t45 -103.5t87 -64.5t141.5 -22.5q84 0 139 22.5t89 65.5t47.5 104.5t13.5 137.5v1090h135v-1092q0 -207 -102.5 -326.5t-321.5 -119.5q-223 0 -322.5 118.5t-99.5 327.5zM348 1692q0 35 24.5 60.5t59.5 25.5t59.5 -25.5 t24.5 -60.5t-24.5 -59.5t-59.5 -24.5t-59.5 24.5t-24.5 59.5zM575 1692q0 35 25 60.5t59 25.5q35 0 59.5 -25.5t24.5 -60.5t-24.5 -59.5t-59.5 -24.5t-59.5 24.5t-24.5 59.5z" />
<glyph unicode="&#xdd;" horiz-adv-x="1138" d="M43 1518h162l373 -521l366 521h152l-449 -633v-885h-139v885zM514 1575l121 287h127l-168 -287h-80z" />
<glyph unicode="&#xde;" horiz-adv-x="1124" d="M119 0v1518h125v-144h139q152 0 274.5 -44t209.5 -128t134.5 -204.5t47.5 -276.5q0 -115 -36 -222.5t-103.5 -190.5t-165 -133t-220.5 -50q-33 0 -70.5 5t-75.5 15.5t-72 26.5t-56 39v-211h-131zM250 328q61 -37 109.5 -56.5t123.5 -19.5q111 0 191 38t132 103.5 t76.5 154.5t24.5 191q0 100 -31.5 188.5t-91 156t-142.5 111.5t-185 56q-25 2 -44.5 4t-42 3.5t-51 2.5t-69.5 1v-934z" />
<glyph unicode="&#xdf;" horiz-adv-x="1007" d="M55 838v112h66v432q0 43 20.5 72t52 44t70.5 21.5t74 6.5q154 0 243 -89t89 -245q0 -37 -6.5 -75t-21.5 -72.5t-41 -62.5t-62 -40q98 -4 171.5 -43t125 -102.5t77 -146.5t25.5 -175q0 -127 -49 -223t-129 -159.5t-183.5 -89.5t-211.5 -9v121q78 -6 156.5 14.5t142 66.5 t103.5 116.5t40 164.5t-29.5 163t-82 114t-127 65.5t-162.5 20.5q-10 0 -20.5 -1t-20.5 -1v112q100 16 137 81t37 161q0 45 -11.5 85t-35 70.5t-59.5 48t-85 17.5q-29 0 -59.5 -9t-30.5 -44v-1477h-137v955h-66z" />
<glyph unicode="&#xe0;" horiz-adv-x="993" d="M68 457q0 123 34.5 216t93 156.5t135.5 96t161 32.5q104 0 169.5 -38.5t104.5 -92.5q0 43 -11.5 105.5t-54.5 116.5q-23 27 -54.5 43t-66 22t-70.5 6t-67 -2l19 113q16 0 53 1t81 -5t91 -22.5t84 -49.5t59.5 -76t36 -91t17.5 -98t4 -93l4 -516q-2 -29 0 -68q0 -35 3 -88 t7 -125h-119q-2 31 -2 59.5t-2 51.5q-2 25 -2 49q-12 -29 -37.5 -59.5t-63.5 -55.5t-89 -41t-117 -16q-84 0 -156.5 28.5t-127 87t-86 146.5t-31.5 207zM197 461q0 -86 24.5 -154.5t64.5 -115t92 -70t107 -23.5q113 2 180.5 55.5t102.5 118.5v422q-12 20 -32.5 46 t-52.5 49.5t-77 40t-108 16.5q-61 0 -116.5 -26.5t-96.5 -76t-64.5 -121t-23.5 -161.5zM399 1638h127l121 -286h-80z" />
<glyph unicode="&#xe1;" horiz-adv-x="993" d="M68 457q0 123 34.5 216t93 156.5t135.5 96t161 32.5q104 0 169.5 -38.5t104.5 -92.5q0 43 -11.5 105.5t-54.5 116.5q-23 27 -54.5 43t-66 22t-70.5 6t-67 -2l19 113q16 0 53 1t81 -5t91 -22.5t84 -49.5t59.5 -76t36 -91t17.5 -98t4 -93l4 -516q-2 -29 0 -68q0 -35 3 -88 t7 -125h-119q-2 31 -2 59.5t-2 51.5q-2 25 -2 49q-12 -29 -37.5 -59.5t-63.5 -55.5t-89 -41t-117 -16q-84 0 -156.5 28.5t-127 87t-86 146.5t-31.5 207zM197 461q0 -86 24.5 -154.5t64.5 -115t92 -70t107 -23.5q113 2 180.5 55.5t102.5 118.5v422q-12 20 -32.5 46 t-52.5 49.5t-77 40t-108 16.5q-61 0 -116.5 -26.5t-96.5 -76t-64.5 -121t-23.5 -161.5zM461 1352l121 286h127l-168 -286h-80z" />
<glyph unicode="&#xe2;" horiz-adv-x="993" d="M68 457q0 123 34.5 216t93 156.5t135.5 96t161 32.5q104 0 169.5 -38.5t104.5 -92.5q0 43 -11.5 105.5t-54.5 116.5q-23 27 -54.5 43t-66 22t-70.5 6t-67 -2l19 113q16 0 53 1t81 -5t91 -22.5t84 -49.5t59.5 -76t36 -91t17.5 -98t4 -93l4 -516q-2 -29 0 -68q0 -35 3 -88 t7 -125h-119q-2 31 -2 59.5t-2 51.5q-2 25 -2 49q-12 -29 -37.5 -59.5t-63.5 -55.5t-89 -41t-117 -16q-84 0 -156.5 28.5t-127 87t-86 146.5t-31.5 207zM197 461q0 -86 24.5 -154.5t64.5 -115t92 -70t107 -23.5q113 2 180.5 55.5t102.5 118.5v422q-12 20 -32.5 46 t-52.5 49.5t-77 40t-108 16.5q-61 0 -116.5 -26.5t-96.5 -76t-64.5 -121t-23.5 -161.5zM328 1352l121 286h126l121 -286h-80l-104 178l-104 -178h-80z" />
<glyph unicode="&#xe3;" horiz-adv-x="993" d="M68 457q0 123 34.5 216t93 156.5t135.5 96t161 32.5q104 0 169.5 -38.5t104.5 -92.5q0 43 -11.5 105.5t-54.5 116.5q-23 27 -54.5 43t-66 22t-70.5 6t-67 -2l19 113q16 0 53 1t81 -5t91 -22.5t84 -49.5t59.5 -76t36 -91t17.5 -98t4 -93l4 -516q-2 -29 0 -68q0 -35 3 -88 t7 -125h-119q-2 31 -2 59.5t-2 51.5q-2 25 -2 49q-12 -29 -37.5 -59.5t-63.5 -55.5t-89 -41t-117 -16q-84 0 -156.5 28.5t-127 87t-86 146.5t-31.5 207zM197 461q0 -86 24.5 -154.5t64.5 -115t92 -70t107 -23.5q113 2 180.5 55.5t102.5 118.5v422q-12 20 -32.5 46 t-52.5 49.5t-77 40t-108 16.5q-61 0 -116.5 -26.5t-96.5 -76t-64.5 -121t-23.5 -161.5zM303 1477q6 18 17.5 41.5t29 43t38 33t44.5 13.5q31 0 52.5 -19.5t42 -44t40 -44t47.5 -19.5q35 0 59.5 28.5t39.5 55.5l37 -78q-18 -37 -47 -72t-85 -35q-33 0 -58 18.5t-45.5 40 t-40 40t-40.5 18.5q-12 0 -26.5 -10t-27.5 -25.5t-23.5 -32t-16.5 -28.5z" />
<glyph unicode="&#xe4;" horiz-adv-x="993" d="M68 457q0 123 34.5 216t93 156.5t135.5 96t161 32.5q104 0 169.5 -38.5t104.5 -92.5q0 43 -11.5 105.5t-54.5 116.5q-23 27 -54.5 43t-66 22t-70.5 6t-67 -2l19 113q16 0 53 1t81 -5t91 -22.5t84 -49.5t59.5 -76t36 -91t17.5 -98t4 -93l4 -516q-2 -29 0 -68q0 -35 3 -88 t7 -125h-119q-2 31 -2 59.5t-2 51.5q-2 25 -2 49q-12 -29 -37.5 -59.5t-63.5 -55.5t-89 -41t-117 -16q-84 0 -156.5 28.5t-127 87t-86 146.5t-31.5 207zM197 461q0 -86 24.5 -154.5t64.5 -115t92 -70t107 -23.5q113 2 180.5 55.5t102.5 118.5v422q-12 20 -32.5 46 t-52.5 49.5t-77 40t-108 16.5q-61 0 -116.5 -26.5t-96.5 -76t-64.5 -121t-23.5 -161.5zM326 1479q0 35 24.5 60.5t59.5 25.5t59.5 -25.5t24.5 -60.5t-25 -59.5t-59 -24.5q-35 0 -59.5 24.5t-24.5 59.5zM553 1479q0 35 24.5 60.5t59.5 25.5t59.5 -25.5t24.5 -60.5 t-24.5 -59.5t-59.5 -24.5t-59.5 24.5t-24.5 59.5z" />
<glyph unicode="&#xe5;" horiz-adv-x="993" d="M68 457q0 123 34.5 216t93 156.5t135.5 96t161 32.5q104 0 169.5 -38.5t104.5 -92.5q0 43 -11.5 105.5t-54.5 116.5q-23 27 -54.5 43t-66 22t-70.5 6t-67 -2l19 113q16 0 53 1t81 -5t91 -22.5t84 -49.5t59.5 -76t36 -91t17.5 -98t4 -93l4 -516q-2 -29 0 -68q0 -35 3 -88 t7 -125h-119q-2 31 -2 59.5t-2 51.5q-2 25 -2 49q-12 -29 -37.5 -59.5t-63.5 -55.5t-89 -41t-117 -16q-84 0 -156.5 28.5t-127 87t-86 146.5t-31.5 207zM197 461q0 -86 24.5 -154.5t64.5 -115t92 -70t107 -23.5q113 2 180.5 55.5t102.5 118.5v422q-12 20 -32.5 46 t-52.5 49.5t-77 40t-108 16.5q-61 0 -116.5 -26.5t-96.5 -76t-64.5 -121t-23.5 -161.5zM362 1491q0 61 43.5 105t104.5 44t105 -44t44 -105t-44 -105.5t-105 -44.5t-104.5 44.5t-43.5 105.5zM432 1491q0 -33 22.5 -56.5t55.5 -23.5t56.5 23.5t23.5 56.5t-23.5 55.5 t-56.5 22.5t-55.5 -22.5t-22.5 -55.5z" />
<glyph unicode="&#xe6;" horiz-adv-x="1572" d="M55 457q0 123 35 216t93.5 156.5t135 96t160.5 32.5q104 0 170 -38.5t105 -92.5q0 43 -11.5 105.5t-54.5 116.5q-23 29 -54.5 44t-66.5 22t-70.5 6t-66.5 -3l19 113q16 0 53 1t81 -5t91 -22.5t84 -49.5q29 -25 47 -56.5t33 -66.5q47 94 129 155.5t207 61.5 q96 0 163.5 -44t108.5 -110.5t58.5 -144.5t15.5 -147h-627q-10 -68 -12 -116t-2 -101q0 -76 16 -163t54 -162t101.5 -124t157.5 -49q33 0 72 7t76 20.5t68.5 34t54.5 49.5v-125q-53 -57 -132 -80t-153 -23q-106 0 -202.5 50.5t-155.5 164.5q-16 -43 -47 -80.5t-78 -67.5 t-110.5 -47.5t-143.5 -17.5q-84 0 -157 31t-127 92.5t-86 151.5t-32 209zM184 461q0 -86 24.5 -157t64.5 -120t92.5 -74.5t107.5 -25.5t100 17.5t79 44t59.5 59.5t42.5 65v426q-12 20 -33 46t-51.5 48.5t-75.5 39t-109 16.5q-61 0 -116.5 -26.5t-96.5 -76t-64.5 -121 t-23.5 -161.5zM915 911h459q2 39 -11 81t-39 75t-63.5 54.5t-86.5 21.5q-51 0 -93.5 -19.5t-75 -51.5t-55 -74t-35.5 -87z" />
<glyph unicode="&#xe7;" horiz-adv-x="870" d="M61 602q0 106 24 221t79 210t143 156.5t217 61.5q72 0 133.5 -13t114.5 -64l-2 -140q-41 57 -101.5 85t-129.5 28q-102 0 -170 -56.5t-108 -139.5t-56.5 -179t-16.5 -176q0 -76 17.5 -166t57.5 -169t105.5 -131t161.5 -52q33 0 72 5t76 17.5t69.5 32t53.5 49.5v-125 q-53 -51 -115.5 -68.5t-130.5 -21.5v-53q47 -2 80 -28.5t33 -75.5q0 -33 -14.5 -57.5t-38 -42t-52 -26t-59.5 -8.5q-59 0 -104.5 29t-77.5 76l67 47q23 -27 50.5 -45.5t62.5 -18.5q20 0 39.5 8.5t19.5 32.5q0 18 -11 26.5t-26.5 11.5t-32 3h-28.5v123q-111 12 -186.5 76 t-124 155t-70 197.5t-21.5 204.5z" />
<glyph unicode="&#xe8;" horiz-adv-x="899" d="M59 596q0 102 18.5 217t65.5 212t130 160.5t210 63.5q96 0 164 -44t109 -110.5t58 -144.5t15 -147h-626q-10 -68 -12.5 -116t-2.5 -101q0 -76 16.5 -163t54.5 -162t101.5 -124t157.5 -49q33 0 72 7t75.5 20.5t68.5 34t54 49.5v-125q-53 -57 -131.5 -80t-152.5 -23 q-127 0 -213 57.5t-137.5 148.5t-73 201.5t-21.5 217.5zM225 911h459q2 39 -11.5 81t-39 75t-63.5 54.5t-87 21.5q-51 0 -93 -19.5t-74.5 -51.5t-55 -74t-35.5 -87zM274 1638h127l121 -286h-80z" />
<glyph unicode="&#xe9;" horiz-adv-x="899" d="M59 596q0 102 18.5 217t65.5 212t130 160.5t210 63.5q96 0 164 -44t109 -110.5t58 -144.5t15 -147h-626q-10 -68 -12.5 -116t-2.5 -101q0 -76 16.5 -163t54.5 -162t101.5 -124t157.5 -49q33 0 72 7t75.5 20.5t68.5 34t54 49.5v-125q-53 -57 -131.5 -80t-152.5 -23 q-127 0 -213 57.5t-137.5 148.5t-73 201.5t-21.5 217.5zM225 911h459q2 39 -11.5 81t-39 75t-63.5 54.5t-87 21.5q-51 0 -93 -19.5t-74.5 -51.5t-55 -74t-35.5 -87zM412 1352l120 286h127l-167 -286h-80z" />
<glyph unicode="&#xea;" horiz-adv-x="899" d="M59 596q0 102 18.5 217t65.5 212t130 160.5t210 63.5q96 0 164 -44t109 -110.5t58 -144.5t15 -147h-626q-10 -68 -12.5 -116t-2.5 -101q0 -76 16.5 -163t54.5 -162t101.5 -124t157.5 -49q33 0 72 7t75.5 20.5t68.5 34t54 49.5v-125q-53 -57 -131.5 -80t-152.5 -23 q-127 0 -213 57.5t-137.5 148.5t-73 201.5t-21.5 217.5zM225 911h459q2 39 -11.5 81t-39 75t-63.5 54.5t-87 21.5q-51 0 -93 -19.5t-74.5 -51.5t-55 -74t-35.5 -87zM264 1352l121 286h127l121 -286h-80l-104 178l-105 -178h-80z" />
<glyph unicode="&#xeb;" horiz-adv-x="899" d="M59 596q0 102 18.5 217t65.5 212t130 160.5t210 63.5q96 0 164 -44t109 -110.5t58 -144.5t15 -147h-626q-10 -68 -12.5 -116t-2.5 -101q0 -76 16.5 -163t54.5 -162t101.5 -124t157.5 -49q33 0 72 7t75.5 20.5t68.5 34t54 49.5v-125q-53 -57 -131.5 -80t-152.5 -23 q-127 0 -213 57.5t-137.5 148.5t-73 201.5t-21.5 217.5zM225 911h459q2 39 -11.5 81t-39 75t-63.5 54.5t-87 21.5q-51 0 -93 -19.5t-74.5 -51.5t-55 -74t-35.5 -87zM252 1479q0 35 24.5 60.5t59.5 25.5t59.5 -25.5t24.5 -60.5t-24.5 -59.5t-59.5 -24.5t-59.5 24.5 t-24.5 59.5zM479 1479q0 35 24.5 60.5t59.5 25.5t59.5 -25.5t24.5 -60.5t-24.5 -59.5t-59.5 -24.5t-59.5 24.5t-24.5 59.5z" />
<glyph unicode="&#xec;" horiz-adv-x="471" d="M23 1638h127l120 -286h-80zM174 0v1214h125v-1214h-125z" />
<glyph unicode="&#xed;" horiz-adv-x="471" d="M174 0v1214h125v-1214h-125zM197 1352l120 286h127l-168 -286h-79z" />
<glyph unicode="&#xee;" horiz-adv-x="471" d="M51 1352l121 286h127l121 -286h-80l-104 178l-105 -178h-80zM174 0v1214h125v-1214h-125z" />
<glyph unicode="&#xef;" horiz-adv-x="471" d="M39 1479q0 35 24.5 60.5t59.5 25.5t59.5 -25.5t24.5 -60.5t-24.5 -59.5t-59.5 -24.5t-59.5 24.5t-24.5 59.5zM174 0v1214h125v-1214h-125zM266 1479q0 35 24.5 60.5t59.5 25.5t59.5 -25.5t24.5 -60.5t-24.5 -59.5t-59.5 -24.5t-59.5 24.5t-24.5 59.5z" />
<glyph unicode="&#xf0;" horiz-adv-x="993" d="M74 606q0 100 20.5 211t69.5 204t131 153.5t205 60.5q59 0 104 -13.5t86 -39.5q-8 29 -49 89t-121 120l-147 -91l-64 82l111 68q-47 23 -102.5 41t-120.5 27l-19 114q35 0 80 -11t93 -28.5t94.5 -38t82.5 -41.5l150 89l55 -80l-110 -66q92 -76 149 -177t90 -214 t45.5 -230.5t12.5 -228.5q0 -96 -21.5 -205.5t-71 -202t-130.5 -153.5t-199 -61q-121 0 -202 60t-130 152.5t-70.5 202t-21.5 207.5zM197 606q0 -66 14 -156t49 -170.5t92.5 -137t145.5 -56.5t146 56.5t92 137t47.5 169.5t13.5 157q0 47 -5.5 104.5t-17.5 115t-33.5 111.5 t-54.5 96t-80 67.5t-108 25.5t-107.5 -25.5t-79 -68.5t-55.5 -97t-36 -111.5t-18 -115t-5 -102.5z" />
<glyph unicode="&#xf1;" horiz-adv-x="989" d="M127 0v1214h125v-143q41 74 113.5 114t158.5 40q113 0 190 -50.5t122 -129t64.5 -176t19.5 -193.5q0 -104 -7.5 -187t-23 -160t-39 -155t-57.5 -174h-131q37 88 61.5 167t39.5 155.5t21.5 159.5t6.5 182q0 72 -11.5 149.5t-42 143t-87 108.5t-144.5 43 q-113 0 -172.5 -66.5t-81.5 -167.5v-874h-125zM303 1477q6 18 17.5 41.5t29 43t38 33t44.5 13.5q31 0 52.5 -19.5t42 -44t40 -44t47.5 -19.5q35 0 59.5 28.5t39.5 55.5l37 -78q-18 -37 -47 -72t-85 -35q-33 0 -58 18.5t-45.5 40t-40 40t-40.5 18.5q-12 0 -26.5 -10 t-27.5 -25.5t-23.5 -32t-16.5 -28.5z" />
<glyph unicode="&#xf2;" horiz-adv-x="989" d="M63 606q0 102 20.5 215t71 208t134.5 156.5t209 61.5q127 0 210 -61.5t131 -156.5t67.5 -208t19.5 -215q0 -98 -21.5 -209.5t-73 -206t-133.5 -157t-202 -62.5q-123 0 -205 62.5t-133.5 157t-73 206t-21.5 209.5zM188 606q0 -68 14.5 -159t49.5 -174t94.5 -140t149.5 -57 t148 57t93 139t49.5 174t14.5 160q0 72 -12.5 164t-45 173t-93 137.5t-154.5 56.5t-153.5 -56.5t-93.5 -138.5t-47.5 -174t-13.5 -162zM293 1638h127l121 -286h-80z" />
<glyph unicode="&#xf3;" horiz-adv-x="989" d="M63 606q0 102 20.5 215t71 208t134.5 156.5t209 61.5q127 0 210 -61.5t131 -156.5t67.5 -208t19.5 -215q0 -98 -21.5 -209.5t-73 -206t-133.5 -157t-202 -62.5q-123 0 -205 62.5t-133.5 157t-73 206t-21.5 209.5zM188 606q0 -68 14.5 -159t49.5 -174t94.5 -140t149.5 -57 t148 57t93 139t49.5 174t14.5 160q0 72 -12.5 164t-45 173t-93 137.5t-154.5 56.5t-153.5 -56.5t-93.5 -138.5t-47.5 -174t-13.5 -162zM461 1352l121 286h127l-168 -286h-80z" />
<glyph unicode="&#xf4;" horiz-adv-x="989" d="M63 606q0 102 20.5 215t71 208t134.5 156.5t209 61.5q127 0 210 -61.5t131 -156.5t67.5 -208t19.5 -215q0 -98 -21.5 -209.5t-73 -206t-133.5 -157t-202 -62.5q-123 0 -205 62.5t-133.5 157t-73 206t-21.5 209.5zM188 606q0 -68 14.5 -159t49.5 -174t94.5 -140t149.5 -57 t148 57t93 139t49.5 174t14.5 160q0 72 -12.5 164t-45 173t-93 137.5t-154.5 56.5t-153.5 -56.5t-93.5 -138.5t-47.5 -174t-13.5 -162zM311 1352l121 286h127l121 -286h-80l-104 178l-105 -178h-80z" />
<glyph unicode="&#xf5;" horiz-adv-x="989" d="M63 606q0 102 20.5 215t71 208t134.5 156.5t209 61.5q127 0 210 -61.5t131 -156.5t67.5 -208t19.5 -215q0 -98 -21.5 -209.5t-73 -206t-133.5 -157t-202 -62.5q-123 0 -205 62.5t-133.5 157t-73 206t-21.5 209.5zM188 606q0 -68 14.5 -159t49.5 -174t94.5 -140t149.5 -57 t148 57t93 139t49.5 174t14.5 160q0 72 -12.5 164t-45 173t-93 137.5t-154.5 56.5t-153.5 -56.5t-93.5 -138.5t-47.5 -174t-13.5 -162zM272 1477q6 18 17.5 41.5t29 43t38 33t44.5 13.5q31 0 52.5 -19.5t42 -44t40 -44t48.5 -19.5q35 0 59.5 28.5t38.5 55.5l37 -78 q-18 -37 -47 -72t-84 -35q-33 0 -58.5 18.5t-46 40t-40 40t-40.5 18.5q-12 0 -26.5 -10t-27.5 -25.5t-23.5 -32t-16.5 -28.5z" />
<glyph unicode="&#xf6;" horiz-adv-x="989" d="M63 606q0 102 20.5 215t71 208t134.5 156.5t209 61.5q127 0 210 -61.5t131 -156.5t67.5 -208t19.5 -215q0 -98 -21.5 -209.5t-73 -206t-133.5 -157t-202 -62.5q-123 0 -205 62.5t-133.5 157t-73 206t-21.5 209.5zM188 606q0 -68 14.5 -159t49.5 -174t94.5 -140t149.5 -57 t148 57t93 139t49.5 174t14.5 160q0 72 -12.5 164t-45 173t-93 137.5t-154.5 56.5t-153.5 -56.5t-93.5 -138.5t-47.5 -174t-13.5 -162zM297 1479q0 35 24.5 60.5t59.5 25.5t59.5 -25.5t24.5 -60.5t-24.5 -59.5t-59.5 -24.5t-59.5 24.5t-24.5 59.5zM524 1479q0 35 24.5 60.5 t59.5 25.5t59.5 -25.5t24.5 -60.5t-24.5 -59.5t-59.5 -24.5t-59.5 24.5t-24.5 59.5z" />
<glyph unicode="&#xf7;" horiz-adv-x="1124" />
<glyph unicode="&#xf8;" horiz-adv-x="989" d="M35 55l108 158q-45 92 -63.5 195.5t-18.5 197.5q0 102 20.5 215t71 208t134.5 156.5t209 61.5q94 0 162.5 -33.5t117.5 -93.5l78 113l102 -72l-108 -153q43 -92 59.5 -197.5t16.5 -204.5q0 -98 -21.5 -209.5t-73 -206t-133.5 -157t-202 -62.5q-92 0 -162 36t-119 95 l-84 -118zM186 606q0 -55 9.5 -127.5t31.5 -144.5l478 682q-35 53 -87.5 87t-123.5 34q-94 0 -153.5 -56.5t-93.5 -138.5t-47.5 -174t-13.5 -162zM285 205q18 -33 45.5 -57.5t57.5 -40t57.5 -23.5t48.5 -8q90 0 148 57t93 139t49.5 174t14.5 160q0 59 -7.5 133t-29.5 146z " />
<glyph unicode="&#xf9;" horiz-adv-x="1007" d="M98 428q0 68 11.5 133.5t23.5 130.5q18 100 32.5 200.5t14.5 203.5q0 59 -6 118h121q8 -27 10 -55.5t2 -56.5q0 -84 -12 -167t-26.5 -166t-27 -165t-12.5 -166q0 -166 80 -253t252 -87q49 0 98.5 3t98.5 8v1105h125v-1214q-88 0 -176.5 -7t-176.5 -7q-217 0 -324.5 115.5 t-107.5 326.5zM344 1638h127l121 -286h-80z" />
<glyph unicode="&#xfa;" horiz-adv-x="1007" d="M98 428q0 68 11.5 133.5t23.5 130.5q18 100 32.5 200.5t14.5 203.5q0 59 -6 118h121q8 -27 10 -55.5t2 -56.5q0 -84 -12 -167t-26.5 -166t-27 -165t-12.5 -166q0 -166 80 -253t252 -87q49 0 98.5 3t98.5 8v1105h125v-1214q-88 0 -176.5 -7t-176.5 -7q-217 0 -324.5 115.5 t-107.5 326.5zM453 1352l120 286h127l-168 -286h-79z" />
<glyph unicode="&#xfb;" horiz-adv-x="1007" d="M98 428q0 68 11.5 133.5t23.5 130.5q18 100 32.5 200.5t14.5 203.5q0 59 -6 118h121q8 -27 10 -55.5t2 -56.5q0 -84 -12 -167t-26.5 -166t-27 -165t-12.5 -166q0 -166 80 -253t252 -87q49 0 98.5 3t98.5 8v1105h125v-1214q-88 0 -176.5 -7t-176.5 -7q-217 0 -324.5 115.5 t-107.5 326.5zM348 1352l121 286h127l121 -286h-80l-105 178l-104 -178h-80z" />
<glyph unicode="&#xfc;" horiz-adv-x="1007" d="M98 428q0 68 11.5 133.5t23.5 130.5q18 100 32.5 200.5t14.5 203.5q0 59 -6 118h121q8 -27 10 -55.5t2 -56.5q0 -84 -12 -167t-26.5 -166t-27 -165t-12.5 -166q0 -166 80 -253t252 -87q49 0 98.5 3t98.5 8v1105h125v-1214q-88 0 -176.5 -7t-176.5 -7q-217 0 -324.5 115.5 t-107.5 326.5zM326 1479q0 35 24.5 60.5t59.5 25.5t59.5 -25.5t24.5 -60.5t-25 -59.5t-59 -24.5q-35 0 -59.5 24.5t-24.5 59.5zM553 1479q0 35 24.5 60.5t59.5 25.5t59.5 -25.5t24.5 -60.5t-24.5 -59.5t-59.5 -24.5t-59.5 24.5t-24.5 59.5z" />
<glyph unicode="&#xfd;" horiz-adv-x="956" d="M106 428q0 80 8.5 158t19.5 156.5t19.5 157.5t8.5 159q0 39 -1 78t-5 77h127q4 -29 6 -57.5t2 -56.5q0 -123 -11.5 -244t-29.5 -244q-6 -43 -10 -86t-4 -88q0 -55 8 -114.5t31.5 -109.5t65.5 -82t112 -32q133 0 197.5 82t64.5 205v827h123v-1255q0 -70 -21.5 -130 t-61.5 -104t-98.5 -70t-130.5 -26q-63 0 -123.5 16.5t-117.5 41.5l45 106q82 -53 180 -53q57 0 96 19.5t63.5 54t35 80t10.5 98.5v149q-16 -37 -48 -64.5t-72 -47t-82 -28.5t-79 -9q-94 0 -156.5 38t-100.5 99t-54.5 140t-16.5 159zM416 1352l121 286h127l-168 -286h-80z " />
<glyph unicode="&#xfe;" horiz-adv-x="989" d="M123 -383v2001h125v-557q45 76 119.5 120t167.5 44q123 0 198.5 -58.5t117.5 -147.5t57.5 -197t15.5 -204q0 -92 -16.5 -203.5t-59.5 -207.5t-120 -161.5t-196 -65.5q-35 0 -76.5 9t-80.5 28.5t-73 52t-54 82.5v-535h-125zM248 369q0 -53 21.5 -102.5t57 -88.5t84 -62.5 t101.5 -23.5q96 0 152.5 56.5t86 137.5t39 171.5t9.5 160.5q0 74 -9.5 160t-39 160t-87 122t-153.5 48q-59 0 -107.5 -23.5t-82 -62.5t-53 -91t-19.5 -108v-454z" />
<glyph unicode="&#xff;" horiz-adv-x="956" d="M106 428q0 80 8.5 158t19.5 156.5t19.5 157.5t8.5 159q0 39 -1 78t-5 77h127q4 -29 6 -57.5t2 -56.5q0 -123 -11.5 -244t-29.5 -244q-6 -43 -10 -86t-4 -88q0 -55 8 -114.5t31.5 -109.5t65.5 -82t112 -32q133 0 197.5 82t64.5 205v827h123v-1255q0 -70 -21.5 -130 t-61.5 -104t-98.5 -70t-130.5 -26q-63 0 -123.5 16.5t-117.5 41.5l45 106q82 -53 180 -53q57 0 96 19.5t63.5 54t35 80t10.5 98.5v149q-16 -37 -48 -64.5t-72 -47t-82 -28.5t-79 -9q-94 0 -156.5 38t-100.5 99t-54.5 140t-16.5 159zM281 1479q0 35 24.5 60.5t59.5 25.5 t59.5 -25.5t24.5 -60.5t-25 -59.5t-59 -24.5q-35 0 -59.5 24.5t-24.5 59.5zM508 1479q0 35 24.5 60.5t59.5 25.5t59.5 -25.5t24.5 -60.5t-24.5 -59.5t-59.5 -24.5t-59.5 24.5t-24.5 59.5z" />
<glyph unicode="&#x152;" horiz-adv-x="2045" d="M35 762q0 160 46 302t134 249.5t218 171t300 63.5q186 0 326.5 -85t228.5 -220v275h701v-115h-562v-397h381v-119h-381v-768h578v-119h-717v254q-86 -135 -225 -215t-332 -80q-166 0 -296 67.5t-219 180t-135 257t-46 298.5zM168 762q0 -125 36 -247t107.5 -219 t176 -156.5t243.5 -59.5q137 0 242.5 59.5t175.5 156.5t105.5 219t35.5 247q0 127 -35.5 246.5t-106.5 214t-176.5 151t-244.5 56.5t-244.5 -56.5t-175 -151t-104.5 -214t-35 -246.5z" />
<glyph unicode="&#x153;" horiz-adv-x="1597" d="M43 606q0 102 20.5 215t70.5 208t134 156.5t209 61.5q74 0 131.5 -21.5t102.5 -58.5t77.5 -88t55.5 -108q23 59 55.5 110.5t76.5 89t102.5 58t129.5 20.5q96 0 164 -44t109 -110.5t58 -144.5t15 -147h-626q-10 -68 -12.5 -116t-2.5 -101q0 -76 16.5 -163t54.5 -162 t101.5 -124t157.5 -49q33 0 72 7t75.5 20.5t68.5 34t54 49.5v-125q-53 -57 -131.5 -80t-152.5 -23q-78 0 -139.5 21.5t-108.5 60.5t-82 90.5t-57 112.5q-25 -59 -58.5 -111.5t-79 -90.5t-102.5 -60.5t-127 -22.5q-123 0 -205 62.5t-133 157t-72.5 206t-21.5 209.5zM168 606 q0 -68 14.5 -159t49 -174t94 -140t149.5 -57t148.5 57t93.5 139t49 174t14 160q0 72 -12 164t-45 173t-93.5 137.5t-154.5 56.5t-153.5 -56.5t-93 -138.5t-47 -174t-13.5 -162zM950 911h459q2 39 -11.5 81t-39 75t-63.5 54.5t-87 21.5q-51 0 -93 -19.5t-74.5 -51.5t-55 -74 t-35.5 -87z" />
<glyph unicode="&#x178;" horiz-adv-x="1138" d="M43 1518h162l373 -521l366 521h152l-449 -633v-885h-139v885zM371 1692q0 35 24.5 60.5t59.5 25.5t59.5 -25.5t24.5 -60.5t-25 -59.5t-59 -24.5q-35 0 -59.5 24.5t-24.5 59.5zM598 1692q0 35 24.5 60.5t59.5 25.5t59.5 -25.5t24.5 -60.5t-24.5 -59.5t-59.5 -24.5 t-59.5 24.5t-24.5 59.5z" />
<glyph unicode="&#x2c6;" horiz-adv-x="436" d="M35 1352l121 286h127l120 -286h-79l-105 178l-104 -178h-80z" />
<glyph unicode="&#x2dc;" horiz-adv-x="530" d="M41 1477q6 18 17.5 41.5t28.5 43t37.5 33t45.5 13.5q31 0 52.5 -19.5t42 -44t40 -44t47.5 -19.5q35 0 59.5 28.5t39.5 55.5l36 -78q-18 -37 -46.5 -72t-84.5 -35q-33 0 -58.5 18.5t-46 40t-39.5 40t-40 18.5q-12 0 -26.5 -10t-28 -25.5t-23.5 -32t-16 -28.5z" />
<glyph unicode="&#x2000;" horiz-adv-x="954" />
<glyph unicode="&#x2001;" horiz-adv-x="1909" />
<glyph unicode="&#x2002;" horiz-adv-x="954" />
<glyph unicode="&#x2003;" horiz-adv-x="1909" />
<glyph unicode="&#x2004;" horiz-adv-x="636" />
<glyph unicode="&#x2005;" horiz-adv-x="477" />
<glyph unicode="&#x2006;" horiz-adv-x="318" />
<glyph unicode="&#x2007;" horiz-adv-x="318" />
<glyph unicode="&#x2008;" horiz-adv-x="238" />
<glyph unicode="&#x2009;" horiz-adv-x="381" />
<glyph unicode="&#x200a;" horiz-adv-x="106" />
<glyph unicode="&#x2010;" horiz-adv-x="649" d="M100 549v135h449v-135h-449z" />
<glyph unicode="&#x2011;" horiz-adv-x="649" d="M100 549v135h449v-135h-449z" />
<glyph unicode="&#x2012;" horiz-adv-x="649" d="M100 549v135h449v-135h-449z" />
<glyph unicode="&#x2013;" horiz-adv-x="661" d="M-2 549v135h666v-135h-666z" />
<glyph unicode="&#x2014;" horiz-adv-x="1325" d="M-2 549v135h1329v-135h-1329z" />
<glyph unicode="&#x2018;" horiz-adv-x="325" d="M57 1194q2 47 15.5 96t30 95.5t36 84t35.5 62.5l27 -4q-23 -88 -31 -142.5t-4 -107.5q53 4 79.5 -33t22.5 -80t-36.5 -72.5t-75.5 -25.5t-73 38t-26 89z" />
<glyph unicode="&#x2019;" horiz-adv-x="325" d="M57 1434q4 43 37 72.5t76 25.5t72.5 -38t25.5 -89q-4 -47 -16 -96t-28.5 -95.5t-36 -84t-35.5 -62.5l-27 4q23 88 31 142.5t4 107.5q-53 -4 -80 33t-23 80z" />
<glyph unicode="&#x201a;" horiz-adv-x="325" d="M57 100q4 43 37 73t76 26t72.5 -38t25.5 -89q-4 -47 -16 -96.5t-28.5 -95.5t-36 -84t-35.5 -62l-27 4q23 88 31 142t4 108q-53 -4 -80 32.5t-23 79.5z" />
<glyph unicode="&#x201c;" horiz-adv-x="606" d="M57 1194q2 47 15.5 96t30 95.5t36 84t35.5 62.5l27 -4q-23 -88 -31 -142.5t-4 -107.5q53 4 79.5 -33t22.5 -80t-36.5 -72.5t-75.5 -25.5t-73 38t-26 89zM336 1194q2 47 15.5 96t29.5 95.5t35.5 84t36.5 62.5l26 -4q-23 -88 -31 -142.5t-4 -107.5q53 4 80 -33t23 -80 t-37 -72.5t-76 -25.5t-72.5 38t-25.5 89z" />
<glyph unicode="&#x201d;" horiz-adv-x="606" d="M57 1434q4 43 37 72.5t76 25.5t72.5 -38t25.5 -89q-4 -47 -16 -96t-28.5 -95.5t-36 -84t-35.5 -62.5l-27 4q23 88 31 142.5t4 107.5q-53 -4 -80 33t-23 80zM336 1434q4 43 37 72.5t76 25.5t72.5 -38t25.5 -89q-4 -47 -16.5 -96t-29 -95.5t-36 -84t-35.5 -62.5l-27 4 q23 88 31 142.5t4 107.5q-53 -4 -79.5 33t-22.5 80z" />
<glyph unicode="&#x201e;" horiz-adv-x="606" d="M57 100q4 43 37 73t76 26t72.5 -38t25.5 -89q-4 -47 -16 -96.5t-28.5 -95.5t-36 -84t-35.5 -62l-27 4q23 88 31 142t4 108q-53 -4 -80 32.5t-23 79.5zM342 100q4 43 37 73t76 26t72.5 -38t25.5 -89q-4 -47 -16.5 -96.5t-28.5 -95.5t-35.5 -84t-36.5 -62l-26 4 q23 88 31 142t3 108q-53 -4 -79.5 32.5t-22.5 79.5z" />
<glyph unicode="&#x2022;" horiz-adv-x="860" d="M197 668q0 49 18 91t50 74.5t74 51t91 18.5t91 -18.5t74 -51t50.5 -74.5t18.5 -91t-18.5 -91t-50.5 -74t-74 -50.5t-91 -18.5t-91 18.5t-74 50.5t-50 73.5t-18 91.5z" />
<glyph unicode="&#x2026;" horiz-adv-x="1384" d="M59 92q0 43 31 74t74 31t73.5 -31t30.5 -74t-30.5 -73.5t-73.5 -30.5t-74 30.5t-31 73.5zM588 92q0 43 30.5 74t73.5 31t74 -31t31 -74t-31 -73.5t-74 -30.5t-73.5 30.5t-30.5 73.5zM1116 92q0 43 31 74t74 31t73.5 -31t30.5 -74t-30.5 -73.5t-73.5 -30.5t-74 30.5 t-31 73.5z" />
<glyph unicode="&#x202f;" horiz-adv-x="381" />
<glyph unicode="&#x2039;" horiz-adv-x="477" d="M68 616l211 506h131l-220 -508l220 -505h-131z" />
<glyph unicode="&#x203a;" horiz-adv-x="477" d="M68 109l219 505l-219 508h131l211 -506l-211 -507h-131z" />
<glyph unicode="&#x205f;" horiz-adv-x="477" />
<glyph unicode="&#x2122;" horiz-adv-x="534" d="M25 1481v37h217v-37h-86v-271h-45v271h-86zM254 1210l16 314l113 -113l111 115l16 -316h-43l-10 226l-74 -84l-78 84l-8 -226h-43z" />
<glyph unicode="&#xe000;" horiz-adv-x="1218" d="M0 0v1219h1219v-1219h-1219z" />
</font>
</defs>
</svg>
