<?xml version="1.0" standalone="no"?>
<!DOCTYPE svg PUBLIC "-//W3C//DTD SVG 1.1//EN" "http://www.w3.org/Graphics/SVG/1.1/DTD/svg11.dtd" >
<svg xmlns="http://www.w3.org/2000/svg">
<metadata></metadata>
<defs>
<font id="MufferawRgRegular" horiz-adv-x="1177" >
<font-face units-per-em="2048" ascent="1638" descent="-410" />
<missing-glyph horiz-adv-x="501" />
<glyph unicode="&#x28;C&#x29;" horiz-adv-x="1464" d="M215 492q0 291 162.5 460.5t439.5 169.5q140 0 249 -43.5t176 -120t101.5 -175.5t34.5 -216q0 -134 -49.5 -251.5t-137 -202.5t-215.5 -134t-278 -49q-217 0 -350 155t-133 407zM397 526q0 -413 322 -413q102 0 182.5 23.5t133.5 64.5t87.5 99.5t49 125t14.5 145.5 q0 191 -81 282t-276 91q-97 0 -175.5 -32t-125 -80t-77.5 -107t-42.5 -108.5t-11.5 -90.5zM500 512q0 52 20.5 104.5t61 98.5t109.5 75t155 29h26q25 0 31 -2l-31 -176q-4 4 -34 4q-69 0 -112.5 -41.5t-43.5 -91.5q0 -31 29.5 -56.5t79.5 -25.5q55 0 94 51l127 -125 q-108 -123 -232 -123q-115 0 -197.5 81.5t-82.5 197.5z" />
<glyph unicode="&#x28;R&#x29;" horiz-adv-x="1245" d="M137 551q0 154 69 292.5t191 224t265 85.5q52 0 114.5 -14t138 -52.5t135.5 -96t101 -155t41 -219.5q0 -152 -68 -277.5t-191 -199t-276 -73.5q-241 0 -380.5 134t-139.5 351zM274 561q0 -156 92.5 -254t245.5 -98q202 0 322.5 107t120.5 278t-116 295.5t-284 124.5 q-101 0 -189 -62t-140 -166.5t-52 -224.5zM408 385q20 114 20 229q0 100 -18 199q114 57 235 57q120 0 227 -61l23 -64q-29 -115 -231 -180q162 -79 178 -88l-51 -129q-191 114 -232 172q-14 -109 -14 -143zM565 625q139 56 176 114q-32 4 -47 4q-64 0 -129 -26 q0 -3 1 -14.5t1 -20.5q0 -6 -1 -24.5t-1 -32.5z" />
<glyph horiz-adv-x="0" />
<glyph horiz-adv-x="2048" />
<glyph horiz-adv-x="501" />
<glyph unicode=" "  horiz-adv-x="501" />
<glyph unicode="&#x09;" horiz-adv-x="501" />
<glyph unicode="&#xa0;" horiz-adv-x="501" />
<glyph unicode="!" horiz-adv-x="421" d="M59 109q0 64 41 114.5t97 50.5q59 0 93 -39.5t34 -95.5q0 -61 -41 -109t-97 -48q-29 0 -57 14q-70 30 -70 113zM106 391q47 442 58 811l180 -16q-46 -388 -57 -795h-181z" />
<glyph unicode="&#x22;" horiz-adv-x="624" d="M70 942q46 189 49 326l180 -13q-29 -113 -49 -327zM330 942q27 168 35 301h180q-35 -123 -35 -289v-26z" />
<glyph unicode="#" horiz-adv-x="1040" d="M51 336v186h158l8 158q-55 4 -166 20l27 181q113 -18 143 -21q4 46 6 106l2 60l181 -10l-9 -162q53 0 209 4v215h181q-1 -35 -2 -79.5t-2 -74t-1 -49.5q87 6 201 11l8 -181l-215 -14q-1 -28 -3.5 -72t-2.5 -59q116 11 197 23l22 -181q-129 -17 -219 -24v-174q0 -25 4 -31 h-182q-2 6 -2 31v153h-215v-231h-172v215h-156zM391 532q60 4 130 7.5t73 3.5q1 31 3.5 75t2.5 56h-203q-6 -141 -6 -142z" />
<glyph unicode="$" horiz-adv-x="980" d="M29 508q216 34 551 76q-339 19 -504 71q0 111 -23 181q107 68 287 139q20 87 20 203l195 32q-17 -97 -20 -192l178 16l8 -180q-269 -27 -373 -70q390 -9 617 -157l-15 -150q-182 -50 -399 -80q-31 -146 -47 -348l-174 45q40 171 51 275q-73 0 -270 -31z" />
<glyph unicode="%" horiz-adv-x="1269" d="M63 897q0 25 7 57q26 128 116 203.5t211 75.5q110 0 185 -63t75 -164q0 -86 -29.5 -155.5t-78 -111.5t-105 -64t-114.5 -22q-109 0 -188 71.5t-79 172.5zM219 117q570 865 746 1130l143 -106q-472 -619 -711 -1078h2q-17 -35 -37 -47zM246 901q0 -31 24.5 -52.5 t65.5 -21.5q64 0 119 55.5t55 108.5q0 76 -90 76q-69 0 -121.5 -56t-52.5 -110zM625 229q0 126 79 224t197 98q48 0 72 -8q100 -26 163.5 -117t63.5 -197q0 -118 -78.5 -187t-224.5 -69q-131 4 -201.5 74t-70.5 182zM805 244q0 -94 100 -94q60 0 98.5 27t38.5 79t-32 85.5 t-78 33.5q-57 0 -92 -38.5t-35 -92.5z" />
<glyph unicode="&#x26;" horiz-adv-x="1181" d="M66 -6q0 258 184 547q-95 147 -107 301q7 88 67 164t152 125.5t204.5 77.5t226.5 28q30 0 100 -4l25 -47q-139 -197 -465 -635q92 -137 249 -254q257 222 328 289l125 -127q-191 -182 -315 -244q141 -67 221 -84l-53 -170q-170 40 -316 143q-216 -143 -579 -143 q-47 0 -47 33zM252 119q163 3 299 78q-116 84 -197 204q-78 -136 -102 -282zM346 854q20 -129 27 -160q147 226 274 369q-210 -41 -301 -209z" />
<glyph unicode="'" horiz-adv-x="352" d="M82 891q12 162 12 377l180 -23q-12 -125 -12 -354h-180z" />
<glyph unicode="(" horiz-adv-x="684" d="M86 565q0 238 107.5 418t302.5 266l86 -157q-151 -61 -233.5 -199.5t-82.5 -329.5q0 -156 57.5 -298.5t161.5 -237.5l-137 -119q-121 114 -191.5 291t-70.5 366z" />
<glyph unicode=")" horiz-adv-x="714" d="M141 106q149 72 236.5 222t87.5 331q0 341 -254 510l119 140q146 -105 228.5 -272t82.5 -375q0 -234 -110.5 -427.5t-292.5 -279.5z" />
<glyph unicode="*" horiz-adv-x="845" d="M47 829q10 2 283 64q-115 126 -195 197l131 122l137 -192q10 108 27 192l176 -45l-71 -194q180 72 231 94l41 -172q-104 -25 -256 -72q64 -78 170 -192l-143 -109q-52 85 -109 187q-42 -145 -68 -252l-172 55q67 157 103 231q-124 -40 -228 -84z" />
<glyph unicode="+" horiz-adv-x="829" d="M20 365v174h316q3 155 16 266l180 -19l-28 -245q215 10 305 10v-178q-12 2 -31 2h-282q0 -59 4 -289h-181q0 179 11 287q-88 -8 -193 -8h-117z" />
<glyph unicode="," horiz-adv-x="382" d="M27 -205q94 104 94 266q0 58 -8 105l172 59q14 -107 14 -164q0 -214 -119 -366z" />
<glyph unicode="-" horiz-adv-x="856" d="M78 369v180q452 0 694 14v-178h-166q-224 0 -528 -16z" />
<glyph unicode="." horiz-adv-x="430" d="M18 125q0 88 50.5 136t138.5 48q54 0 99.5 -46.5t45.5 -117.5q0 -67 -56 -114t-128 -47q-66 0 -108 38t-42 103z" />
<glyph unicode="/" horiz-adv-x="845" d="M-31 106q463 599 801 1141l145 -102q-508 -689 -806 -1149z" />
<glyph unicode="0" horiz-adv-x="1036" d="M51 514q0 176 76 344.5t199 273.5t252 105q76 0 146.5 -41t126 -117t89 -196t33.5 -265q0 -162 -40.5 -290.5t-110.5 -208t-161 -121t-196 -41.5q-156 0 -260 119q-154 192 -154 438zM240 545q0 -193 62 -300.5t183 -107.5q84 0 156.5 67.5t116 186t43.5 258.5 q0 59 -15 162q-40 227 -213 227q-85 0 -162 -67t-124 -181.5t-47 -244.5z" />
<glyph unicode="1" horiz-adv-x="481" d="M4 1042q186 89 295 220l80 -50v-1218l-180 14q26 571 26 985q-67 -82 -143 -112z" />
<glyph unicode="2" horiz-adv-x="1007" d="M47 18q176 148 322 306t241 316.5t95 268.5q0 154 -160 154q-144 0 -291 -123l-113 143q207 177 410 177q144 0 232.5 -87t88.5 -233q0 -355 -493 -786q103 -1 557 -21v-178q-229 18 -336 18q-257 0 -473 -59z" />
<glyph unicode="3" horiz-adv-x="1064" d="M39 109l86 157q186 -127 399 -127q229 0 318 168q-5 83 -61.5 153t-148 110t-196.5 40q-57 0 -84 -8l-20 154q178 26 275 88t175 194q-88 45 -182 45q-154 0 -332 -100l-53 170q251 88 434 88q61 0 107.5 -12t73.5 -28t50 -49t33 -56t27 -68q-57 -178 -281 -303 q347 -132 347 -367q0 -107 -70.5 -198.5t-188.5 -144t-253 -52.5q-232 0 -455 146z" />
<glyph unicode="4" horiz-adv-x="1038" d="M8 500q254 353 420 653l158 -86q-127 -237 -318 -479q304 3 453 24v602l180 -10l-27 -592l103 13v-181l-103 5q-13 -196 -16 -461l-180 12q9 106 22 442q-440 -15 -641 -32z" />
<glyph unicode="5" horiz-adv-x="1120" d="M53 29l56 172q201 -74 362 -74q186 0 294.5 74.5t108.5 181.5q-8 124 -119 196t-306 72q-138 0 -246 -63l-113 90q115 192 133 512q374 0 723 22l8 -180q-208 -10 -329 -10q-107 0 -263 8q-25 -148 -61 -246q67 13 131 13q173 0 320 -58t234 -159.5t87 -223.5 q0 -89 -54 -166t-142.5 -127.5t-199 -79t-224.5 -28.5q-202 0 -400 74z" />
<glyph unicode="6" horiz-adv-x="1095" d="M68 430q0 191 93.5 370.5t255 297t347.5 129.5l22 -178q-404 -34 -507 -365q145 94 268 94q131 0 242 -48.5t177 -137t66 -197.5q0 -75 -39 -148t-106.5 -130.5t-168.5 -93t-216 -35.5q-205 0 -319.5 116t-114.5 326zM248 436q0 -128 71 -201t199 -73q124 0 227 76.5 t103 181.5q0 76 -77.5 121t-197.5 45q-188 0 -323 -97q-2 -4 -2 -26v-27z" />
<glyph unicode="7" horiz-adv-x="974" d="M53 1030v180q144 -10 334 -10q223 0 528 21l48 -74q-508 -581 -607 -1194l-180 22q126 612 506 1080q-153 -27 -434 -27h-144q-35 0 -51 2z" />
<glyph unicode="8" horiz-adv-x="1179" d="M57 336q0 198 246 303q-176 70 -176 233q0 112 70.5 204t182 142t234.5 50q110 0 208.5 -49.5t157 -129t58.5 -165.5q0 -153 -180 -262q254 -43 254 -273q0 -91 -34.5 -164.5t-89.5 -120t-128 -78t-146.5 -44.5t-148.5 -13q-220 0 -364 107.5t-144 259.5zM246 307 q6 -77 94 -123.5t229 -46.5q160 0 263 62t112 155q0 107 -70.5 156t-220.5 49q-179 0 -293 -73.5t-114 -178.5zM313 891q0 -60 77.5 -117t174.5 -57q105 0 197 64.5t92 144.5q0 66 -74 116q-67 39 -168 39q-131 0 -215 -57t-84 -133z" />
<glyph unicode="9" horiz-adv-x="1056" d="M16 766q0 112 68.5 214t187 165t254.5 63q216 0 333.5 -118.5t117.5 -325.5q0 -147 -57 -291t-150.5 -254t-223 -180t-265.5 -74l-21 178q147 6 280 101.5t226 273.5q-71 -58 -142.5 -76t-181.5 -18q-98 0 -180 29t-135 77t-82 109t-29 127zM199 772q0 -74 74.5 -120 t195.5 -46q192 0 326 96q2 4 2 27v29q0 131 -74.5 201.5t-194.5 70.5q-128 0 -228.5 -77t-100.5 -181z" />
<glyph unicode=":" horiz-adv-x="522" d="M72 150q0 131 121 184q27 6 59 6q74 0 125 -42.5t51 -121.5q0 -77 -39 -128.5t-119 -65.5q-95 2 -146.5 40t-51.5 128zM86 659q0 30 6 60q50 119 172 119q97 0 137.5 -47.5t40.5 -139.5q0 -76 -46.5 -121t-127.5 -45q-91 0 -136.5 48.5t-45.5 125.5z" />
<glyph unicode=";" horiz-adv-x="471" d="M47 -205q103 168 103 277q0 55 -17 94l170 59q27 -86 27 -143q0 -176 -129 -387zM51 692q0 89 53 127q44 41 111 41q197 0 197 -209q-4 -88 -46.5 -126t-132.5 -38q-95 0 -138.5 59t-43.5 146z" />
<glyph unicode="&#x3c;" horiz-adv-x="759" d="M6 485q326 272 553 566l139 -113q-94 -126 -221 -250.5t-254 -189.5q76 -38 229.5 -162.5t215.5 -194.5l-136 -116q-340 324 -526 460z" />
<glyph unicode="=" horiz-adv-x="765" d="M74 217v178q132 -6 256 -6q184 0 325 8l27 -176h-303q-93 0 -305 -4zM74 498v180q276 -8 622 -8l-10 -181q-298 9 -612 9z" />
<glyph unicode="&#x3e;" horiz-adv-x="1011" d="M49 127q356 272 707 473q-246 188 -352 280.5t-199 196.5l131 125q208 -199 663 -637q-453 -275 -841 -581z" />
<glyph unicode="?" horiz-adv-x="972" d="M47 1042l10 181q14 2 41 2h129q524 0 656 -129q15 -103 78 -172q-167 -233 -699 -475l-82 161q393 143 604 351q-174 94 -514 94q-93 0 -223 -13zM162 109q0 75 33.5 121t115.5 59q108 0 157.5 -37t49.5 -119q0 -62 -44 -107t-114 -49v-2q0 -4 -24 -4q-25 0 -51 6 t-55.5 19.5t-48.5 43t-19 69.5z" />
<glyph unicode="@" horiz-adv-x="1368" d="M43 475q0 99 23.5 188.5t64 159t95 128t117 99t130 69t133 42t127.5 13.5q135 0 248 -67.5t177.5 -181t64.5 -245.5q0 -81 -35 -164t-88 -144t-115.5 -100t-116.5 -39q-64 0 -119.5 39t-86.5 117q-104 -106 -232 -160q-127 83 -127 222q0 93 55.5 183.5t144.5 147 t181 56.5q90 0 203 -54q-74 -184 -74 -270q0 -73 45 -127q70 47 126 149t56 193q0 114 -91 180t-236 66q-119 0 -214.5 -39.5t-155 -106.5t-91 -151t-31.5 -176q0 -118 51.5 -226.5t138.5 -175.5t183 -67q108 0 199 82l104 -142q-120 -108 -297 -108q-101 0 -190 32 t-155 89.5t-114.5 134t-73 167t-24.5 187.5zM455 422q127 85 207 252q-96 -28 -142.5 -80t-64.5 -172z" />
<glyph unicode="A" d="M-18 66q229 659 573 1239h84q246 -527 348 -805h86l6 -181h-12l123 -268l-168 -69q-87 213 -152 335q-258 -9 -489 -45l-27 177q207 36 432 45q-62 225 -198 516q-160 -238 -438 -1008z" />
<glyph unicode="B" horiz-adv-x="1226" d="M57 1036l6 181q406 16 494 16q384 0 571 -205q-84 -194 -477 -383q369 0 537 -145q0 -88 4 -158q-303 -233 -1106 -381q43 652 43 1079zM268 717q0 -289 8 -557q562 120 730 258q-183 76 -439 76q-90 0 -207 -13l-43 131q436 216 586 381q-113 58 -340 58q-35 0 -291 -19 q-4 -200 -4 -315z" />
<glyph unicode="C" horiz-adv-x="1200" d="M49 541q0 131 61 254t162 213.5t237 145t279 54.5q223 0 388 -131l-91 -153q-116 104 -294 104q-119 0 -224 -40t-176 -105t-112 -149.5t-41 -172.5q0 -173 118.5 -294.5t288.5 -121.5q207 0 428 179l125 -125q-238 -219 -551 -219q-175 0 -312 73t-211.5 200.5 t-74.5 287.5z" />
<glyph unicode="D" horiz-adv-x="1232" d="M66 1241q285 27 397 27q168 0 304.5 -35.5t236.5 -105t155 -179.5t55 -252q0 -134 -59.5 -260t-164 -222.5t-257.5 -155t-327 -58.5h-273q4 218 4 319q0 400 -26 744l-33 -2zM291 1077q0 -432 10 -917q115 0 220.5 18.5t198 57.5t161 95.5t108 137.5t39.5 178 q0 216 -148 327t-407 111q-98 0 -182 -8z" />
<glyph unicode="E" horiz-adv-x="1253" d="M72 1006v215h1073v-207h-852v-434q415 3 794 45l23 -181l-813 -47v-209l879 68l22 -180q-591 -42 -1083 -90q6 295 6 532q0 317 -10 488h-39z" />
<glyph unicode="F" horiz-adv-x="1189" d="M72 1180q661 25 1097 73l9 -180q-701 -48 -885 -63q-2 -12 -2 -35v-412q253 7 741 39v-180q-452 -3 -741 -41q-2 -76 -3.5 -146t-2.5 -116t-2 -80.5t-1 -50.5l-1 -17l-179 9q17 462 17 706q0 175 -6 313h-31z" />
<glyph unicode="G" horiz-adv-x="1413" d="M33 600q0 141 52.5 260t148 205t236 134t310.5 48q278 0 473 -123l-82 -161q-177 104 -391 104q-164 0 -295.5 -59t-206.5 -167.5t-75 -246.5q0 -183 134 -302.5t331 -119.5q296 0 444 207q-99 8 -231 8q-89 0 -162 -8l8 184q188 -6 346 -6q111 0 287 4 q-25 -230 -25 -405v-82q0 -26 4 -76l-180 16q8 51 8 158q-207 -174 -499 -174q-135 0 -249.5 39t-201 112.5t-135.5 189.5t-49 261z" />
<glyph unicode="H" horiz-adv-x="1361" d="M98 41q16 516 19 1169l180 -10q-20 -406 -25 -616q380 -11 562 -11h186q34 0 59 5q21 459 23 639h180q-33 -632 -41 -1170h-180q2 65 4.5 148t4 129t3.5 73q-219 13 -442 13q-139 0 -361 -7q0 -179 9 -354z" />
<glyph unicode="I" horiz-adv-x="661" d="M68 1245q249 12 499 27l11 -180q-107 -5 -164 -5v-952l170 8l8 -178q-338 0 -500 -14l-8 178q32 1 63.5 2t49.5 1.5t36 0.5q13 189 13 479q0 220 -6 469q-126 -11 -146 -16z" />
<glyph unicode="J" horiz-adv-x="925" d="M-14 475l180 -6q0 -137 74 -238.5t178 -101.5q49 0 81 9.5t66 43t53 95t31.5 168.5t12.5 260q0 169 -11 360q-19 0 -69.5 2t-83.5 2q-28 0 -95.5 -2t-109.5 -2l-8 180q26 -1 69 -2.5t78 -2.5t66 -1q204 0 342 18v-598q0 -250 -47 -403t-135 -218t-226 -65q-68 0 -129 16 t-118 53.5t-99.5 94t-69.5 143.5t-30 195z" />
<glyph unicode="K" horiz-adv-x="1179" d="M86 -47q20 443 20 825v211q0 67 -4 215l179 -8q-9 -117 -9 -391v-232q0 -55 2 -84q402 468 752 742l117 -141q-301 -223 -615 -576q69 -164 179.5 -264t232.5 -100q54 0 137 30l29 -176q-79 -33 -168 -33q-159 0 -303 113t-217 313l-139 -170l-3 2q-10 -160 -10 -286z " />
<glyph unicode="L" horiz-adv-x="974" d="M92 -35q19 343 29 1223l180 -6q-33 -683 -33 -901v-125q110 -4 168 -4h346q57 0 179 4l8 -179q-27 3 -54 3h-165q-295 0 -654 -19z" />
<glyph unicode="M" horiz-adv-x="1548" d="M6 39q246 404 363 1184h149q131 -742 232 -938q100 180 262 942l178 -29q3 -734 379 -1153l-135 -119q-236 305 -365 844q-121 -497 -262 -838h-123q-138 380 -231 850q-130 -562 -289 -831z" />
<glyph unicode="N" horiz-adv-x="1304" d="M76 33q45 379 45 917q0 118 -6 232l192 30q259 -687 731 -972q0 451 -16 958l180 4q15 -708 17 -1206h-181v33q-481 276 -751 796q-7 -149 -13 -297t-11 -296.5t-7 -211.5z" />
<glyph unicode="O" horiz-adv-x="1337" d="M59 426q0 269 152 502.5t397 337.5l10 -25q112 25 179 25q212 0 342.5 -150.5t130.5 -382.5q0 -157 -64 -305t-170 -257.5t-252.5 -176t-302.5 -66.5q-194 0 -308 137t-114 361zM227 391q0 -272 289 -272q151 0 285 94t211.5 242t77.5 305q0 151 -80.5 236t-221.5 85 q-60 0 -165 -24l-7 18q-96 -50 -187 -169t-146.5 -260t-55.5 -255z" />
<glyph unicode="P" horiz-adv-x="1243" d="M72 1227q345 41 678 41q122 0 209 -14t138 -37t80 -61.5t38.5 -77.5t9.5 -95q0 -122 -135 -248t-333.5 -212t-391.5 -109v-437h-181q9 515 9 648q0 91 -3.5 249t-3.5 181l-84 -11zM356 592q354 53 549 188q76 51 126 104.5t50 114.5q0 60 -50 84.5t-157 24.5 q-273 0 -514 -31q0 -255 -4 -485z" />
<glyph unicode="Q" horiz-adv-x="1345" d="M51 442q0 173 68 336.5t193 292t288 195.5l10 -25q103 25 185 25q214 0 338 -144.5t124 -378.5q0 -176 -77.5 -344t-216.5 -282q141 -156 292 -156q33 0 107 19v-181q-47 -8 -102 -8q-253 0 -433 232q-195 -103 -348 -103q-194 0 -311 145t-117 377zM217 395 q0 -276 293 -276q98 0 205 39q-82 76 -127 207l157 90q45 -127 109 -209q106 106 165.5 243t59.5 269q0 155 -78.5 239t-220.5 84q-63 0 -168 -24l-4 18q-93 -50 -184.5 -167.5t-149 -258.5t-57.5 -254z" />
<glyph unicode="R" horiz-adv-x="1335" d="M59 1210q416 37 576 37q618 0 618 -278q0 -84 -81 -174.5t-213 -165t-287 -119.5q195 -416 436 -416q68 0 139 41l45 -174q-83 -47 -174 -47q-161 0 -332 160t-258 397q-146 -44 -221 -53q1 -36 8 -465h-180q19 817 19 1081l-86 -14zM315 584q199 44 368 105t276.5 133 t107.5 136q0 105 -410 105q-129 0 -325 -12q-15 -325 -17 -467z" />
<glyph unicode="S" horiz-adv-x="1355" d="M61 68l64 172q226 -97 561 -97q216 0 331.5 49t115.5 148q0 50 -21.5 81t-73.5 56q-60 28 -381 133t-385 140q-100 47 -142 97.5t-42 123.5q0 254 483 254q170 0 364 -37t275 -86l-86 -158q-70 44 -266 82.5t-340 38.5q-252 0 -252 -90q0 -52 166 -117q55 -22 362 -119 t388 -147q73 -44 106 -103t33 -147q0 -179 -171 -268.5t-486 -89.5q-350 0 -603 84z" />
<glyph unicode="T" horiz-adv-x="1261" d="M29 1214q478 17 661 17q165 0 545 -12l-14 -181q-181 15 -519 25q-15 -644 -22 -1104l-180 10q22 558 22 1092q-42 -2 -204 -11.5t-279 -15.5z" />
<glyph unicode="U" horiz-adv-x="1372" d="M92 629q0 88 6 274.5t6 288.5l181 4q-11 -197 -11 -430q0 -107 3.5 -187t12.5 -145.5t21.5 -110.5t33.5 -78.5t45 -53t60.5 -31t75 -15.5t92.5 -4q79 0 137.5 15t110.5 52.5t86.5 102.5t60 165t37 240t11.5 326v156l180 -8q-29 -479 -29 -762q0 -226 119 -354l-139 -111 q-79 85 -117 281q-174 -283 -504 -283q-162 0 -266 66t-158.5 214.5t-54.5 387.5z" />
<glyph unicode="V" horiz-adv-x="1234" d="M-20 1124l145 109q276 -370 510 -971q190 590 485 959l144 -109q-485 -586 -547 -1204l-133 -4q-59 306 -207 603t-397 617z" />
<glyph unicode="W" horiz-adv-x="1490" d="M-29 1114l135 123q211 -276 359 -809q113 498 256 803h121q131 -352 239 -879q126 590 277 860l158 -90q-212 -303 -359 -1183h-147q-80 488 -232 960q-198 -458 -262 -965l-178 29q-3 757 -367 1151z" />
<glyph unicode="X" horiz-adv-x="1189" d="M45 1143l139 117q190 -222 371 -508q191 252 397 518l146 -107q-288 -367 -453 -547q268 -370 477 -593l-135 -119q-173 179 -442 581q-220 -292 -338 -499l-154 88q121 221 398 555q-255 343 -406 514z" />
<glyph unicode="Y" horiz-adv-x="1179" d="M59 1165l148 103q271 -462 498 -637q145 252 290 606l168 -72q-358 -818 -917 -1210l-101 147q312 172 478 414q-288 217 -564 649z" />
<glyph unicode="Z" horiz-adv-x="1226" d="M59 49q405 622 824 1004q-106 -4 -178 -4q-211 0 -521 12l15 180q212 -10 481 -10q259 0 440 10l49 -113q-608 -536 -825 -978q258 22 551 22h158q35 0 55 -4l10 -174h-135q-355 0 -864 -45z" />
<glyph unicode="[" horiz-adv-x="739" d="M68 -98q46 562 49 1249q264 0 381 12l-27 -180q-36 4 -74 4q-55 0 -131 -6q-37 -375 -37 -895q59 6 127 6q106 0 215 -14l-16 -176q-104 22 -221 22q-115 0 -266 -22z" />
<glyph unicode="\" horiz-adv-x="894" d="M-41 1143l145 102q338 -542 801 -1141l-139 -110q-304 467 -807 1149z" />
<glyph unicode="]" horiz-adv-x="657" d="M143 -82v178h181q39 0 55 -2q8 313 33 924l-246 -12v180q76 -8 176 -8q125 0 260 12q-61 -620 -76 -1260q-266 0 -383 -12z" />
<glyph unicode="^" horiz-adv-x="813" d="M29 745q54 83 336 521h63q169 -325 352 -547l-118 -135q-119 126 -170 203.5t-97 211.5q-204 -343 -213 -352z" />
<glyph unicode="_" horiz-adv-x="1038" d="M0 -14q360 -4 522 -4q298 0 516 10v-180q-216 8 -458 8q-310 0 -580 -15v181z" />
<glyph unicode="`" horiz-adv-x="532" d="M-16 1536l63 168q181 -85 379 -129l-74 -168q-177 82 -368 129z" />
<glyph unicode="a" horiz-adv-x="1265" d="M-23 74q151 288 231 441.5t191 376t195 406.5l106 -59l41 16q223 -610 523 -1239l-166 -65l-201 455q-205 -7 -426 -11v176h86q144 0 262 11q-43 100 -79 188.5t-63.5 156.5t-31.5 79q-211 -379 -506 -1010z" />
<glyph unicode="b" horiz-adv-x="1288" d="M41 1042v179q115 4 243 10t205 9t127 3q506 0 506 -237q0 -151 -389 -324q6 2 17 2h57q183 0 298.5 -71.5t115.5 -194.5q0 -149 -230 -260q-173 -84 -895 -242q0 70 -7 586.5t-7 546.5zM260 1049q6 -156 6 -267q0 -55 -4 -141q280 97 473.5 194t218.5 162q-85 72 -319 72 q-129 0 -375 -20zM268 463q6 -99 6 -324q398 90 587.5 159.5t189.5 141.5q0 45 -89 70t-237 25q-166 0 -457 -72z" />
<glyph unicode="c" horiz-adv-x="1349" d="M43 500q0 142 64.5 275t172 231.5t257.5 157.5t313 59q291 0 498 -183l-105 -147q-203 162 -416 162q-113 0 -223 -50t-191.5 -129t-131.5 -182.5t-50 -206.5q0 -166 127 -262t361 -96q148 0 275 62t200 165q102 -92 133 -123q-236 -284 -602 -284q-305 0 -493.5 153.5 t-188.5 397.5z" />
<glyph unicode="d" horiz-adv-x="1374" d="M70 1245q187 21 319 21h205q139 0 252 -19.5t207.5 -63.5t158 -112t99 -168t35.5 -229q0 -296 -318 -478.5t-897 -242.5q12 411 12 762v270q0 57 -2 88l-65 -4zM303 188q0 -37 4 -57q862 113 862 571q0 192 -144.5 288.5t-446.5 96.5q-124 0 -256 -12q-19 -467 -19 -708 v-179z" />
<glyph unicode="e" horiz-adv-x="1245" d="M70 1059v180q719 9 1040 29l14 -181q-540 -12 -825 -24v-481q407 8 834 43l14 -181q-336 -14 -848 -45q2 -12 2 -34v-197q0 -19 -2 -31q343 3 881 37l10 -178q-639 -3 -1071 -59q10 202 10 518q0 170 -8 604h-51z" />
<glyph unicode="f" horiz-adv-x="1196" d="M68 1069l4 180q458 -12 796 -12q119 0 295 4v-180q-169 6 -467 6h-256q-61 0 -92 -2v-494q276 0 793 19v-180q-395 0 -781 -19v-405h-200v1083h-92z" />
<glyph unicode="g" horiz-adv-x="1484" d="M61 606q0 148 65.5 268.5t178.5 198t260.5 119t315.5 41.5q111 0 267 -37.5t187 -77.5l-100 -155q-128 96 -379 96q-284 0 -455.5 -125t-171.5 -320q0 -92 39.5 -181t107.5 -158.5t169.5 -112.5t216.5 -43q333 15 463 254q-23 0 -273 -8l-8 180q88 -8 205 -8 q126 0 264 12q-24 -295 -24 -592v-131q0 -29 2 -45h-181q-10 100 -10 239q0 46 8 140q-193 -211 -442 -211q-137 0 -262.5 46.5t-221.5 130t-155.5 208.5t-65.5 272z" />
<glyph unicode="h" horiz-adv-x="1198" d="M86 1196h178v-176q0 -177 6 -453q443 0 658 21q0 399 10 600h180q-16 -503 -16 -987v-209q0 -45 2 -68h-180q-2 25 -2 74v197q0 91 4 213q-276 -3 -641 -21v-434h-181q5 180 5 211v215q0 426 -23 817z" />
<glyph unicode="i" horiz-adv-x="346" d="M66 -41q35 570 38 1274l181 -10q-32 -736 -39 -1264h-180z" />
<glyph unicode="j" horiz-adv-x="892" d="M14 426q0 38 6 78h181q0 -354 190 -354q52 0 90.5 15.5t71.5 54t53.5 104t31.5 166.5t11 239l-18 539l182 -4q1 -99 6.5 -223t5.5 -156v-76q0 -470 -90 -616q-133 -216 -334 -216q-107 0 -196.5 61t-140 164t-50.5 224z" />
<glyph unicode="k" horiz-adv-x="1208" d="M74 -45q15 357 28 1247l179 -4q-17 -495 -17 -647q374 407 762 702l111 -141q-334 -246 -588 -512q200 -508 555 -532l-27 -179q-207 15 -377.5 167t-289.5 411l-144 -137l-12 -375h-180z" />
<glyph unicode="l" horiz-adv-x="987" d="M88 1219h180q0 -591 6 -1051q225 -8 701 -8v-178q-254 12 -410 12q-135 0 -459 -12q-2 307 -18 1237z" />
<glyph unicode="m" horiz-adv-x="1316" d="M-31 68q253 512 332 1132l156 -6q68 -623 196 -967q139 342 244 965l168 -23v-82q0 -19 -2.5 -55t-1.5 -55q0 -601 282 -924l-149 -96q-245 278 -248 770q-90 -403 -211 -762h-145q-161 381 -221 797q-50 -302 -230 -754z" />
<glyph unicode="n" horiz-adv-x="1241" d="M76 -2q33 480 33 1190l172 33q234 -662 704 -1053q6 363 6 375q0 252 -10 645l178 -6q-10 -393 -10 -717q0 -146 4 -440l-156 -41q-493 323 -733 897q-12 -328 -12 -660v-115q0 -42 4 -108h-180z" />
<glyph unicode="o" horiz-adv-x="1306" d="M59 508q0 189 86 359t234 274t319 104q165 0 290 -77t190 -206.5t65 -291.5q0 -142 -48 -272.5t-129.5 -226t-196.5 -152t-244 -56.5q-262 0 -414 152t-152 393zM238 518q0 -157 103.5 -269t258.5 -112q71 0 141 30t127 83t101.5 122t69 151.5t24.5 166.5 q0 169 -96.5 276t-251.5 107q-122 0 -233.5 -81.5t-177.5 -210.5t-66 -263z" />
<glyph unicode="p" horiz-adv-x="1230" d="M66 1210q312 58 512 58q577 0 577 -377q0 -65 -17 -120.5t-50 -97.5t-77 -76.5t-101.5 -60.5t-119 -46.5t-135.5 -37t-145 -30t-152 -27.5l-36 -6q0 -178 -7 -418l-180 9q0 44 4 444t4 530v86l-47 -6zM322 569q343 35 499 108t156 214q0 194 -416 194q-134 0 -235 -16 q-4 -164 -4 -500z" />
<glyph unicode="q" horiz-adv-x="1241" d="M61 496q0 182 71.5 339t203 260.5t299.5 129.5l10 41q235 -40 374.5 -206t139.5 -401q0 -325 -262 -538q84 -118 183 -167.5t231 -49.5l-19 -180q-335 0 -530 299q-167 -66 -273 -66q-192 0 -310 152t-118 387zM233 485q0 -151 74.5 -243t202.5 -92q79 0 127 22 q-91 101 -105 234l162 81q15 -142 94 -245q177 148 177 415q0 169 -75 278t-194 109q-95 0 -183 -53t-148 -135t-96 -180.5t-36 -190.5z" />
<glyph unicode="r" horiz-adv-x="1302" d="M49 1257q435 33 588 33q585 0 594 -291q-9 -45 -28.5 -90.5t-62 -102.5t-102 -107.5t-155.5 -101.5t-215 -89q21 -103 49.5 -173.5t76 -126.5t120 -83t173.5 -27q48 0 134 11l10 -179q-74 -4 -105 -4q-158 0 -272.5 38t-185.5 112t-108.5 169.5t-51.5 223.5l-227 -35 v-510l-179 4q23 784 23 1149h-72zM299 664q0 -38 2 -58q326 46 494.5 124.5t255.5 244.5q-47 139 -402 139q-88 0 -346 -24q-4 -172 -4 -248v-178z" />
<glyph unicode="s" horiz-adv-x="1292" d="M23 168l104 149q215 -176 504 -176q269 0 475 176q-75 129 -447 250q-366 118 -483 281l10 151q218 232 584 232q168 0 293 -51l-49 -170q-118 41 -246 41q-238 0 -436 -119q84 -125 407 -223q321 -94 523 -328v-156q-247 -262 -635 -262q-344 0 -604 205z" />
<glyph unicode="t" horiz-adv-x="1056" d="M29 1237q170 -6 237 -6h170q262 0 580 16l10 -180q-32 -4 -61 -4h-195q-39 0 -133 4q0 -78 -13.5 -560t-13.5 -552l-180 8q29 615 29 1106q-219 -9 -426 -12z" />
<glyph unicode="u" horiz-adv-x="1167" d="M72 735q0 11 5 116t5 122q3 67 5.5 126.5t3.5 84.5t1 28l180 -4q0 -21 -10 -240t-10 -292q0 -86 4.5 -151.5t16 -129t32.5 -108t53 -79.5t79.5 -52t109.5 -17q68 0 116.5 11t100.5 50t84 107t53 189.5t21 289.5q0 82 -17 416h180q21 -322 21 -428q0 -418 -138.5 -614.5 t-428.5 -196.5q-130 0 -214.5 34t-143.5 121.5t-84 236.5t-25 380z" />
<glyph unicode="v" horiz-adv-x="1163" d="M-27 1112l131 123q325 -363 463 -989q132 613 492 1009l135 -118q-415 -394 -553 -1129l-174 -28q-123 795 -494 1132z" />
<glyph unicode="w" horiz-adv-x="1345" d="M-39 1133l154 100q190 -248 331 -973q55 504 119 905l191 29q105 -326 219 -930q106 706 256 979l162 -80q-240 -402 -326 -1192l-176 6q-86 539 -193 926q-59 -316 -151 -915h-201q-156 877 -385 1145z" />
<glyph unicode="x" horiz-adv-x="1085" d="M66 23q109 289 358 610q-233 324 -346 504l153 96q77 -133 291 -455q207 289 346 439l140 -113q-233 -245 -381 -473q322 -467 393 -590l-152 -92q-149 245 -348 536q-195 -257 -289 -532z" />
<glyph unicode="y" horiz-adv-x="1118" d="M63 86q316 281 506 506q-252 218 -460 551l153 94q218 -347 406 -543q155 239 272 537l166 -68q-233 -597 -922 -1210z" />
<glyph unicode="z" horiz-adv-x="1095" d="M51 16q375 718 737 1022h-587v181q300 -15 475 -15q105 0 313 8l43 -86q-531 -559 -745 -1009q150 18 375 18q176 0 348 -8l-6 -164q-139 10 -326 10q-263 0 -580 -30z" />
<glyph unicode="|" horiz-adv-x="366" d="M94 -231v1456l160 -13v-1443h-160z" />
<glyph unicode="~" horiz-adv-x="923" d="M18 555q36 130 105.5 200t169.5 70q39 0 97.5 -36t106.5 -79.5t89.5 -79.5t50.5 -36q29 0 56 39.5t32 81.5l180 -19q-14 -122 -89 -203t-175 -81q-36 0 -86.5 34.5t-93 76t-87.5 78.5t-71 40q-69 0 -115 -137z" />
<glyph unicode="&#xa1;" horiz-adv-x="516" d="M137 1096q0 55 15 88.5t55 54.5q45 23 84 23q71 0 120 -48t62 -145q0 -70 -45.5 -117t-91.5 -47q-107 7 -153 51.5t-46 139.5zM143 -115q33 418 43 930l181 -22q-52 -429 -52 -799v-96q0 -19 2 -31z" />
<glyph unicode="&#xa2;" horiz-adv-x="862" d="M37 520q0 108 92 213t254 158q0 95 -14 166l180 18q-4 -32 -4 -45v-82q0 -7 4 -39q44 9 69 9q62 0 107 -11l-18 -180q-49 8 -111 8q-215 -9 -308 -55t-93 -131q0 -38 39.5 -66.5t91.5 -40.5t104 -12q162 0 303 105l103 -150q-112 -85 -287 -121q-4 -36 -4 -57 q0 -57 10 -101l-176 -45q10 70 10 193q-171 6 -261.5 82.5t-90.5 183.5z" />
<glyph unicode="&#xa3;" horiz-adv-x="925" d="M27 446l237 25q38 387 172 573.5t367 186.5l-15 -180q-58 0 -104 -15t-78.5 -39.5t-58 -67t-41 -84.5t-28 -107.5t-19 -120.5t-13.5 -136l332 15v-181l-364 -16q-15 -69 -92 -137q303 35 444 35q74 0 121 -13l-27 -180q-108 25 -242 25q-84 0 -254.5 -18.5t-211.5 -18.5 q-72 0 -93 8l-12 158q137 9 174 131l-176 -23z" />
<glyph unicode="&#xa5;" horiz-adv-x="1089" d="M43 1079l154 95q155 -291 288 -586q88 233 203 365.5t303 224.5l64 -150q-239 -107 -449 -459q202 21 340 21v-180q-151 0 -368 -25v-94q85 4 323 10v-180q-72 -3 -323 -10q2 -96 14 -187l-180 -18q-13 114 -15 198l-202 -16l-19 180l223 17v82q-132 -10 -159 -9l-54 2 v181l66 -2q40 -2 115 6q-79 165 -324 534z" />
<glyph unicode="&#xa6;" horiz-adv-x="366" d="M94 -231v559l160 10v-569h-160zM94 688v537l160 -13v-544z" />
<glyph unicode="&#xa8;" horiz-adv-x="718" d="M45 1536q0 63 39 108.5t96 45.5q51 0 88.5 -29.5t53.5 -65.5t16 -69q0 -54 -43.5 -95.5t-99.5 -41.5q-70 0 -110 42.5t-40 104.5zM367 1548q0 51 38.5 97.5t92.5 46.5q70 0 123 -44.5t53 -109.5q0 -59 -49.5 -103t-104.5 -44q-63 0 -108 52.5t-45 104.5z" />
<glyph unicode="&#xaa;" horiz-adv-x="772" d="M68 870q0 111 90 196t241 85q18 0 68 -4q1 7 2 12.5t1.5 8t0.5 3.5q0 23 -18.5 41.5t-49.5 18.5q-47 0 -122 -60l-109 101q145 133 274 133q203 0 203 -301q0 -9 -7 -88t-7 -146q0 -88 16 -127l-166 -67q-12 18 -26 80q-88 -64 -183 -64q-88 0 -148 50t-60 128zM231 895 q27 -35 76 -35q50 0 144 58l6 49q-55 10 -90 10q-112 0 -136 -82z" />
<glyph unicode="&#xab;" horiz-adv-x="1026" d="M39 494q219 142 459 401l120 -135q-114 -110 -350 -266q145 -87 295 -213l-94 -152q-157 157 -430 365zM444 477q211 179 353 350l135 -118q-156 -163 -258 -224q221 -122 303 -192l-113 -139q-279 219 -420 323z" />
<glyph unicode="&#xad;" horiz-adv-x="856" d="M78 369v180q452 0 694 14v-178h-166q-224 0 -528 -16z" />
<glyph unicode="&#xaf;" horiz-adv-x="909" d="M45 1356l4 180q318 -14 631 -14h139q31 0 45 2l-8 -172q-243 14 -444 14q-152 0 -367 -10z" />
<glyph unicode="&#xb0;" horiz-adv-x="1105" d="M217 766q0 107 56 202t152.5 152.5t207.5 57.5q194 0 287.5 -100.5t93.5 -266.5q0 -169 -106 -281t-271 -112q-188 0 -304 97t-116 251zM391 770q0 -74 69 -126t193 -52q72 0 126.5 68.5t54.5 156.5q0 86 -45 133t-138 47q-30 0 -69.5 -10.5t-84.5 -34t-75.5 -71 t-30.5 -111.5z" />
<glyph unicode="&#xb1;" horiz-adv-x="829" d="M20 -86v174l789 12v-178zM20 446v175h316q3 155 16 266l180 -19l-28 -245q215 10 305 10v-178q-12 2 -31 2h-282q0 -59 4 -289h-181q0 179 11 287q-99 -9 -193 -9h-117z" />
<glyph unicode="&#xb2;" horiz-adv-x="780" d="M37 682q382 302 485 467q-4 2 -24 2h-23q-147 0 -250 -90l-98 153q147 103 358 103q32 0 82.5 -12t98 -40.5t47.5 -64.5q0 -76 -120.5 -206t-277.5 -228q241 25 347 25h30q21 0 27 -3l-10 -180q-114 19 -308 19q-165 0 -331 -17z" />
<glyph unicode="&#xb3;" horiz-adv-x="745" d="M57 985q324 64 435 152q-14 3 -41.5 9t-36 7t-24 4.5t-29.5 4t-27.5 2t-43 2t-49.5 1.5t-73 2v181q183 0 311 -38.5t221 -125.5q-30 -154 -335 -240q258 -30 329 -104l-26 -162q-240 -132 -607 -162l13 180q210 0 424 90q-113 54 -422 54z" />
<glyph unicode="&#xb4;" horiz-adv-x="528" d="M45 1538q222 104 354 180l86 -157q-175 -51 -346 -177z" />
<glyph unicode="&#xb7;" horiz-adv-x="407" d="M68 588q0 59 44 98t107 39q59 0 100 -39t41 -98q0 -19 -8.5 -45.5t-24 -55t-44.5 -48t-64 -19.5q-59 0 -105 52t-46 116z" />
<glyph unicode="&#xb8;" horiz-adv-x="456" d="M186 -346q156 43 248 119q-124 68 -231 71l37 140q208 -50 309 -154l-4 -109q-139 -133 -326 -186z" />
<glyph unicode="&#xb9;" horiz-adv-x="397" d="M66 1217q121 14 245 114q-16 -169 -16 -373q0 -158 8 -286l-178 -23q31 279 31 406v63q0 11 -2 17l-78 -39z" />
<glyph unicode="&#xba;" horiz-adv-x="899" d="M160 1106q0 131 86 234.5t207 103.5q70 0 137.5 -31.5t114.5 -79t75.5 -105t28.5 -108.5q0 -118 -105 -206.5t-239 -88.5q-145 0 -225 78t-80 203zM338 1106q0 -45 39 -70.5t92 -25.5q68 0 108.5 29.5t40.5 74.5q0 51 -47 99.5t-100 48.5q-51 0 -92 -49.5t-41 -106.5z " />
<glyph unicode="&#xbb;" horiz-adv-x="1132" d="M49 229q174 208 397 322q-82 43 -321 246l125 127q184 -211 467 -392q-359 -200 -529 -419zM428 221q167 153 467 295q-173 112 -309 318l131 120q140 -214 385 -481l-2 -6q-248 -106 -545 -377z" />
<glyph unicode="&#xbc;" horiz-adv-x="1208" d="M57 129q367 490 758 1067l146 -113q-328 -417 -742 -1032zM111 735q24 194 24 350q0 22 -0.5 43t-1 34t-0.5 16l180 -9q-22 -175 -22 -426zM631 195q43 187 55 489l184 -25q-50 -169 -53 -282h62q27 0 59 4q9 71 20 203l185 2q-13 -80 -23 -185q1 0 3.5 1t8.5 2t13 2 l31 -177q-38 -9 -72 -12l-19 -221l-180 12l17 187h-291z" />
<glyph unicode="&#xbd;" horiz-adv-x="1101" d="M57 102q451 709 695 1065l149 -100q-536 -804 -692 -1061zM137 680q13 240 13 330v116q0 24 -5 41h181q-13 -169 -13 -313q0 -54 4 -156zM539 78q10 32 61.5 89.5t108 108.5t102 99.5t45.5 66.5q0 14 -9 22.5t-18 8.5q-31 0 -65 -37l-139 113q58 88 178 88 q93 0 151 -50.5t58 -127.5q0 -29 -3.5 -49.5t-18 -51t-41.5 -60t-76.5 -70.5t-120.5 -89q134 38 241 41v-180h-157q-93 0 -207 -31z" />
<glyph unicode="&#xbe;" horiz-adv-x="1259" d="M74 516l59 164q143 0 229 53q-129 76 -258 76l13 111q226 9 297 118q-59 39 -236 39l-14 180q262 0 403 -108q36 -131 39 -150q-67 -78 -180 -149q83 -61 113 -125q-77 -203 -465 -209zM195 -25q315 644 704 1266l152 -96q-402 -508 -686 -1225zM647 227q15 92 170 482 l172 -50l-115 -282q36 -4 54 -4q40 0 84 6q6 74 6 231l180 4q2 -4 2 -26v-60q0 -64 -16.5 -285t-16.5 -251h-180q0 58 10 205q-175 0 -350 30z" />
<glyph unicode="&#xbf;" horiz-adv-x="876" d="M27 113q8 46 23.5 93t45 100.5t51 90.5t68.5 100t69 91.5t80.5 101t75.5 94.5l144 -112l-8 -10q-7 -9 -22.5 -28t-36 -43.5t-52 -62t-66.5 -77.5q-103 -119 -153 -240q56 -21 174 -45.5t235 -24.5q61 0 111 9l82 -164q-150 -11 -230 -11q-392 0 -591 138zM264 1061 q0 72 46.5 129t117.5 57q96 0 154.5 -47t58.5 -123t-53 -128t-160 -52q-77 0 -120.5 46t-43.5 118z" />
<glyph unicode="&#xc0;" d="M-18 66q229 659 573 1239h84q246 -527 348 -805h86l6 -181h-12l123 -268l-168 -69q-87 213 -152 335q-258 -9 -489 -45l-27 177q207 36 432 45q-62 225 -198 516q-160 -238 -438 -1008zM305 1554l64 168q181 -85 379 -129l-74 -168q-176 81 -369 129z" />
<glyph unicode="&#xc1;" d="M-18 66q229 659 573 1239h84q246 -527 348 -805h86l6 -181h-12l123 -268l-168 -69q-87 213 -152 335q-258 -9 -489 -45l-27 177q207 36 432 45q-62 225 -198 516q-160 -238 -438 -1008zM369 1556q212 99 354 181l86 -158q-177 -51 -346 -176z" />
<glyph unicode="&#xc2;" d="M-18 66q229 659 573 1239h84q246 -527 348 -805h86l6 -181h-12l123 -268l-168 -69q-87 213 -152 335q-258 -9 -489 -45l-27 177q207 36 432 45q-62 225 -198 516q-160 -238 -438 -1008zM324 1552q134 121 254 244l73 -16q57 -144 201 -291l-133 -121q-93 100 -131 201 l-137 -144z" />
<glyph unicode="&#xc3;" d="M-18 66q229 659 573 1239h84q246 -527 348 -805h86l6 -181h-12l123 -268l-168 -69q-87 213 -152 335q-258 -9 -489 -45l-27 177q207 36 432 45q-62 225 -198 516q-160 -238 -438 -1008zM256 1563q90 106 186 106q43 0 143.5 -35t123.5 -35q31 0 50.5 16.5t35.5 51.5 l123 -127q-55 -108 -203 -108q-42 0 -143 31.5t-117 31.5q-51 0 -64 -55z" />
<glyph unicode="&#xc4;" d="M-18 66q229 659 573 1239h84q246 -527 348 -805h86l6 -181h-12l123 -268l-168 -69q-87 213 -152 335q-258 -9 -489 -45l-27 177q207 36 432 45q-62 225 -198 516q-160 -238 -438 -1008zM274 1554q0 63 39 108.5t97 45.5q51 0 88.5 -29.5t53 -65.5t15.5 -69 q0 -54 -43.5 -95.5t-99.5 -41.5q-70 0 -110 42.5t-40 104.5zM596 1567q0 51 38.5 97t92.5 46q71 0 123.5 -44.5t52.5 -109.5q0 -59 -49 -103t-104 -44q-63 0 -108.5 53t-45.5 105z" />
<glyph unicode="&#xc5;" d="M-18 66q229 659 573 1239h84q246 -527 348 -805h86l6 -181h-12l123 -268l-168 -69q-87 213 -152 335q-258 -9 -489 -45l-27 177q207 36 432 45q-62 225 -198 516q-160 -238 -438 -1008zM387 1585q0 82 50.5 145.5t127.5 69.5l2 -8q79 0 151.5 -54t72.5 -145 q0 -76 -58 -141.5t-141 -65.5q-97 0 -151 56.5t-54 142.5zM475 1577q0 -40 33.5 -68t77.5 -28q43 0 79.5 28t36.5 82q0 43 -33 77t-96 34l-6 8q-36 -12 -64 -52t-28 -81z" />
<glyph unicode="&#xc6;" horiz-adv-x="1316" d="M27 113q31 46 301 558t305 584q197 -14 399 -14q64 0 170 4l-16 -180q-120 12 -260 12h-103q-27 0 -37 -2q-4 -100 -12 -561l449 21l22 -181l-477 -20q-4 -106 -4 -131q0 -9 1 -22t1 -19l18 1q18 1 48.5 3t69 4.5t84 5t89.5 4.5t89 3t79 1l-8 -178q-156 -2 -461 -20 l-180 -11q-8 73 -8 218v106q0 27 2 39l-230 2q-114 -223 -174 -315zM451 520h90q49 0 53 -2q11 142 14 313q-103 -201 -157 -311z" />
<glyph unicode="&#xc7;" horiz-adv-x="1200" d="M49 541q0 131 61 254t162 213.5t237 145t279 54.5q223 0 388 -131l-91 -153q-116 104 -294 104q-119 0 -224 -40t-176 -105t-112 -149.5t-41 -172.5q0 -173 118.5 -294.5t288.5 -121.5q207 0 428 179l125 -125q-238 -219 -551 -219q-175 0 -312 73t-211.5 200.5 t-74.5 287.5zM496 -346q150 41 247 119q-127 68 -231 71l35 140q211 -51 311 -154l-4 -109q-139 -133 -328 -186z" />
<glyph unicode="&#xc8;" horiz-adv-x="1253" d="M72 1006v215h1073v-207h-852v-434q415 3 794 45l23 -181l-813 -47v-209l879 68l22 -180q-591 -42 -1083 -90q6 295 6 532q0 317 -10 488h-39zM344 1554l64 168q182 -86 378 -129l-73 -168q-176 81 -369 129z" />
<glyph unicode="&#xc9;" horiz-adv-x="1253" d="M72 1006v215h1073v-207h-852v-434q415 3 794 45l23 -181l-813 -47v-209l879 68l22 -180q-591 -42 -1083 -90q6 295 6 532q0 317 -10 488h-39zM406 1556q212 99 354 181l86 -158q-177 -51 -346 -176z" />
<glyph unicode="&#xca;" horiz-adv-x="1253" d="M72 1006v215h1073v-207h-852v-434q415 3 794 45l23 -181l-813 -47v-209l879 68l22 -180q-591 -42 -1083 -90q6 295 6 532q0 317 -10 488h-39zM360 1552q134 121 254 244l74 -16q57 -144 201 -291l-133 -121q-93 100 -131 201l-138 -144z" />
<glyph unicode="&#xcb;" horiz-adv-x="1253" d="M72 1006v215h1073v-207h-852v-434q415 3 794 45l23 -181l-813 -47v-209l879 68l22 -180q-591 -42 -1083 -90q6 295 6 532q0 317 -10 488h-39zM311 1554q0 63 39 108.5t96 45.5q51 0 88.5 -29.5t53.5 -65.5t16 -69q0 -54 -43.5 -95.5t-99.5 -41.5q-70 0 -110 42.5 t-40 104.5zM633 1567q0 51 38.5 97t92.5 46q70 0 123 -44.5t53 -109.5q0 -59 -49.5 -103t-104.5 -44q-63 0 -108 52.5t-45 105.5z" />
<glyph unicode="&#xcc;" horiz-adv-x="661" d="M49 1554l64 168q181 -85 379 -129l-74 -168q-176 81 -369 129zM68 1245q249 12 499 27l11 -180q-107 -5 -164 -5v-952l170 8l8 -178q-338 0 -500 -14l-8 178q32 1 63.5 2t49.5 1.5t36 0.5q13 189 13 479q0 220 -6 469q-126 -11 -146 -16z" />
<glyph unicode="&#xcd;" horiz-adv-x="661" d="M68 1245q249 12 499 27l11 -180q-107 -5 -164 -5v-952l170 8l8 -178q-338 0 -500 -14l-8 178q32 1 63.5 2t49.5 1.5t36 0.5q13 189 13 479q0 220 -6 469q-126 -11 -146 -16zM111 1556q212 99 354 181l86 -158q-177 -51 -346 -176z" />
<glyph unicode="&#xce;" horiz-adv-x="661" d="M66 1552q126 114 253 244l74 -16q57 -144 201 -291l-133 -121q-93 100 -131 201l-137 -144zM68 1245q249 12 499 27l11 -180q-107 -5 -164 -5v-952l170 8l8 -178q-338 0 -500 -14l-8 178q32 1 63.5 2t49.5 1.5t36 0.5q13 189 13 479q0 220 -6 469q-126 -11 -146 -16z" />
<glyph unicode="&#xcf;" horiz-adv-x="661" d="M18 1554q0 63 39 108.5t97 45.5q51 0 88.5 -29.5t53 -65.5t15.5 -69q0 -54 -43.5 -95.5t-99.5 -41.5q-70 0 -110 42.5t-40 104.5zM68 1245q249 12 499 27l11 -180q-107 -5 -164 -5v-952l170 8l8 -178q-338 0 -500 -14l-8 178q32 1 63.5 2t49.5 1.5t36 0.5q13 189 13 479 q0 220 -6 469q-126 -11 -146 -16zM340 1567q0 51 38.5 97t92.5 46q71 0 123.5 -44.5t52.5 -109.5q0 -59 -49 -103t-104 -44q-63 0 -108.5 53t-45.5 105z" />
<glyph unicode="&#xd0;" horiz-adv-x="1304" d="M27 444v181h178q-12 306 -23 438l-30 -2l-15 180q289 27 398 27q168 0 304.5 -35.5t236.5 -105t155 -179.5t55 -252q0 -134 -58 -261t-158.5 -225t-248 -158t-313.5 -60q-23 0 -138.5 4t-164.5 4q0 32 2 126t2 169v156zM362 735q0 -55 3 -108q235 4 356 10v-178h-166 q-31 0 -94 -1t-94 -1q0 -58 3.5 -163t4.5 -134q114 0 219.5 18.5t198 57.5t160.5 95.5t107.5 137.5t39.5 178q0 216 -148 327t-407 111q-99 0 -183 -8v-342z" />
<glyph unicode="&#xd1;" horiz-adv-x="1304" d="M76 33q45 379 45 917q0 118 -6 232l192 30q259 -687 731 -972q0 451 -16 958l180 4q15 -708 17 -1206h-181v33q-481 276 -751 796q-7 -149 -13 -297t-11 -296.5t-7 -211.5zM319 1563q90 106 187 106q43 0 143 -35t123 -35q31 0 50.5 16.5t35.5 51.5l123 -127 q-55 -108 -203 -108q-42 0 -143 31.5t-117 31.5q-28 0 -42.5 -13.5t-20.5 -41.5z" />
<glyph unicode="&#xd2;" horiz-adv-x="1337" d="M59 426q0 269 152 502.5t397 337.5l10 -25q112 25 179 25q212 0 342.5 -150.5t130.5 -382.5q0 -157 -64 -305t-170 -257.5t-252.5 -176t-302.5 -66.5q-194 0 -308 137t-114 361zM227 391q0 -272 289 -272q151 0 285 94t211.5 242t77.5 305q0 151 -80.5 236t-221.5 85 q-60 0 -165 -24l-7 18q-96 -50 -187 -169t-146.5 -260t-55.5 -255zM463 1522l63 168q181 -85 379 -129l-74 -168q-177 82 -368 129z" />
<glyph unicode="&#xd3;" horiz-adv-x="1337" d="M59 426q0 269 152 502.5t397 337.5l10 -25q112 25 179 25q212 0 342.5 -150.5t130.5 -382.5q0 -157 -64 -305t-170 -257.5t-252.5 -176t-302.5 -66.5q-194 0 -308 137t-114 361zM227 391q0 -272 289 -272q151 0 285 94t211.5 242t77.5 305q0 151 -80.5 236t-221.5 85 q-60 0 -165 -24l-7 18q-96 -50 -187 -169t-146.5 -260t-55.5 -255zM559 1493q222 104 354 180l86 -157q-175 -51 -346 -177z" />
<glyph unicode="&#xd4;" horiz-adv-x="1337" d="M59 426q0 269 152 502.5t397 337.5l10 -25q112 25 179 25q212 0 342.5 -150.5t130.5 -382.5q0 -157 -64 -305t-170 -257.5t-252.5 -176t-302.5 -66.5q-194 0 -308 137t-114 361zM227 391q0 -272 289 -272q151 0 285 94t211.5 242t77.5 305q0 151 -80.5 236t-221.5 85 q-60 0 -165 -24l-7 18q-96 -50 -187 -169t-146.5 -260t-55.5 -255zM559 1534q134 121 254 244l74 -17q58 -146 200 -291l-133 -120q-93 101 -131 200l-137 -143z" />
<glyph unicode="&#xd5;" horiz-adv-x="1337" d="M59 426q0 269 152 502.5t397 337.5l10 -25q112 25 179 25q212 0 342.5 -150.5t130.5 -382.5q0 -157 -64 -305t-170 -257.5t-252.5 -176t-302.5 -66.5q-194 0 -308 137t-114 361zM227 391q0 -272 289 -272q151 0 285 94t211.5 242t77.5 305q0 151 -80.5 236t-221.5 85 q-60 0 -165 -24l-7 18q-96 -50 -187 -169t-146.5 -260t-55.5 -255zM444 1548q91 107 187 107q43 0 143 -35t123 -35q31 0 50.5 16.5t35.5 51.5l123 -127q-56 -109 -203 -109q-42 0 -143 32t-117 32q-50 0 -63 -56z" />
<glyph unicode="&#xd6;" horiz-adv-x="1337" d="M59 426q0 269 152 502.5t397 337.5l10 -25q112 25 179 25q212 0 342.5 -150.5t130.5 -382.5q0 -157 -64 -305t-170 -257.5t-252.5 -176t-302.5 -66.5q-194 0 -308 137t-114 361zM227 391q0 -272 289 -272q151 0 285 94t211.5 242t77.5 305q0 151 -80.5 236t-221.5 85 q-60 0 -165 -24l-7 18q-96 -50 -187 -169t-146.5 -260t-55.5 -255zM492 1554q0 63 39 108.5t96 45.5q51 0 88.5 -29.5t53 -65.5t15.5 -69q0 -54 -43.5 -95.5t-99.5 -41.5q-70 0 -109.5 42.5t-39.5 104.5zM813 1567q0 51 38.5 97t92.5 46q70 0 123 -44.5t53 -109.5 q0 -59 -49 -103t-104 -44q-63 0 -108.5 53t-45.5 105z" />
<glyph unicode="&#xd7;" horiz-adv-x="829" d="M113 680l125 125l211 -213q133 127 198 178l107 -133l-193 -154q30 -28 78.5 -72.5t78.5 -72.5t54 -53l-125 -125q-8 10 -209 211q-64 -64 -200 -207l-121 121q12 11 60.5 58.5t81.5 77.5t67 58q-74 62 -213 201z" />
<glyph unicode="&#xd8;" horiz-adv-x="1337" d="M59 426q0 269 152 502.5t397 337.5l10 -25q112 25 179 25q212 0 342.5 -150.5t130.5 -382.5q0 -157 -64 -305t-170 -257.5t-252.5 -176t-302.5 -66.5q-194 0 -308 137t-114 361zM227 391q0 -103 41 -168q53 65 286 397.5t314 452.5q-27 8 -80 8q-60 0 -165 -24l-7 18 q-96 -50 -187 -169t-146.5 -260t-55.5 -255zM406 131q70 -12 110 -12q151 0 285 94t211.5 242t77.5 305q0 149 -78 233q-61 -79 -301.5 -422.5t-304.5 -439.5z" />
<glyph unicode="&#xd9;" horiz-adv-x="1372" d="M92 629q0 88 6 274.5t6 288.5l181 4q-11 -197 -11 -430q0 -107 3.5 -187t12.5 -145.5t21.5 -110.5t33.5 -78.5t45 -53t60.5 -31t75 -15.5t92.5 -4q79 0 137.5 15t110.5 52.5t86.5 102.5t60 165t37 240t11.5 326v156l180 -8q-29 -479 -29 -762q0 -226 119 -354l-139 -111 q-79 85 -117 281q-174 -283 -504 -283q-162 0 -266 66t-158.5 214.5t-54.5 387.5zM403 1554l64 168q181 -85 379 -129l-74 -168q-176 81 -369 129z" />
<glyph unicode="&#xda;" horiz-adv-x="1372" d="M92 629q0 88 6 274.5t6 288.5l181 4q-11 -197 -11 -430q0 -107 3.5 -187t12.5 -145.5t21.5 -110.5t33.5 -78.5t45 -53t60.5 -31t75 -15.5t92.5 -4q79 0 137.5 15t110.5 52.5t86.5 102.5t60 165t37 240t11.5 326v156l180 -8q-29 -479 -29 -762q0 -226 119 -354l-139 -111 q-79 85 -117 281q-174 -283 -504 -283q-162 0 -266 66t-158.5 214.5t-54.5 387.5zM467 1556q212 99 354 181l86 -158q-177 -51 -346 -176z" />
<glyph unicode="&#xdb;" horiz-adv-x="1372" d="M92 629q0 88 6 274.5t6 288.5l181 4q-11 -197 -11 -430q0 -107 3.5 -187t12.5 -145.5t21.5 -110.5t33.5 -78.5t45 -53t60.5 -31t75 -15.5t92.5 -4q79 0 137.5 15t110.5 52.5t86.5 102.5t60 165t37 240t11.5 326v156l180 -8q-29 -479 -29 -762q0 -226 119 -354l-139 -111 q-79 85 -117 281q-174 -283 -504 -283q-162 0 -266 66t-158.5 214.5t-54.5 387.5zM422 1552q134 121 254 244l74 -16q58 -146 200 -291l-133 -121q-93 100 -131 201l-137 -144z" />
<glyph unicode="&#xdc;" horiz-adv-x="1372" d="M92 629q0 88 6 274.5t6 288.5l181 4q-11 -197 -11 -430q0 -107 3.5 -187t12.5 -145.5t21.5 -110.5t33.5 -78.5t45 -53t60.5 -31t75 -15.5t92.5 -4q79 0 137.5 15t110.5 52.5t86.5 102.5t60 165t37 240t11.5 326v156l180 -8q-29 -479 -29 -762q0 -226 119 -354l-139 -111 q-79 85 -117 281q-174 -283 -504 -283q-162 0 -266 66t-158.5 214.5t-54.5 387.5zM371 1554q0 63 39 108.5t96 45.5q51 0 88.5 -29.5t53.5 -65.5t16 -69q0 -54 -44 -95.5t-100 -41.5q-70 0 -109.5 42.5t-39.5 104.5zM692 1567q0 51 38.5 97t92.5 46q71 0 123.5 -44.5 t52.5 -109.5q0 -59 -49 -103t-104 -44q-63 0 -108.5 53t-45.5 105z" />
<glyph unicode="&#xdd;" horiz-adv-x="1179" d="M59 1165l148 103q271 -462 498 -637q145 252 290 606l168 -72q-358 -818 -917 -1210l-101 147q312 172 478 414q-288 217 -564 649zM369 1556q212 99 354 181l86 -158q-177 -51 -346 -176z" />
<glyph unicode="&#xde;" horiz-adv-x="872" d="M74 -12q46 624 67 1206l181 -18q-4 -37 -9.5 -84t-9 -77.5t-4.5 -51.5q427 -24 565 -392q-59 -348 -600 -419q-10 -139 -10 -172zM272 346q8 0 19.5 -1t19.5 -1q257 0 391 221q-51 118 -149.5 165.5t-265.5 47.5q-12 -285 -15 -432z" />
<glyph unicode="&#xdf;" horiz-adv-x="2711" d="M61 68l64 172q226 -97 561 -97q216 0 331.5 49t115.5 148q0 50 -21.5 81t-73.5 56q-60 28 -381 133t-385 140q-100 47 -142 97.5t-42 123.5q0 254 483 254q170 0 364 -37t275 -86l-86 -158q-70 44 -266 82.5t-340 38.5q-252 0 -252 -90q0 -52 166 -117q55 -22 362 -119 t388 -147q73 -44 106 -103t33 -147q0 -179 -171 -268.5t-486 -89.5q-350 0 -603 84zM1417 68l64 172q226 -97 561 -97q446 0 446 197q0 50 -21 81.5t-73 55.5q-60 28 -381 133t-385 140q-100 47 -142 97.5t-42 123.5q0 254 483 254q170 0 364 -37t275 -86l-86 -158 q-70 44 -266 82.5t-340 38.5q-252 0 -252 -90q0 -52 166 -117q54 -22 361 -119t388 -147q74 -44 107 -103t33 -147q0 -179 -171.5 -268.5t-486.5 -89.5q-349 0 -602 84z" />
<glyph unicode="&#xe0;" horiz-adv-x="1265" d="M-23 74q151 288 231 441.5t191 376t195 406.5l106 -59l41 16q223 -610 523 -1239l-166 -65l-201 455q-205 -7 -426 -11v176h86q144 0 262 11q-43 100 -79 188.5t-63.5 156.5t-31.5 79q-211 -379 -506 -1010zM350 1536l64 168q181 -85 379 -129l-74 -168q-176 81 -369 129 z" />
<glyph unicode="&#xe1;" horiz-adv-x="1265" d="M-23 74q151 288 231 441.5t191 376t195 406.5l106 -59l41 16q223 -610 523 -1239l-166 -65l-201 455q-205 -7 -426 -11v176h86q144 0 262 11q-43 100 -79 188.5t-63.5 156.5t-31.5 79q-211 -379 -506 -1010zM412 1538q222 104 354 180l86 -157q-175 -51 -346 -177z" />
<glyph unicode="&#xe2;" horiz-adv-x="1265" d="M-23 74q151 288 231 441.5t191 376t195 406.5l106 -59l41 16q223 -610 523 -1239l-166 -65l-201 455q-205 -7 -426 -11v176h86q144 0 262 11q-43 100 -79 188.5t-63.5 156.5t-31.5 79q-211 -379 -506 -1010zM367 1534q134 121 254 244l73 -17q57 -144 201 -291l-133 -120 q-93 101 -131 200l-137 -143z" />
<glyph unicode="&#xe3;" horiz-adv-x="1265" d="M-23 74q151 288 231 441.5t191 376t195 406.5l106 -59l41 16q223 -610 523 -1239l-166 -65l-201 455q-205 -7 -426 -11v176h86q144 0 262 11q-43 100 -79 188.5t-63.5 156.5t-31.5 79q-211 -379 -506 -1010zM301 1544q91 107 186 107q43 0 143.5 -35t123.5 -35 q31 0 50.5 16.5t35.5 51.5l123 -127q-56 -109 -203 -109q-42 0 -143 32t-117 32q-51 0 -64 -56z" />
<glyph unicode="&#xe4;" horiz-adv-x="1265" d="M-23 74q151 288 231 441.5t191 376t195 406.5l106 -59l41 16q223 -610 523 -1239l-166 -65l-201 455q-205 -7 -426 -11v176h86q144 0 262 11q-43 100 -79 188.5t-63.5 156.5t-31.5 79q-211 -379 -506 -1010zM317 1536q0 63 39 108.5t97 45.5q51 0 88.5 -29.5t53 -65.5 t15.5 -69q0 -54 -43.5 -95.5t-99.5 -41.5q-70 0 -110 42.5t-40 104.5zM639 1548q0 51 38.5 97.5t92.5 46.5q71 0 123.5 -44.5t52.5 -109.5q0 -59 -49 -103t-104 -44q-63 0 -108.5 52.5t-45.5 104.5z" />
<glyph unicode="&#xe5;" horiz-adv-x="1265" d="M-23 74q151 288 231 441.5t191 376t195 406.5l106 -59l41 16q223 -610 523 -1239l-166 -65l-201 455q-205 -7 -426 -11v176h86q144 0 262 11q-43 100 -79 188.5t-63.5 156.5t-31.5 79q-211 -379 -506 -1010zM430 1567q0 82 50.5 145.5t127.5 69.5l2 -8q79 0 151.5 -54 t72.5 -145q0 -76 -58 -141.5t-141 -65.5q-97 0 -151 56.5t-54 142.5zM518 1559q0 -40 33.5 -68.5t77.5 -28.5q42 0 79 28t37 83q0 43 -33 76.5t-96 33.5l-6 9q-36 -12 -64 -52t-28 -81z" />
<glyph unicode="&#xe6;" horiz-adv-x="1316" d="M27 113q31 46 301 558t305 584q197 -14 399 -14q64 0 170 4l-16 -180q-120 12 -260 12h-103q-27 0 -37 -2q-4 -100 -12 -561l449 21l22 -181l-477 -20q-4 -106 -4 -131q0 -9 1 -22t1 -19l18 1q18 1 48.5 3t69 4.5t84 5t89.5 4.5t89 3t79 1l-8 -178q-156 -2 -461 -20 l-180 -11q-8 73 -8 218v106q0 27 2 39l-230 2q-114 -223 -174 -315zM451 520h90q49 0 53 -2q11 142 14 313q-103 -201 -157 -311z" />
<glyph unicode="&#xe7;" horiz-adv-x="1349" d="M43 500q0 142 64.5 275t172 231.5t257.5 157.5t313 59q291 0 498 -183l-105 -147q-203 162 -416 162q-113 0 -223 -50t-191.5 -129t-131.5 -182.5t-50 -206.5q0 -166 127 -262t361 -96q148 0 275 62t200 165q102 -92 133 -123q-231 -278 -588 -284q125 -49 193 -119 l-4 -109q-139 -133 -326 -186l-33 119q156 43 248 119q-124 68 -231 71l26 111q-259 29 -414 177t-155 368z" />
<glyph unicode="&#xe8;" horiz-adv-x="1245" d="M70 1059v180q719 9 1040 29l14 -181q-540 -12 -825 -24v-481q407 8 834 43l14 -181q-336 -14 -848 -45q2 -12 2 -34v-197q0 -19 -2 -31q343 3 881 37l10 -178q-639 -3 -1071 -59q10 202 10 518q0 170 -8 604h-51zM340 1536l63 168q181 -85 379 -129l-73 -168 q-176 81 -369 129z" />
<glyph unicode="&#xe9;" horiz-adv-x="1245" d="M70 1059v180q719 9 1040 29l14 -181q-540 -12 -825 -24v-481q407 8 834 43l14 -181q-336 -14 -848 -45q2 -12 2 -34v-197q0 -19 -2 -31q343 3 881 37l10 -178q-639 -3 -1071 -59q10 202 10 518q0 170 -8 604h-51zM403 1538q227 106 355 180l86 -157q-175 -51 -346 -177z " />
<glyph unicode="&#xea;" horiz-adv-x="1245" d="M70 1059v180q719 9 1040 29l14 -181q-540 -12 -825 -24v-481q407 8 834 43l14 -181q-336 -14 -848 -45q2 -12 2 -34v-197q0 -19 -2 -31q343 3 881 37l10 -178q-639 -3 -1071 -59q10 202 10 518q0 170 -8 604h-51zM358 1534q134 121 254 244l74 -17q57 -144 201 -291 l-133 -120q-93 101 -131 200l-138 -143z" />
<glyph unicode="&#xeb;" horiz-adv-x="1245" d="M70 1059v180q719 9 1040 29l14 -181q-540 -12 -825 -24v-481q407 8 834 43l14 -181q-336 -14 -848 -45q2 -12 2 -34v-197q0 -19 -2 -31q343 3 881 37l10 -178q-639 -3 -1071 -59q10 202 10 518q0 170 -8 604h-51zM309 1536q0 63 39 108.5t96 45.5q51 0 88.5 -29.5 t53.5 -65.5t16 -69q0 -54 -43.5 -95.5t-99.5 -41.5q-70 0 -110 42.5t-40 104.5zM631 1548q0 51 38.5 97.5t92.5 46.5q70 0 123 -44.5t53 -109.5q0 -59 -49.5 -103t-104.5 -44q-63 0 -108 52.5t-45 104.5z" />
<glyph unicode="&#xec;" horiz-adv-x="346" d="M-109 1536l64 168q181 -85 379 -129l-74 -168q-176 81 -369 129zM66 -41q35 570 38 1274l181 -10q-32 -736 -39 -1264h-180z" />
<glyph unicode="&#xed;" horiz-adv-x="346" d="M-45 1538q222 104 354 180l86 -157q-175 -51 -346 -177zM66 -41q35 570 38 1274l181 -10q-32 -736 -39 -1264h-180z" />
<glyph unicode="&#xee;" horiz-adv-x="346" d="M-90 1534q134 121 254 244l74 -17q58 -146 200 -291l-133 -120q-93 101 -131 200l-137 -143zM66 -41q35 570 38 1274l181 -10q-32 -736 -39 -1264h-180z" />
<glyph unicode="&#xef;" horiz-adv-x="346" d="M-139 1536q0 63 39 108.5t96 45.5q51 0 88.5 -29.5t53.5 -65.5t16 -69q0 -54 -44 -95.5t-100 -41.5q-70 0 -109.5 42.5t-39.5 104.5zM66 -41q35 570 38 1274l181 -10q-32 -736 -39 -1264h-180zM182 1548q0 51 38.5 97.5t92.5 46.5q71 0 123.5 -44.5t52.5 -109.5 q0 -59 -49 -103t-104 -44q-63 0 -108.5 52.5t-45.5 104.5z" />
<glyph unicode="&#xf0;" horiz-adv-x="1304" d="M27 444v181h178q-12 306 -23 438l-30 -2l-15 180q289 27 398 27q168 0 304.5 -35.5t236.5 -105t155 -179.5t55 -252q0 -134 -58 -261t-158.5 -225t-248 -158t-313.5 -60q-23 0 -138.5 4t-164.5 4q0 32 2 126t2 169v156zM362 735q0 -55 3 -108q235 4 356 10v-178h-166 q-31 0 -94 -1t-94 -1q0 -58 3.5 -163t4.5 -134q114 0 219.5 18.5t198 57.5t160.5 95.5t107.5 137.5t39.5 178q0 216 -148 327t-407 111q-99 0 -183 -8v-342z" />
<glyph unicode="&#xf1;" horiz-adv-x="1241" d="M76 -2q33 480 33 1190l172 33q234 -662 704 -1053q6 363 6 375q0 252 -10 645l178 -6q-10 -393 -10 -717q0 -146 4 -440l-156 -41q-493 323 -733 897q-12 -328 -12 -660v-115q0 -42 4 -108h-180zM289 1544q91 107 186 107q43 0 143 -35t123 -35q31 0 50.5 16.5t35.5 51.5 l123 -127q-56 -109 -202 -109q-42 0 -143.5 32t-117.5 32q-50 0 -63 -56z" />
<glyph unicode="&#xf2;" horiz-adv-x="1306" d="M59 508q0 189 86 359t234 274t319 104q165 0 290 -77t190 -206.5t65 -291.5q0 -142 -48 -272.5t-129.5 -226t-196.5 -152t-244 -56.5q-262 0 -414 152t-152 393zM238 518q0 -157 103.5 -269t258.5 -112q71 0 141 30t127 83t101.5 122t69 151.5t24.5 166.5 q0 169 -96.5 276t-251.5 107q-122 0 -233.5 -81.5t-177.5 -210.5t-66 -263zM449 1491l63 168q181 -85 379 -129l-74 -168q-177 82 -368 129z" />
<glyph unicode="&#xf3;" horiz-adv-x="1306" d="M59 508q0 189 86 359t234 274t319 104q165 0 290 -77t190 -206.5t65 -291.5q0 -142 -48 -272.5t-129.5 -226t-196.5 -152t-244 -56.5q-262 0 -414 152t-152 393zM238 518q0 -157 103.5 -269t258.5 -112q71 0 141 30t127 83t101.5 122t69 151.5t24.5 166.5 q0 169 -96.5 276t-251.5 107q-122 0 -233.5 -81.5t-177.5 -210.5t-66 -263zM508 1507q212 99 354 181l86 -158q-177 -51 -346 -176z" />
<glyph unicode="&#xf4;" horiz-adv-x="1306" d="M59 508q0 189 86 359t234 274t319 104q165 0 290 -77t190 -206.5t65 -291.5q0 -142 -48 -272.5t-129.5 -226t-196.5 -152t-244 -56.5q-262 0 -414 152t-152 393zM238 518q0 -157 103.5 -269t258.5 -112q71 0 141 30t127 83t101.5 122t69 151.5t24.5 166.5 q0 169 -96.5 276t-251.5 107q-122 0 -233.5 -81.5t-177.5 -210.5t-66 -263zM498 1516q142 128 254 243l73 -16q57 -144 201 -291l-133 -121q-93 100 -131 201l-137 -143z" />
<glyph unicode="&#xf5;" horiz-adv-x="1306" d="M59 508q0 189 86 359t234 274t319 104q165 0 290 -77t190 -206.5t65 -291.5q0 -142 -48 -272.5t-129.5 -226t-196.5 -152t-244 -56.5q-262 0 -414 152t-152 393zM238 518q0 -157 103.5 -269t258.5 -112q71 0 141 30t127 83t101.5 122t69 151.5t24.5 166.5 q0 169 -96.5 276t-251.5 107q-122 0 -233.5 -81.5t-177.5 -210.5t-66 -263zM383 1513q91 107 186 107q43 0 143.5 -35t123.5 -35q31 0 50.5 16.5t35.5 51.5l122 -127q-56 -109 -202 -109q-42 0 -143 32t-117 32q-51 0 -64 -55z" />
<glyph unicode="&#xf6;" horiz-adv-x="1306" d="M59 508q0 189 86 359t234 274t319 104q165 0 290 -77t190 -206.5t65 -291.5q0 -142 -48 -272.5t-129.5 -226t-196.5 -152t-244 -56.5q-262 0 -414 152t-152 393zM238 518q0 -157 103.5 -269t258.5 -112q71 0 141 30t127 83t101.5 122t69 151.5t24.5 166.5 q0 169 -96.5 276t-251.5 107q-122 0 -233.5 -81.5t-177.5 -210.5t-66 -263zM412 1522q0 63 38.5 108t96.5 45q51 0 88.5 -29.5t53.5 -65.5t16 -69q0 -54 -44 -95.5t-100 -41.5q-70 0 -109.5 43t-39.5 105zM733 1534q0 51 38.5 97t92.5 46q71 0 123.5 -44t52.5 -109 q0 -59 -49 -103.5t-104 -44.5q-63 0 -108.5 53t-45.5 105z" />
<glyph unicode="&#xf7;" horiz-adv-x="829" d="M20 365v174l789 12v-178zM248 125q0 88 50.5 136t137.5 48q54 0 100 -46.5t46 -117.5q0 -67 -56 -114t-129 -47q-66 0 -107.5 38t-41.5 103zM248 780q0 88 50.5 136.5t137.5 48.5q54 0 100 -46.5t46 -117.5q0 -67 -56.5 -114.5t-128.5 -47.5q-66 0 -107.5 38t-41.5 103z " />
<glyph unicode="&#xf8;" horiz-adv-x="1306" d="M59 508q0 189 86 359t234 274t319 104q118 0 228 -45l20 -8l25 39l143 -105q-8 -16 -27 -39q156 -159 156 -417q0 -142 -48 -272.5t-129.5 -226t-196.5 -152t-244 -56.5q-144 0 -287 60q-23 -31 -29 -46l-141 111l31 39q-140 146 -140 381zM238 518q0 -127 77 -239 q456 633 537 765q-69 29 -137 29q-122 0 -233.5 -81.5t-177.5 -210.5t-66 -263zM440 174q60 -37 160 -37q71 0 141 30t127 83t101.5 122t69 151.5t24.5 166.5q0 152 -80 256q-99 -136 -297.5 -415.5t-245.5 -356.5z" />
<glyph unicode="&#xf9;" horiz-adv-x="1167" d="M72 735q0 11 5 116t5 122q3 67 5.5 126.5t3.5 84.5t1 28l180 -4q0 -21 -10 -240t-10 -292q0 -86 4.5 -151.5t16 -129t32.5 -108t53 -79.5t79.5 -52t109.5 -17q68 0 116.5 11t100.5 50t84 107t53 189.5t21 289.5q0 82 -17 416h180q21 -322 21 -428q0 -418 -138.5 -614.5 t-428.5 -196.5q-130 0 -214.5 34t-143.5 121.5t-84 236.5t-25 380zM301 1536l64 168q181 -86 378 -129l-73 -168q-176 81 -369 129z" />
<glyph unicode="&#xfa;" horiz-adv-x="1167" d="M72 735q0 11 5 116t5 122q3 67 5.5 126.5t3.5 84.5t1 28l180 -4q0 -21 -10 -240t-10 -292q0 -86 4.5 -151.5t16 -129t32.5 -108t53 -79.5t79.5 -52t109.5 -17q68 0 116.5 11t100.5 50t84 107t53 189.5t21 289.5q0 82 -17 416h180q21 -322 21 -428q0 -418 -138.5 -614.5 t-428.5 -196.5q-130 0 -214.5 34t-143.5 121.5t-84 236.5t-25 380zM362 1538q227 106 355 180l86 -157q-175 -51 -346 -177z" />
<glyph unicode="&#xfb;" horiz-adv-x="1167" d="M72 735q0 11 5 116t5 122q3 67 5.5 126.5t3.5 84.5t1 28l180 -4q0 -21 -10 -240t-10 -292q0 -86 4.5 -151.5t16 -129t32.5 -108t53 -79.5t79.5 -52t109.5 -17q68 0 116.5 11t100.5 50t84 107t53 189.5t21 289.5q0 82 -17 416h180q21 -322 21 -428q0 -418 -138.5 -614.5 t-428.5 -196.5q-130 0 -214.5 34t-143.5 121.5t-84 236.5t-25 380zM317 1534q134 121 254 244l74 -17q57 -144 201 -291l-133 -120q-93 101 -131 200l-138 -143z" />
<glyph unicode="&#xfc;" horiz-adv-x="1167" d="M72 735q0 11 5 116t5 122q3 67 5.5 126.5t3.5 84.5t1 28l180 -4q0 -21 -10 -240t-10 -292q0 -86 4.5 -151.5t16 -129t32.5 -108t53 -79.5t79.5 -52t109.5 -17q68 0 116.5 11t100.5 50t84 107t53 189.5t21 289.5q0 82 -17 416h180q21 -322 21 -428q0 -418 -138.5 -614.5 t-428.5 -196.5q-130 0 -214.5 34t-143.5 121.5t-84 236.5t-25 380zM268 1536q0 63 39 108.5t96 45.5q51 0 88.5 -29.5t53.5 -65.5t16 -69q0 -54 -43.5 -95.5t-99.5 -41.5q-70 0 -110 42.5t-40 104.5zM590 1548q0 51 38.5 97.5t92.5 46.5q70 0 123 -44.5t53 -109.5 q0 -59 -49.5 -103t-104.5 -44q-63 0 -108 52.5t-45 104.5z" />
<glyph unicode="&#xfd;" horiz-adv-x="1118" d="M63 86q316 281 506 506q-252 218 -460 551l153 94q218 -347 406 -543q155 239 272 537l166 -68q-233 -597 -922 -1210zM338 1538q222 104 354 180l86 -157q-175 -51 -346 -177z" />
<glyph unicode="&#xfe;" horiz-adv-x="872" d="M74 -12q46 624 67 1206l181 -18q-4 -37 -9.5 -84t-9 -77.5t-4.5 -51.5q427 -24 565 -392q-59 -348 -600 -419q-10 -139 -10 -172zM272 346q8 0 19.5 -1t19.5 -1q257 0 391 221q-51 118 -149.5 165.5t-265.5 47.5q-12 -285 -15 -432z" />
<glyph unicode="&#xff;" horiz-adv-x="1118" d="M63 86q316 281 506 506q-252 218 -460 551l153 94q218 -347 406 -543q155 239 272 537l166 -68q-233 -597 -922 -1210zM244 1536q0 63 39 108.5t96 45.5q51 0 88.5 -29.5t53.5 -65.5t16 -69q0 -54 -44 -95.5t-100 -41.5q-70 0 -109.5 42.5t-39.5 104.5zM565 1548 q0 51 38.5 97.5t92.5 46.5q70 0 123 -44.5t53 -109.5q0 -59 -49 -103t-104 -44q-63 0 -108.5 52.5t-45.5 104.5z" />
<glyph unicode="&#x152;" horiz-adv-x="1779" d="M207 555q0 120 31.5 225.5t86.5 182.5t127 133t154.5 84t167.5 28q69 0 130.5 -20.5t117.5 -64.5t101 -119.5t73 -178.5q142 321 387 412l82 -162q-86 -26 -158.5 -86t-121 -139.5t-79.5 -169.5t-42 -184h84q180 0 381 28v-180q-95 12 -203 12q-129 0 -234 -10 q98 -170 230 -170q56 0 100 27l90 -154q-74 -53 -172 -53q-121 0 -223.5 73.5t-153.5 206.5q-155 -266 -422 -266q-80 0 -155.5 20t-144.5 63.5t-121 105.5t-82.5 154t-30.5 202zM356 594q0 -190 112 -300t280 -110q141 0 229 112t88 294q0 196 -86.5 322t-222.5 126 q-90 0 -199 -45q-201 -115 -201 -399z" />
<glyph unicode="&#x153;" horiz-adv-x="1779" d="M207 555q0 120 31.5 225.5t86.5 182.5t127 133t154.5 84t167.5 28q69 0 130.5 -20.5t117.5 -64.5t101 -119.5t73 -178.5q142 321 387 412l82 -162q-86 -26 -158.5 -86t-121 -139.5t-79.5 -169.5t-42 -184h84q180 0 381 28v-180q-95 12 -203 12q-129 0 -234 -10 q98 -170 230 -170q56 0 100 27l90 -154q-74 -53 -172 -53q-121 0 -223.5 73.5t-153.5 206.5q-155 -266 -422 -266q-80 0 -155.5 20t-144.5 63.5t-121 105.5t-82.5 154t-30.5 202zM356 594q0 -190 112 -300t280 -110q141 0 229 112t88 294q0 196 -86.5 322t-222.5 126 q-90 0 -199 -45q-201 -115 -201 -399z" />
<glyph unicode="&#x178;" horiz-adv-x="1179" d="M59 1165l148 103q271 -462 498 -637q145 252 290 606l168 -72q-358 -818 -917 -1210l-101 147q312 172 478 414q-288 217 -564 649zM274 1554q0 63 39 108.5t97 45.5q51 0 88.5 -29.5t53 -65.5t15.5 -69q0 -54 -43.5 -95.5t-99.5 -41.5q-70 0 -110 42.5t-40 104.5z M596 1567q0 51 38.5 97t92.5 46q71 0 123.5 -44.5t52.5 -109.5q0 -59 -49 -103t-104 -44q-63 0 -108.5 53t-45.5 105z" />
<glyph unicode="&#x2c6;" horiz-adv-x="618" d="M45 1534q134 121 254 244l74 -17q58 -146 200 -291l-133 -120q-93 101 -131 200l-137 -143z" />
<glyph unicode="&#x2dc;" horiz-adv-x="751" d="M45 1544q91 107 186 107q43 0 143.5 -35t123.5 -35q31 0 50.5 16.5t35.5 51.5l123 -127q-56 -109 -203 -109q-42 0 -143 32t-117 32q-51 0 -64 -56z" />
<glyph unicode="&#x2000;" horiz-adv-x="900" />
<glyph unicode="&#x2001;" horiz-adv-x="1800" />
<glyph unicode="&#x2002;" horiz-adv-x="900" />
<glyph unicode="&#x2003;" horiz-adv-x="1800" />
<glyph unicode="&#x2004;" horiz-adv-x="600" />
<glyph unicode="&#x2005;" horiz-adv-x="450" />
<glyph unicode="&#x2006;" horiz-adv-x="300" />
<glyph unicode="&#x2007;" horiz-adv-x="300" />
<glyph unicode="&#x2008;" horiz-adv-x="225" />
<glyph unicode="&#x2009;" horiz-adv-x="360" />
<glyph unicode="&#x200a;" horiz-adv-x="100" />
<glyph unicode="&#x2010;" horiz-adv-x="856" d="M78 369v180q452 0 694 14v-178h-166q-224 0 -528 -16z" />
<glyph unicode="&#x2011;" horiz-adv-x="856" d="M78 369v180q452 0 694 14v-178h-166q-224 0 -528 -16z" />
<glyph unicode="&#x2012;" horiz-adv-x="856" d="M78 369v180q452 0 694 14v-178h-166q-224 0 -528 -16z" />
<glyph unicode="&#x2013;" horiz-adv-x="950" d="M72 469q404 8 807 31l4 -181q-467 0 -807 -30z" />
<glyph unicode="&#x2014;" horiz-adv-x="1703" d="M72 297l6 182q525 -16 1018 -16q170 0 538 4l-6 -180q-519 12 -1022 12h-401q-88 0 -133 -2z" />
<glyph unicode="&#x2018;" horiz-adv-x="335" d="M63 1126q0 76 25 207l176 -45q-22 -76 -22 -151q0 -93 55 -117l-121 -129q-113 47 -113 235z" />
<glyph unicode="&#x2019;" horiz-adv-x="346" d="M29 1049q67 27 67 131q0 51 -8 90l176 45q10 -64 10 -133q0 -195 -118 -260z" />
<glyph unicode="&#x201a;" horiz-adv-x="352" d="M33 -172q65 101 65 195q0 54 -20 96l168 63q30 -72 30 -153q0 -129 -83 -285z" />
<glyph unicode="&#x201c;" horiz-adv-x="645" d="M76 1065q0 121 104 301l144 -109q-60 -88 -60 -145q0 -54 49 -82l-112 -139q-125 49 -125 174zM354 1075q0 103 54 254l165 -72q-38 -86 -38 -153q0 -76 55 -111l-109 -143q-127 65 -127 225z" />
<glyph unicode="&#x201d;" horiz-adv-x="641" d="M47 1008q57 29 57 98q0 61 -41 154v2l154 94q64 -165 64 -269q0 -124 -84 -184zM317 971q50 29 50 104q0 77 -45 182l145 109q88 -171 88 -291q0 -124 -92 -213z" />
<glyph unicode="&#x201e;" horiz-adv-x="645" d="M59 -205zM59 -205q4 3 21 36t34 83t17 84q0 61 -37 131l168 68q49 -101 49 -199q0 -130 -82 -252zM346 -188q51 92 51 190q0 82 -41 150l176 41q50 -65 50 -170q0 -125 -64 -271z" />
<glyph unicode="&#x2022;" horiz-adv-x="1437" d="M2 829q206 -17 453 -20l-37 -158q-105 6 -203 6q-109 0 -205 -8zM129 186q179 153 317 338l132 -114q-146 -131 -304 -344zM287 1255l162 80q80 -168 229 -340l-150 -102q-104 165 -241 362zM690 354l174 45q44 -167 127 -315l-162 -82q-75 208 -139 352zM815 963 q182 137 318 270l122 -131q-171 -119 -307 -264zM940 541l8 180q310 -33 498 -41l-41 -176q-235 34 -465 37z" />
<glyph unicode="&#x2026;" horiz-adv-x="2295" d="M18 125q0 88 50.5 136t138.5 48q54 0 99.5 -46.5t45.5 -117.5q0 -67 -56 -114t-128 -47q-66 0 -108 38t-42 103zM950 125q0 88 50.5 136t138.5 48q54 0 99.5 -46.5t45.5 -117.5q0 -67 -56 -114t-128 -47q-66 0 -108 38t-42 103zM1884 125q0 88 50.5 136t138.5 48 q54 0 99.5 -46.5t45.5 -117.5q0 -67 -56 -114t-128 -47q-66 0 -108 38t-42 103z" />
<glyph unicode="&#x202f;" horiz-adv-x="360" />
<glyph unicode="&#x2039;" horiz-adv-x="548" d="M10 469q197 168 348 356l136 -118q-162 -166 -250 -220q114 -69 252 -200l-121 -131q-201 201 -365 313z" />
<glyph unicode="&#x203a;" horiz-adv-x="628" d="M53 811l123 131q169 -199 442 -358l-2 -47q-273 -154 -395 -371l-153 100q105 160 329 303q-276 170 -344 242z" />
<glyph unicode="&#x205f;" horiz-adv-x="450" />
<glyph unicode="&#x20ac;" horiz-adv-x="827" d="M47 571v193h156q183 391 497 391v-180l-32 2q-91 0 -169.5 -54.5t-117.5 -152.5q219 10 381 14v-180q-230 -8 -297 -8q-23 0 -158 6q-10 -22 -10 -74q0 -15 4 -51l465 49l18 -180l-442 -22q103 -170 268 -170h21q18 0 24 2v-179q-2 -2 -22 -2h-21q-139 0 -260 89.5 t-180 230.5l-80 -8l-22 180l63 6q0 42 10 107z" />
<glyph unicode="&#x2122;" horiz-adv-x="1427" d="M53 883l10 180q117 -6 228 -6q170 0 344 16l-19 -174q-31 4 -184 8q-4 -90 -4 -137q0 -156 14 -311l-180 -8q2 16 2 43v118q0 176 -10 281q-63 -14 -135 -14q-16 0 -66 4zM510 537q141 280 209 559h158l77 -303l68 307q45 0 131 4q101 -274 209 -524q-82 -74 -143 -121 q-47 219 -127 411q-54 -150 -62 -329l-110 -15q-42 197 -117 351q-75 -198 -127 -404z" />
</font>
</defs>
</svg>
