<?xml version="1.0" standalone="no"?>
<!DOCTYPE svg PUBLIC "-//W3C//DTD SVG 1.1//EN" "http://www.w3.org/Graphics/SVG/1.1/DTD/svg11.dtd" >
<svg xmlns="http://www.w3.org/2000/svg">
<metadata></metadata>
<defs>
<font id="mutlu_ornamental" horiz-adv-x="267" >
<font-face units-per-em="1000" ascent="800" descent="-200" />
<missing-glyph horiz-adv-x="235" />
<glyph horiz-adv-x="1000" />
<glyph horiz-adv-x="1000" />
<glyph unicode="&#xd;" horiz-adv-x="235" />
<glyph unicode=" "  horiz-adv-x="235" />
<glyph unicode="&#x09;" horiz-adv-x="235" />
<glyph unicode="&#xa0;" horiz-adv-x="235" />
<glyph unicode="!" horiz-adv-x="235" d="M260 630q0 -19 -21 -73l-137 -353l-5 1l41 209q-28 -61 -117 -124q-49 -33 -147 -100q-169 -120 -169 -248q0 -91 56.5 -147t147.5 -56q48 0 101 44q49 40 69 88q15 37 14 66q-2 35 -16 62q-9 -4 -19 -4q-19 0 -32.5 14t-13.5 33v5q-12 4 -26 4q-3 0 -2 3q0 2 2 2 q14 0 27 -3q9 33 45 33q19 0 32 -13t13 -32t-14 -33q21 -29 23 -70q4 -93 -92 -170q-59 -47 -111 -47q-98 0 -160 61.5t-62 159.5q0 134 179 260q38 25 115 76q167 111 167 213q0 88 -93 145q-2 1 -1 3t3 1q93 -57 99 -139l13 66q14 70 25 85.5t30 15.5q36 0 36 -38z" />
<glyph unicode="&#x22;" horiz-adv-x="344" d="M653 549q0 -121 -131 -218q-3 1 -3 4q129 95 129 214q0 156 -114 237q-101 72 -264 72q-226 0 -348 -137q-91 -103 -91 -190q0 -66 35 -115q39 -55 102 -55q64 0 121 56q51 49 73 115q3 10 22 42q11 19 28 19q24 0 24 -23q0 -10 -17 -38l-99 -164l-6 2l38 120 q-36 -64 -73 -95q-47 -39 -111 -39q-65 0 -106 57q-36 50 -36 118q0 89 92 193q123 139 352 139q166 0 268 -72q115 -83 115 -242zM378 570q0 -10 -17 -38l-99 -164l-6 2l55 166q19 57 43 57t24 -23z" />
<glyph unicode="#" horiz-adv-x="404" d="M784 436q0 -166 -149 -340q-63 -74 -176 -145q-174 -110 -305 -110q-80 0 -160 38t-125 101q-70 98 -70 211q0 72 40 143q39 68 100 112q-18 -6 -37 -6q-63 0 -63 68q0 17 25 67q1 3 3 2t1 -3q-24 -54 -24 -66q0 -63 58 -63q50 0 104 56q16 17 89 115q54 73 95 98 q118 72 226 72q169 0 272 -91q48 -42 74 -119q22 -67 22 -140zM323 410q-35 51 -91 73l-32 -83h119zM359 295q0 48 -23 93h-8l-63 -165h78q16 33 16 72zM777 436q0 70 -22 137q-25 76 -71 117q-100 89 -268 89q-103 0 -222 -72q-50 -30 -107 -112q-65 -93 -99 -121 q80 39 130 39q64 0 107 -14l24 63h13l-26 -67q58 -22 92 -71l53 138h13l-58 -151q4 -5 7 -11h70l-5 -12h-60q18 -41 18 -85q0 -51 -24 -92q-1 -2 -4 0h-78l-66 -175h-12l66 175h-120l-66 -175h-12l66 175h-85l5 12h84l63 165h-84l5 12h84l32 87q-40 13 -102 13 q-31 0 -80 -19q-44 -16 -76 -36q-65 -41 -106 -109q-43 -71 -43 -145q0 -104 70 -202q43 -61 121 -97q75 -35 153 -35q130 0 296 105q108 68 172 143q81 95 110 150q42 80 42 181zM315 388h-119l-63 -165h119z" />
<glyph unicode="$" horiz-adv-x="372" d="M494 588q-2 -2 -4 0q-115 116 -257 116q-79 0 -133.5 -54.5t-54.5 -134.5q0 -78 84 -142q-13 29 -13 64q0 76 52 120.5t128 40.5l21 61h20l-22 -63q92 -17 92 -61q0 -23 -22 -23q-13 0 -26 19q-10 15 -20.5 30.5t-26.5 23.5l-78 -229q74 -72 93 -133q104 -102 104 -233 q0 -55 -27 -115.5t-67 -102.5q-84 -88 -230 -88q-135 0 -232 87q-101 91 -101 224q0 56 23 110q26 59 70 87q60 38 149 34q2 -2 0 -4q-161 5 -213 -119q-21 -50 -21 -108q0 -129 99 -214q95 -81 226 -81q84 0 141 28q102 50 144 163q22 59 22 99q0 118 -81 209q3 -16 3 -32 q0 -36 -15 -71q-44 -101 -174 -101q-13 0 -36 2l-29 -85h-19l29 87q-119 24 -119 72q0 28 27 28q16 0 34 -24l28 -37q13 -18 35 -27l95 279q-37 37 -54 65q-98 73 -98 160q0 82 56 138t137 56q144 0 261 -117q2 -2 0 -4zM295 592q-19 2 -25 2q-45 0 -79.5 -35t-34.5 -80 q0 -50 63 -110zM289 131q0 66 -83 145l-91 -269q23 -3 37 -3q58 0 97.5 35t39.5 92z" />
<glyph unicode="%" horiz-adv-x="501" d="M595 64q0 -89 -46 -140q-31 -35 -79 -35q-123 0 -199 166q-35 74 -35 138q0 16 2 30l-140 -223l-4 2l61 97q-42 -44 -81 -44q-41 0 -68 44q-23 37 -23 81q0 67 26 112q13 23 30 23q20 0 20 -30q0 -2 -10 -42q6 25 6 42q0 23 -14 23q-26 0 -39 -54q-9 -36 -9 -74 q0 -39 21 -72q23 -38 60 -38q5 0 22 7q47 19 83.5 73.5t35.5 104.5q0 21 -17 37t-37 11q-14 -6 -27 -6q-53 0 -53 61q0 62 45 144q51 92 106 92q25 0 40 -18t15 -44q0 -51 -34.5 -120t-74.5 -98q19 -2 32.5 -21t13.5 -38q0 -31 -13 -67l257 410l4 -3l-196 -312 q-28 -45 -31 -83q-5 -73 35 -149v8q0 58 42 138q46 88 99 97q15 9 32 9q39 0 75 -42q27 -32 45 -76q22 -59 22 -121zM251 522q0 57 -38 57q-23 0 -46 -28q-49 -61 -49 -170q0 -66 40 -66q43 0 71 86q22 67 22 121zM577 68q0 53 -19 106q-21 60 -56 91q-25 22 -49 25 q33 -15 33 -58q0 -59 -48 -143q-52 -91 -105 -91q-12 0 -21 4q23 -29 47 -51q50 -45 106 -45q76 0 104 100q8 29 8 62zM450 223q0 50 -30 56q-31 -26 -31 -82q0 -11 1 -21q1 -3 -2 -3q-3 -1 -3 2q-3 14 -3 28q0 49 23 76q-20 -3 -40 -27q-49 -60 -49 -170q0 -66 41 -66 q42 0 71 86q22 66 22 121z" />
<glyph unicode="&#x26;" horiz-adv-x="982" d="M1020 427q0 -88 -75 -148q-70 -55 -160 -55q-22 0 -166 24q-60 10 -81 10q-10 0 -37 -7q62 -22 62 -80q0 -59 -56 -110q-72 -66 -185 -66q-25 0 -47 3q-38 -34 -82 -50q-36 -13 -93 -13q-29 0 -49 5q-75 19 -115 95q-34 65 -34 150q0 87 45.5 162t122.5 117v5 q0 87 58 150t144 63q61 0 89 -31q38 10 83 10t74 -18q35 -22 35 -65q0 -44 -69 -47h-10q-9 -1 -17 0q-7 0 -9 1q1 2 1 4v1l2 -1q23 0 38.5 15t17.5 38q2 27 -22 45q-22 15 -50 15q-27 0 -61 -18q7 -15 7 -35q0 -69 -78 -103q83 -22 90 -85q11 -10 11 -23q0 -26 -27 -42 q-23 -13 -51 -13q-46 0 -82 38q-15 -9 -27 -21q-62 -60 -62 -130q0 -63 43 -110q41 -43 104 -59q61 68 61 150q0 18 -9.5 45t-9.5 25q0 1 1 2q3 1 4 -1q10 -18 16 -36q11 66 70 106q54 37 124 37q37 0 87 -14q78 -22 85 -23q26 -5 36 -5q92 0 134 30q33 24 43 61q1 5 6 4 t4 -6q-11 -41 -49 -67q-34 -24 -79 -28q-33 -3 -59 -3q-36 0 -104 23t-104 23q-69 0 -129 -46q-64 -50 -64 -117q0 -33 19 -65q-2 9 -2 19q0 20 14 43q43 70 191 70q26 0 78 -4t78 -4q95 0 165 30q96 41 96 126q0 45 -30 72.5t-75 27.5q-38 0 -68 -18q-36 -20 -36 -56 q0 -19 12 -33.5t31 -14.5q15 0 32 10v-2l1 -1q-28 -22 -57 -22q-31 0 -51 19.5t-20 50.5q0 46 44 77q40 29 88 29q58 0 101 -38.5t43 -96.5zM376 596q0 18 -7 32q-59 -37 -91 -130q8 -2 17 -3q81 33 81 101zM353 648q-26 21 -81 21q-79 0 -132 -59t-54 -138q58 27 121 30 q14 51 54 90t92 56zM387 413q-10 58 -94 75q-6 1 -21 -6q-6 -22 -6 -40q0 -8 2 -28q37 14 64 13h24q14 -1 31 -14zM387 382q0 32 -44 32q-35 0 -71 -18l-1 -1q31 -45 76 -45q15 0 27.5 9t12.5 23zM219 386q-19 34 -19 66q0 22 5 43q-63 -4 -119 -32q2 -43 26.5 -72t65.5 -30 q19 13 41 25zM544 176q0 25 -17.5 44t-42.5 19q-24 0 -41 -15t-17 -39q0 -13 21 -34q3 -3 2 -8q-2 -34 -34 -34q-16 0 -25 17q-13 16 -20 36q-8 -60 -52 -118q20 -4 40 -4q92 0 151 58q35 35 35 78zM252 2q-71 13 -124 62q-57 54 -57 123q0 93 94 164q-87 12 -94 104 q-73 -42 -114.5 -114t-41.5 -156q0 -79 33 -139q37 -69 108 -87q20 -5 44 -5q50 0 82 10t70 38z" />
<glyph unicode="'" horiz-adv-x="219" d="M242 570q0 -10 -17 -38l-100 -164l-6 2l55 166q19 57 44 57q24 0 24 -23z" />
<glyph unicode="(" horiz-adv-x="344" d="M379 699q-29 -46 -99 -170q-165 -316 -188 -680h-6q-10 73 -10 154q0 219 71 383q69 160 227 317z" />
<glyph unicode=")" horiz-adv-x="281" d="M270 548q0 -218 -71 -382q-69 -160 -227 -316l-5 5q57 90 99 170q75 140 128 331q51 183 59 349h7q10 -73 10 -157z" />
<glyph unicode="*" horiz-adv-x="363" d="M326 645q0 -10 -25 -46q-27 -40 -32 -52q5 24 5 41q0 7 -1.5 22t-1.5 22q0 37 26 37q29 0 29 -24z" />
<glyph unicode="+" horiz-adv-x="369" d="M374 307l-4 -14h-145l-23 -73l-24 -76h-15l10 32q-70 -83 -177 -83q-74 0 -133 48q-64 51 -64 123q0 56 53 96q48 37 106 37q37 0 96 -30q2 -1 1 -3t-3 -1q-58 29 -94 29q-54 0 -100 -36q-49 -39 -49 -92q0 -67 61 -114q57 -43 126 -43q64 0 117.5 36.5t79.5 95.5 q5 16 14 54h-143l5 14h145l47 149h15l-47 -149h145z" />
<glyph unicode="," horiz-adv-x="200" d="M94 34q0 -43 -34 -86t-76 -60q-10 -3 -36 -11v3q82 30 117 116q-15 -2 -20 -2q-18 0 -31 13.5t-13 31.5q0 20 13 33t33 13q21 0 34 -15t13 -36z" />
<glyph unicode="-" d="M396 291q0 -81 -61.5 -146.5t-141.5 -65.5q-59 0 -99 31q-64 50 -73 125h-13l13 33q9 81 65 99q-51 -30 -60 -87h201l-17 -45h-184q5 -43 36.5 -83t71.5 -55q24 -9 59 -9q70 0 129.5 66t59.5 137q0 77 -38 130q-42 60 -116 60q-39 0 -72 -23q-37 -26 -37 -63 q0 -42 41 -59q0 -2 -1 -3q-50 13 -50 56q0 47 34 75q31 26 79 26q77 0 127 -62q47 -59 47 -137z" />
<glyph unicode="." horiz-adv-x="120" d="M90 47q0 -19 -13 -32.5t-32 -13.5t-32.5 13.5t-13.5 32.5t13.5 32t32.5 13q20 0 32.5 -12.5t12.5 -32.5z" />
<glyph unicode="/" horiz-adv-x="395" d="M435 662l-466 -743l-9 5l466 743z" />
<glyph unicode="0" horiz-adv-x="387" d="M493 380q0 -171 -140 -296q-125 -112 -242 -112q-107 0 -182.5 81t-75.5 189q0 168 149 256q58 34 121 41q-65 -13 -117 -47q-148 -96 -148 -250q0 -105 77.5 -180t182.5 -75q112 0 229 106q130 118 130 285q0 53 -35.5 90.5t-88.5 37.5q-99 0 -206 -89q-16 -13 -39 -41 q34 34 60 36q39 25 87 25q52 0 82 -34.5t30 -87.5q0 -72 -40 -155t-96 -129q-48 -40 -105 -40q-51 0 -80.5 30.5t-29.5 81.5q0 78 44 170q11 94 92 166q95 84 208 84q59 0 96 -41.5t37 -101.5zM305 271q0 140 -95 140q-52 0 -88 -41t-36 -93q0 -62 66 -62q46 0 79 38 q22 26 22 49q0 40 -65 36q33 10 61 -8q16 -10 16 -27q0 -28 -34 -59q-30 -28 -60 -38q-24 -8 -46 -8q-34 0 -51 18q-1 -18 -1 -38q0 -153 102 -153q130 0 130 246z" />
<glyph unicode="1" horiz-adv-x="278" d="M472 65q0 -61 -32 -113.5t-87 -80.5q-66 -34 -153 -34q-65 0 -112 46.5t-47 111.5v5h-51q-47 -11 -47 35q0 28 29 46q25 17 54 17q25 0 43 -13q7 18 20 55l46 136q8 24 29 85q2 3 2 5q0 3 -6 3q-8 -2 -74 -24q-48 -16 -77 -16q-21 0 -37 6q-38 14 -33 49q5 34 47 56 q16 8 32 11q4 1 28 5q76 4 152 -47q28 16 51 32q2 -2 5 -4q-9 -23 -20 -56q28 -26 49 -62q-2 -3 -5 -3q-19 34 -46 58l-45 -137q49 40 107 40q143 0 174 -175q4 -23 4 -37zM191 405q-89 54 -172 40q-10 -2 -30 -12q-38 -20 -43 -51q-7 -47 64 -47q59 0 181 70zM461 74 q0 81 -42 137q-46 62 -125 62q-59 0 -109 -43q-11 -29 -46 -133q-15 -44 -15 -57q0 -10 17 -16q9 -2 35 -8q41 -9 41 -40q0 -19 -17 -31.5t-37 -11.5q-26 2 -44 34q-10 18 -12 33h-52v-5q0 -58 43 -98.5t102 -40.5q155 0 228 109q33 50 33 109zM208 -22q-2 22 -53 22h-40 q2 -13 11 -29q16 -29 44 -29q16 0 27.5 10t10.5 26zM67 79q-21 16 -48 16q-21 0 -35 -13q-22 -21 -22 -40q0 -30 34 -30q40 0 57 37l5 11q3 5 9 19z" />
<glyph unicode="2" horiz-adv-x="375" d="M528 126q-47 -64 -113 -110q-78 -54 -146 -54q-30 0 -60 9q-38 10 -51 29h-184q23 68 129 148q1 25 6 45q-6 -1 -13 -1q-26 0 -41 19.5t-15 46.5q0 74 85 133q-44 53 -105 53q-88 0 -107 -95q-1 -6 -6 -35q0 55 29 93q32 42 85 42q64 0 110 -56q57 41 120 41q42 0 76 -25 q38 -27 38 -68t-32 -71q-21 -20 -69 -44q43 -47 43 -94q0 -27 -15 -67q-9 -21 -26 -65h-65q37 -23 89 -23q60 0 127 46q57 39 99 96zM292 332q0 35 -22 59t-57 24q-39 0 -78 -27q30 -41 30 -100q0 -12 -1 -24q10 4 21 4q29 0 57 -22q50 39 50 86zM159 289q0 58 -28 96 q-32 -20 -55 -51q-30 -40 -30 -80q0 -56 52 -56q6 0 12 1q14 47 47 63q2 13 2 27zM236 241q-25 16 -49 16q-14 0 -26 -5q-10 -43 -44 -56q-5 -19 -6 -42q42 28 125 87zM154 248q-27 -17 -35 -46q24 9 35 46zM296 131q0 55 -38 92q-50 -24 -147 -77q-1 -43 20 -78 q17 0 51.5 -1t51.5 -1q62 0 62 65zM116 68q-17 30 -14 72q-28 -23 -80 -74h56q6 0 19 1t19 1z" />
<glyph unicode="3" horiz-adv-x="402" d="M351 343q0 -47 -46 -94q-24 -25 -85 -69q85 -45 85 -127q0 -91 -81 -159q-77 -64 -170 -64q-40 0 -72 12q-44 17 -44 49q0 19 22 25q-32 21 -32 84q0 44 30 78.5t74 34.5q54 0 77 -58q30 -7 49 -32q-15 10 -47 26q7 -20 7 -37q0 -24 -15 -48q-25 -40 -63 -40q-14 0 -28 9 q-28 18 -28 50q0 18 9 32q27 43 88 43q11 0 21 -2q-23 53 -74 53q-47 0 -77 -47q-16 -25 -16 -52q0 -62 73 -107q9 -6 33 -37q17 -22 40 -22q63 0 109 62q43 57 43 122q0 41 -20 72q-23 37 -62 37q-20 0 -69 -15v5l17 7q-34 1 -57 24t-23 57q0 70 81 145t151 75 q42 0 71 -25.5t29 -66.5zM283 319q0 34 -22 59.5t-55 25.5q-53 0 -117.5 -68.5t-64.5 -121.5q0 -34 23.5 -54.5t57.5 -19.5q18 1 57 24q35 21 50 37q18 20 18 51q0 62 -58 62q-40 0 -60 -35l-10 -6q26 47 74 47q29 0 46.5 -19t17.5 -48q0 -20 -9 -40q52 49 52 106zM113 13 q0 17 -8 38q-11 3 -23 3q-55 0 -81 -42q-8 -13 -8 -28q0 -19 13.5 -36t31.5 -17q37 0 62 40q13 21 13 42z" />
<glyph unicode="4" horiz-adv-x="387" d="M531 390q0 -70 -67 -163q-7 -9 -26 -33q-4 -8 -11 -25q-40 -71 -114 -113q-10 -23 -15 -38h-75q-5 -15 -59 -170h-37q-14 0 -30 -1q-33 -32 -87 -56q-57 -25 -101 -25q-112 0 -112 107l6 4q0 -55 22.5 -79t77.5 -24q54 0 108.5 24.5t89.5 64.5q19 52 55 155h-202l17 44 l328 365q11 35 47.5 63.5t72.5 28.5q76 0 104 -82q8 -23 8 -47zM511 381q0 25 -7 50q-23 81 -88 81q-30 0 -58 -22.5t-38 -52.5h12q8 1 13 1q4 0 12 -1h13l-21 -61h6q42 0 71 -39q25 -36 25 -80q0 -22 -7 -46q67 88 67 170zM436 253q0 40 -25 74q-27 38 -65 40l-105 -305h27 q30 14 83 55.5t69 65.5t16 70zM412 166q-61 -63 -134 -104h37q65 46 97 104zM285 398l-299 -337h184q2 4 4 10z" />
<glyph unicode="5" horiz-adv-x="369" d="M367 435q-2 -4 -3 -9l-5 -15q-4 -11 -12 -34t-12 -35h-1q-16 -36 -56.5 -62t-79.5 -26q-27 0 -33 19q-4 14 -6 22l4 3l2 -3q10 -15 39 -21q10 -2 21 -2q63 0 101 70q-48 1 -65 0q-2 -1 -35 -1h-23q-21 1 -33 1h-58q-13 -34 -38 -103q11 1 22 1q82 0 123 -58 q74 -33 74 -129q0 -47 -24 -93q-68 -130 -212 -130q-94 0 -140 78q-29 49 -29 109q0 80 48 143t125 77l61 163q54 3 95 3h93q34 0 42 17q2 3 7 16q3 0 8 -1zM202 188q-40 46 -111 46q-9 0 -19 -1q-19 -54 -20 -62q58 24 103 24q25 0 47 -7zM222 41q-51 -78 -146 -78t-141 80 l1 6q41 -71 142 -71q48 0 90 25q50 29 50 73q0 26 -35.5 48t-63.5 22q-41 0 -91 -18q-1 0 -5 5q2 8 36 99q-74 -14 -119.5 -76.5t-45.5 -139.5q0 -80 42 -127v7q0 27 26 27q17 0 39 -24l35 -38q23 -19 47 -19q50 0 88 49q54 69 51 150z" />
<glyph unicode="6" horiz-adv-x="366" d="M593 494q0 -18 -7 -36q-24 -61 -81 -102.5t-123 -46.5q-24 -2 -43 1q7 -17 7 -37q0 -87 -68 -182q-73 -101 -156 -101q-50 0 -77 56q-21 45 -21 101q0 173 155 311q-3 17 -3 39q0 18 2 39l7 4q-1 -11 -1 -21q0 -27 7 -51q52 45 80 64q100 69 193 69q82 0 114 -56 q15 -26 15 -51zM579 499q0 43 -36 71t-80 28q-33 0 -61 -15q-106 -57 -189 -164q14 -21 47 -46q40 -7 64 -36q38 -14 81 -11q117 9 164 127q10 25 10 46zM221 375q-10 11 -20 28q-16 -21 -30 -44q32 13 50 16zM284 294q0 68 -63 68q-42 0 -81 -71q-11 -38 -10 -65 q0 -19 9 -36q11 -20 29 -20q15 0 27.5 14t12.5 29q0 6 -2 11q-6 9 -19 15q4 2 8 2q11 0 21 -14q7 -10 1 -33q-10 -37 -54 -37q-48 0 -49 63q-1 7 0 15q-38 -94 -38 -151q0 -30 11 -53q14 -30 40 -30q51 0 107 124q50 110 50 169z" />
<glyph unicode="7" horiz-adv-x="316" d="M369 298q-35 -25 -69 -50q-41 -28 -74 -43q-26 -52 -49 -106q11 -3 22 -3q46 0 58 45l12 7q-8 -31 -37.5 -50t-62.5 -18q-29 -70 -54 -158q-27 -92 -66 -92q-35 0 -35 37q0 15 19 61q30 73 92 168q-27 19 -49 19q-19 0 -31 -15l-13 -8q27 35 69 35q19 0 39 -8l48 71 q-32 -9 -63 -9q-29 0 -55 6q-63 15 -70 81q-4 46 38 86q18 17 25.5 46t16.5 41t39 37q33 20 70 20q55 0 81 -43q15 -25 14 -53h57q3 0 9 1q-15 -20 -29 -40q-54 -79 -91 -151q46 20 137 89zM279 402q1 28 -13 51q-23 38 -75 38q-26 0 -62 -21q-41 -23 -35 -47q5 -20 28 -20z M290 343q-16 -1 -32 -1q-53 -61 -139 -61l10 6q73 0 122 54h-23q-19 1 -28 1h-49h-37q-41 0 -47 -1q-42 -7 -42 -59q0 -67 60 -81t109 -2z" />
<glyph unicode="8" horiz-adv-x="389" d="M426 303q0 -74 -78 -137v-8q0 -73 -54.5 -121.5t-128.5 -48.5q-66 0 -113 36q-52 39 -52 103q0 82 105 137l81 42q-5 11 -11 22l-31 54q-11 25 -11 62q0 63 47 107t111 44q51 0 88 -28q41 -31 41 -80q0 -88 -156 -158q75 -87 83 -154q73 67 73 141q0 23 -9 43 q15 -14 15 -56zM373 492q0 39 -25.5 65t-64.5 26q-36 0 -63.5 -23t-34.5 -59q30 35 71 35q26 0 47 -17.5t21 -42.5q0 -19 -16.5 -37t-35.5 -18q-14 0 -15 1q1 0 18 1.5t31 18.5t14 33q0 23 -18.5 38t-42.5 15q-51 0 -76 -38v-9q0 -43 24 -80q5 -7 52 -67q114 59 114 158z M289 133q-6 43 -32 81q-17 24 -51 71l-7 10l-5 3q-24 -9 -37 -50q-10 -31 -10 -65q0 -32 21.5 -51t53.5 -19q19 0 67 20zM290 115q0 6 -1 13q-50 -29 -88 -29q-36 0 -61 21.5t-25 57.5q0 49 46 105q-98 -55 -98 -151q0 -52 32 -92q34 -43 85 -43q47 0 78.5 35t31.5 83z" />
<glyph unicode="9" horiz-adv-x="373" d="M344 292q0 -160 -104 -286q-99 -119 -257 -168q-42 -13 -75 -13q-77 0 -110 57q-22 38 -22 84q0 99 82 148l5 3q30 18 63 18q29 0 45 -21t16 -51q0 -51 -50 -79l-4 -3l-2 4q51 29 51 79q0 28 -15.5 47t-42.5 19q-31 0 -62 -18q-69 -41 -69 -126q0 -49 25 -92 q35 -60 104 -60q22 0 47 5l-1 1q151 79 232 233q-47 -19 -76 -19q-42 0 -71 26.5t-29 68.5q0 75 48 155.5t114 115.5q29 15 55 15q103 0 103 -143zM294 362q0 64 -49 64q-31 0 -60 -36q-39 -48 -65 -116q-27 -71 -27 -130q0 -73 58 -73q56 0 100 108q-14 -17 -20 -23 q-13 -13 -25 -18q-17 -7 -43 -7q-19 0 -31 17t-12 37q0 38 36 82q31 39 69 60q2 -3 1 -4q-32 -18 -53 -49q-24 -34 -24 -68q0 -39 25 -48q9 -3 17 -3q47 0 85 96q18 69 18 111z" />
<glyph unicode=":" horiz-adv-x="201" d="M212 400q0 -16 -7 -27q-1 -18 -14 -30.5t-31 -12.5q-20 0 -33.5 14t-13.5 34q0 19 14 31.5t34 12.5q27 0 39 -24q-3 24 -23 40.5t-44 16.5q-56 0 -95 -56q-35 -51 -35 -110q0 -51 29 -88q31 -40 81 -40q15 0 30 3q-12 22 -38 39l6 4q23 -15 37 -42q18 4 32 9 q-9 -3 -30 -13q10 -22 10 -48q0 -67 -49.5 -121t-115.5 -54q-59 0 -97 36.5t-38 95.5q0 51 29 89.5t79 38.5q54 0 91 -39.5t37 -94.5q0 -14 -6 -23q-7 -40 -45 -40q-18 0 -32 14t-14 32q0 19 13.5 32t32.5 13q21 0 35 -15q-6 47 -40 78.5t-81 31.5q-44 0 -69.5 -34 t-25.5 -79q0 -59 36.5 -95t95.5 -36q64 0 111 52.5t47 117.5q0 25 -9 46q-24 -8 -42 -8q-48 0 -79 44q-29 40 -29 89q0 64 39 118q42 60 104 60q27 0 50.5 -18t23.5 -44z" />
<glyph unicode=";" horiz-adv-x="199" d="M204 376q0 -19 -12.5 -32.5t-31.5 -13.5t-33 13.5t-14 32.5q0 20 13.5 32.5t33.5 12.5q19 0 31.5 -13t12.5 -32zM180 282q-68 -17 -71 -18q-41 -18 -81 -79q49 -11 49 -60q0 -30 -21 -40q38 -7 38 -52q0 -43 -34 -85.5t-76 -59.5q-10 -3 -36 -11v3q82 30 115 115h-20 q-7 -20 -26.5 -35.5t-39.5 -15.5q-35 0 -55 38q-17 32 -17 70q0 50 33 93q36 48 84 41q25 46 65 72q44 27 93 24zM71 127q0 39 -47 49q-8 -20 -8 -47q0 -42 20 -45q6 1 11 1q24 9 24 42zM36 -4q-35 8 -35 43q0 30 26 42q-17 11 -17 50q0 27 8 47h-10q-44 0 -72 -43 q-25 -38 -25 -84q0 -38 15 -66q18 -34 53 -34q38 0 57 45z" />
<glyph unicode="&#x3c;" horiz-adv-x="466" d="M492 258q0 -50 -19 -88q-6 -12 -18 -37q-4 -10 -5 -28q0 -10 4 -28l-104 68l-302 195v4l105 67q-3 40 16 71l10 7q-19 -33 -16 -72l288 186q12 -56 30 -169q2 -22 -18 -74q29 -43 29 -102zM453 499q-1 26 -4 77l-282 -184q9 -35 30 -67q37 -27 86 -58q17 -4 34 -4 q34 0 65 14q44 32 61 101q-42 47 -87 47q-31 0 -55 -25l-15 -9q19 21 31 27l4 3q17 10 37 10q44 0 87 -47q12 53 8 115zM480 283q0 42 -19 72q-15 -37 -36 -55q-11 -10 -27 -19l-26 -15q-28 -16 -58 -19q45 -28 136 -86l1 1q29 58 29 121zM169 346q-9 19 -13 39l-21 -14z " />
<glyph unicode="=" horiz-adv-x="362" d="M436 390q4 -16 -42 -35q-13 -5 -68 -8q-20 -1 -53 0q-12 -33 -42 -97q80 -1 126 2l-4 -12q-84 -4 -132 -4q-24 -32 -52 -46l-8 -4q-76 -38 -133 -36q-19 1 -56 29l6 3q27 -21 58 -22q68 -3 127 31q29 17 51 45q1 0 -73 4q-40 2 -72 -4q-14 -8 -44 -19q-7 -1 -20 2.5 t-16.5 9.5t-3.5 12q0 13 18 23l13 7q30 16 65 23l87 17q19 4 59 18q14 8 23 19q-42 2 -60 2h-107l4 13h18q24 1 18 1h136q2 9 -2 18q-14 22 -53 22q-38 0 -87 -20l-27 -11l29 17q44 20 87 20q25 0 43 -10q22 -13 16 -36h10q8 11 13 15q12 14 23 20l9 5q34 19 70 13 q9 -1 22 -4q24 -8 24 -23zM412 380q-1 3 -1 5q-10 13 -39 18q-33 6 -54 -6t-36 -33h88q7 0 36 5q6 8 6 11zM266 347l-9 1q-12 -15 -25 -21l-6 -3q-23 -11 -60 -19q-23 -5 -87 -17q-34 -6 -67 -24q-13 -7 -5 -23q6 -11 17 -9q4 2 29 8l7 1q63 9 104 9h59q13 34 43 97z" />
<glyph unicode="&#x3e;" horiz-adv-x="419" d="M457 332q-108 -63 -214 -130q1 -9 1 -18q0 -84 -71 -124l-4 -3l-12 -6l-2 3l4 3q38 17 58.5 56.5t15.5 81.5q-90 -57 -164 -109q-12 -8 -25 -11q-8 -1 -16 -1q-90 0 -90 100q0 31 15 60q-35 23 -35 80q0 34 19 67q10 17 26 34q24 25 28 30q19 22 38 45q21 27 29 50v21 q0 23 -2 40q40 -28 193 -132q66 -45 208 -136v-1zM370 304q-54 41 -109 79q-34 23 -196 127q-3 -8 -21 -27l-25 -26q-14 -15 -42 -56q-32 -58 -32 -98q0 -32 19 -51q49 73 125 73q22 0 48 -6q84 -19 103 -101q40 27 130 86zM230 211q-9 36 -35 65t-60 37q-27 6 -49 6 q-50 0 -84 -31q-20 -18 -33 -41q21 -16 50 -16q18 0 32 6q18 13 18 30l6 4q0 -24 -18 -35l-8 -5q-18 -11 -45 -11q-24 0 -43 9q-9 -23 -9 -51q0 -22 22 -46q28 -31 65 -31q20 0 36 10q52 33 155 100z" />
<glyph unicode="?" horiz-adv-x="369" d="M408 537q0 -59 -43 -108q-27 -31 -92 -76q-55 -38 -102 -76q-22 -18 -37 -44q18 -11 35 -45q12 -23 4 -57v-2q8 -2 16 -2q20 0 35.5 13t15.5 33q0 17 -19 38q-1 -38 -22 -38t-21 22q0 15 9 20q4 7 20 7q41 0 41 -43q0 -26 -19.5 -42.5t-45.5 -16.5q-6 0 -12 1 q-6 -24 -29 -40q22 -13 22 -40q0 -19 -13 -32.5t-32 -13.5q-72 0 -112 61q-23 35 -23 73q0 39 28 73q-4 41 14 75q30 56 135 118l5 2q23 12 80 43q70 39 70 116q0 38 -20 69.5t-56 42.5q-42 -2 -69.5 -28t-27.5 -67q0 -29 16.5 -51t44.5 -22q11 0 30 11q-36 20 -36 46 q0 35 34 35q24 0 34 -23q12 -18 12 -38q0 -45 -58 -84l-9 -6q-25 -17 -59 -17q-40 0 -67.5 32t-27.5 72q0 43 32 90q18 27 41 38l4 2q40 20 73 20q14 0 27 -3q15 3 31 3q60 0 101.5 -40.5t41.5 -100.5zM271 533q0 7 -1 13q-2 -24 -23 -37.5t-46 -13.5q-31 0 -49 22.5 t-18 54.5q0 75 86 100q-10 1 -20 1q-67 0 -105 -55q-26 -38 -26 -79q0 -30 15 -56v-1q10 -18 14 -21q18 -27 64 -27q29 0 51 13q58 34 58 86zM358 551q0 42 -29 76t-71 40q63 -32 63 -112q0 -74 -71 -117l-5 -3q-26 -12 -90 -48q-129 -78 -135 -175q32 32 71 34q9 47 49 83 q13 12 104 76q56 39 76 61q38 40 38 85zM167 134q3 15 3 26q0 21 -10 34t-33 23q-4 -12 -4 -23q0 -49 43 -63zM164 122q-33 8 -54 36t-21 62q-36 -6 -64 -41.5t-28 -72.5q0 -19 10 -41q19 -41 83 -59q-17 15 -17 36q0 17 13 30q-20 5 -26 18l-4 8q-9 19 5 35.5t35 16.5 q15 0 27.5 -11t12.5 -25q0 -23 -27 -23h-10q3 0 23 9q9 6 9 15q0 27 -31 27q-24 0 -35 -22q-8 -15 2 -26.5t27 -14.5q11 7 26 7q8 0 15 -2v0q23 14 29 38z" />
<glyph unicode="@" horiz-adv-x="720" d="M730 426q0 -111 -84.5 -194.5t-195.5 -83.5q-58 0 -58 37q0 17 7 42q-9 5 -17 10q-62 -88 -116 -88q-49 0 -49 52q0 68 71 171q0 6 2.5 17.5t2.5 16.5q3 71 48 126q-100 -22 -148 -115q-32 -60 -32 -124q0 -126 125 -185q65 -31 140 -31q106 0 159 63l13 8 q-25 -31 -51 -46l-5 -2q-49 -29 -118 -29q-72 0 -137 30q-72 33 -105 90q-26 45 -26 103q0 64 30.5 123t83.5 91l5 3q30 18 71 27q19 21 44 36l5 3q50 30 114 30q75 0 116 -48q25 -29 25 -80q0 -83 -49 -111l-14 -8q-14 -8 -32 -8q-38 0 -45 30q-29 -65 -36 -81 q-21 -52 -26 -82q21 -6 43 -6q57 0 104 35l4 3l2 -3q-6 -5 -19 -13l-5 -3q-45 -27 -94 -27q-19 0 -37 4v-9q0 -36 39 -36q58 0 114 47q51 43 78 100q23 50 23 102q0 114 -69 180t-184 66q-150 0 -246 -100.5t-96 -251.5q0 -135 81 -218t215 -83q101 0 197 60q2 -1 5 -8 q-98 -63 -218 -63q-138 0 -224.5 85t-86.5 223q0 158 108 263t266 105q116 0 196 -63q86 -69 86 -182zM641 488q0 44 -18 65q-42 49 -117 49q-95 0 -152 -63q16 3 30 3q45 0 73 -24q4 1 8 1q16 0 36 -17l12 13l57 1q-14 -16 -22 -36q-18 -44 -18 -60q0 -20 25 -49 q5 -7 14 -7q12 0 23 4q49 37 49 120zM484 483v6q0 20 -17 21q10 -11 17 -27zM450 517q-27 20 -67 20q-17 0 -34 -4q-46 -55 -50 -127q0 -6 2 -15q82 112 149 126zM483 474q-8 21 -23 35q-29 -7 -77 -75q-38 -54 -65 -110q19 -39 64 -72q7 10 16 24q21 34 48 93q31 70 37 105 zM416 290q-14 -24 -27 -43q6 -4 13 -8q1 6 14 51zM375 242q-43 30 -65 66q-30 -67 -30 -104q0 -28 20 -28q27 0 73 64z" />
<glyph unicode="A" horiz-adv-x="1033" d="M1199 545q0 -47 -19 -97q-20 -54 -50.5 -82.5t-60.5 -43.5q35 -47 35 -107q0 -21 -6 -51q-15 -77 -99 -127q-72 -43 -144 -43q-4 0 -11.5 1.5t-11.5 1.5q-9 1 -16 2q-24 4 -34 3q-27 -2 -88 -2q-4 0 -12 -1h-13q-78 0 -122 14q-59 19 -99 53q-19 -30 -68 -75 q-18 -17 -51 -41q-26 -14 -68 -26q20 7 64 28q23 14 49 39q47 44 69 78l-8 8q-94 -80 -209 -80q-90 0 -159 52q-74 57 -74 145q0 40 18 69q20 34 56 42q77 171 223 183q13 1 34 1q118 0 180 -87q36 -50 39 -102q2 -27 -4 -54l141 176q82 97 157 163q5 16 29.5 39.5 t41.5 30.5q-35 -20 -58 -58q106 88 205 88q144 0 144 -140zM1185 541q0 49 -22 84q-25 41 -71 46q-62 -5 -100 -105l-67 -174q85 2 142 -67q63 33 97 114q21 52 21 102zM969 664q-58 -22 -132 -94q-15 -37 -15 -78q0 -52 22 -96q37 98 54 138q33 75 71 130zM1062 323 q-55 65 -139 63l-20 -53q48 -30 98 -27q30 2 61 17zM841 386q-27 46 -27 103q0 37 12 70q-60 -60 -116 -136l-63 -86q80 0 125 -3q14 -1 26 1q8 8 31 23q4 9 12 28zM827 352q-8 -5 -21 -16l13 2q4 5 8 14zM1094 226q0 57 -29 94q-33 -18 -67 -20q-53 -3 -99 24l-80 -210 q-19 -50 -19 -67q0 -41 76 -44q69 5 128.5 47t78.5 105q11 37 11 71zM807 298q-15 0 -37 3q-61 -73 -56 -169q-3 14 -3 28q0 78 54 142q-29 5 -41 5q-47 0 -96 -2q-86 -117 -140 -176q-10 -17 -34 -55q86 -64 178 -58q15 1 47 11q17 10 42 56q6 10 28 69q8 22 58 146z M511 286q-5 58 -34 101q-66 99 -189 93q-149 -8 -201 -173h2q36 0 64 -25.5t28 -61.5q0 -19 -10 -34t-28 -15q-17 0 -23 18q-2 5 2.5 16.5t4.5 15.5q0 20 -14 35.5t-34 19.5q-3 -18 -3 -36q0 -55 28 -104q2 -3 14 -19q57 -74 162 -74q24 0 46 5q43 19 84 55q-20 23 -37 52 q-38 66 -38 103q0 41 39 59q-30 -23 -30 -62q0 -40 33 -97q15 -26 38 -50q41 38 89 95q11 44 7 83zM463 103q-10 -11 -21 -20l7 -5q8 13 14 25zM268 29q-16 -2 -32 -2q-87 0 -139 41q-56 45 -56 129q0 38 14 79q-27 -5 -41.5 -29t-14.5 -53q0 -77 72 -127q64 -44 144 -44 q26 0 53 6z" />
<glyph unicode="B" horiz-adv-x="688" d="M761 70q0 -116 -87 -192q-20 -17 -48 -33q56 39 88.5 103.5t32.5 134.5q0 78 -41 141q-68 105 -218 126l-7 1q165 -57 165 -170q0 -61 -45 -106q-40 -40 -103 -56q-32 -8 -116 -17q-19 -2 -102 -2q-23 0 -70 3t-70 3q-15 0 -45 -2q-6 0 -21.5 -2.5t-24.5 -2.5 q-80 0 -136 97q-31 54 -31 119q0 122 97 227q0 52 29 100.5t75 74.5q73 41 143 53q46 8 161 8q228 0 286 -109q14 -26 14 -56q0 -127 -214 -154q172 -24 240 -130q48 -74 48 -159zM616 533q0 48 -32 81t-80 33q-34 0 -49 -39l-27 -70q15 -36 15 -72q0 -54 -32 -101 q205 7 205 168zM436 472q0 30 -11 59l-63 -166h38q36 51 36 107zM349 670q-17 2 -35 2q-120 0 -217 -56q-87 -50 -91 -147q12 15 41 42q15 42 54 76q84 74 248 83zM393 355q-21 -2 -38 -7l-16 -43q31 21 54 50zM372 616q0 34 -63 34q-92 0 -168 -44q-61 -35 -82 -87 q57 44 136 44q92 0 117 -45q-48 38 -112 38q-82 0 -145 -47q-5 -17 -5 -35q0 -30 15 -52q17 -26 46 -26q16 0 30.5 11t14.5 27q0 4 -3 10.5t-3 9.5q0 8 10 13t18 5q31 0 31 -32q0 -28 -24 -45.5t-53 -17.5q-39 0 -65.5 25.5t-26.5 64.5q0 15 3 29q-7 -5 -37 -38 q0 -48 34 -97q64 -92 186 -92q8 0 17 1l100 260q29 75 29 86zM570 195q0 70 -50 114q-46 41 -117 46q-26 -34 -66 -57l-1 -1l-87 -227q-8 -21 -8 -27q0 -17 45 -26q30 -6 63 -6q85 0 150 48q71 53 71 136zM238 258q-14 -3 -28 -3q-85 0 -150 44q-71 49 -80 130 q-71 -90 -71 -192q0 -66 33 -124q53 -94 135 -94q31 0 51 9q31 22 62 104z" />
<glyph unicode="C" horiz-adv-x="697" d="M799 645q0 -23 -21 -60q-29 -51 -33 -61q-5 -32 -29 -100q-48 -94 -135 -120q22 -47 22 -106q0 -103 -82 -192q-78 -84 -182 -108q-33 -8 -58 -9q-112 -6 -192 53q-86 64 -86 174q0 201 158 368q155 164 356 186q58 57 158 60q81 2 114 -50q10 -16 10 -35zM783 647 q0 35 -52 58q-37 16 -65 15q-92 -2 -139 -49q19 1 38 1q92 0 165 -51q15 -11 26 -10q27 1 27 36zM591 263q-6 20 -15 40q-7 -2 -10 -3q15 -16 25 -37zM572 311q-55 104 -153 111q-1 -9 -1 -17q0 -39 27 -70q12 2 25 2q53 0 88 -30zM541 304q-28 21 -69 21q-8 0 -16 -1 q26 -21 66 -21q9 0 19 1zM714 503q0 49 -25 88q-10 16 -20 25q-46 44 -116 44q-18 0 -37 -2q-15 -21 -15 -49q0 -25 13 -49q23 -42 80 -42q41 0 77 21q-33 -28 -79 -28q-60 0 -86 45q-15 26 -15 53q0 28 15 48q-120 -20 -239 -153q-102 -115 -151 -247q-32 -87 -32 -158 q0 -85 52 -140.5t136 -55.5q123 0 218 88t95 210q0 60 -34 94q-16 -4 -31 -4q-44 0 -72 32q-40 -8 -67 -35q-28 -30 -28 -69q0 -33 23 -33q3 0 10 3t10 2q14 -4 14 -19q0 -42 -47 -42q-24 0 -40 18.5t-16 43.5q0 38 26 74q42 57 106 68q-31 43 -26 88q-71 2 -129.5 -49.5 t-70.5 -122.5q-7 -43 6 -85q14 -46 47.5 -71t83.5 -25q85 0 130 61q-51 -70 -139 -70q-72 0 -112 63q-27 43 -27 95q0 83 64 146.5t148 62.5q9 55 59 84l2 -3q-47 -36 -55 -81q102 -6 157 -115q43 15 76 49q61 62 61 142z" />
<glyph unicode="D" horiz-adv-x="844" d="M840 377q0 -131 -93 -243q-64 -77 -150 -109q-72 -27 -185 -30q-27 -1 -76 3q-54 3 -77 3q-73 0 -127 -11q-35 -11 -93 -25q-21 -3 -40 -3q-36 0 -75 14q-48 17 -89 88q-27 47 -27 100q0 118 96 208q18 118 155 197q51 30 126 54q120 39 246 39q308 0 389 -191 q20 -47 20 -94zM761 398q0 100 -55 166q-59 69 -157 69q-56 0 -78 -57l-134 -349q8 4 33 19q85 53 148 122q79 86 83 161l30 17q-5 -85 -88 -176q-67 -73 -151 -122q-17 -9 -60 -34l-53 -138q-9 -23 -9 -38q0 -25 49 -30h65q92 0 150 22q67 25 122 90q105 124 105 278z M393 600q0 40 -81 40q-17 0 -45 -6q-68 -15 -88 -22q-43 -16 -79 -58q-37 -45 -37 -89q0 -5 1 -9q19 3 38 3q52 0 95 -22q59 -30 59 -87q0 -14 -4 -29q0 44 -10 61q-27 46 -100 63q12 -11 12 -26q0 -20 -16 -35t-36 -15q-28 0 -46 24q-15 20 -17 50q-33 -5 -85 -40 q-5 -26 -5 -45q0 -87 67 -129q54 -34 147 -34q41 0 82 7l139 362q9 23 9 36zM142 600q-162 -58 -187 -191q41 30 84 40q1 43 34 87q28 38 69 64zM123 449q-12 2 -26 2q-15 0 -31 -3q6 -18 26 -18q15 0 31 19zM238 181q-56 -14 -112 -14q-152 0 -200 84q-21 36 -23 80 q-1 18 0 27q-65 -76 -65 -170q0 -57 29 -107q38 -66 87 -83q39 -14 76 -14q52 0 88 18q46 30 79 79q16 34 41 100z" />
<glyph unicode="E" horiz-adv-x="558" d="M613 559q0 -69 -55 -117.5t-125 -48.5q-18 0 -34 4q16 -17 47 -60q32 -57 32 -108q0 -17 -2 -34q-11 -97 -106 -163q37 11 68 28q91 49 141 132l10 7q-55 -95 -146 -152q-113 -71 -194 -71q-80 0 -139 34q-111 63 -134 172q-6 28 -6 55q0 45 16 84q-65 3 -100 66 q-18 32 -18 68q0 69 56.5 126.5t125.5 57.5q36 0 65 -20q-33 11 -61 11q-43 0 -86 -25t-69 -62q-27 -41 -27 -86q0 -36 18 -68q29 -52 102 -55q45 94 170 131q6 15 22 54q36 89 146 129q49 83 144 83q69 0 120 -51l1 -6q-51 51 -119 51q-86 0 -133 -73q55 19 113 19 q60 0 104 -25q53 -31 53 -87zM591 568q0 43 -43 69q-36 23 -82 23q-84 0 -152 -64q-6 -25 -6 -51q0 -87 68 -125q31 -17 66 -17q48 0 88.5 26.5t56.5 70.5q-24 -23 -59 -23q-23 0 -40 12q-20 14 -20 36q0 15 13 24.5t28 9.5q5 0 10 -13q8 -18 31 -18q17 0 29 11.5t12 28.5z M316 459q-19 35 -19 78q0 23 6 47q-45 -49 -58 -108q37 -2 71 -17zM373 362q0 29 -45 29q-33 0 -72 -17q25 -45 73 -45q44 0 44 33zM463 200q4 82 -24 135q-13 24 -53 65q-39 13 -63 48q-37 19 -79 21q-4 -17 -4 -35q0 -24 12 -49q48 18 80 18q60 0 60 -41q0 -34 -42 -50 q-13 -5 -33 -5q-48 0 -104 40q-86 -57 -86 -168q0 -68 35 -114q39 -50 105 -50q51 0 100 33.5t74 80.5q20 38 22 71zM159 458q-113 -34 -157 -124q69 0 120 59q20 23 37 65zM202 360q-31 45 -30 93q-13 -35 -30 -54q-68 -78 -146 -78q-17 -42 -17 -87q0 -28 5 -52 q17 -81 91 -131q-22 35 -22 78q0 125 149 231z" />
<glyph unicode="F" horiz-adv-x="718" d="M1316 530q0 -64 -30.5 -120t-85.5 -88q-92 -53 -166 -53q-51 0 -85 26q-39 29 -39 78q0 72 67 135t140 63q50 0 87 -19q47 -24 47 -69q0 -13 -8.5 -32t-19.5 -25l-25 -15q40 40 40 73q0 36 -40 58q-32 18 -72 18q-108 0 -165 -85q-30 -45 -30 -87q0 -49 40 -77 q35 -25 86 -25q147 0 208 121q28 56 28 115q0 118 -102 177q-54 31 -110 31q-59 0 -170 -41q-60 -22 -127 -67q-70 -48 -108 -94q49 -62 49 -124q0 -32 -13 -68q-5 -14 -21 -37.5t-21 -35.5q33 -31 53 -66q60 -106 60 -221q0 -92 -38 -168q-40 -81 -116 -125 q-119 -69 -271 -69l10 6q143 0 255 64q74 42 113 129q36 77 36 169q0 121 -53 212q-18 31 -52 64q-41 -89 -64 -181h-6q15 52 15 85q0 30 -29 46q-24 13 -56 13q-27 -62 -50 -116q-17 -40 -48 -109q-77 -159 -156 -239q-110 -112 -254 -112q-60 0 -101 16.5t-80 59.5 q-62 67 -62 190q0 89 33 171q-28 60 -28 134q0 84 26 151q12 23 23 48q2 5 5 13q34 101 155 182q113 76 226 89q44 5 79 5q93 0 142 -43q21 -5 113 -25q68 -15 113 -15q53 0 124 31l126 56q79 31 153 31q102 0 172 -53q78 -58 78 -156zM779 635q-92 -34 -171 -46 q26 -16 49 -40q42 27 122 86zM718 403q0 61 -48 118q-53 -66 -103 -183q52 -30 90 -63q23 20 42 59t19 69zM649 544q-27 26 -58 42q-27 -3 -50 -3q-26 0 -55 4q11 -30 11 -60q0 -68 -77 -125q37 -10 82 -30q60 104 147 172zM480 530q0 30 -11 59q-23 4 -52 10 q-35 -16 -55 -64q-17 -40 -17 -85q0 -17 3 -33q32 -4 64 -12q68 56 68 125zM653 271q-38 32 -88 61q-7 -15 -34 -93h16q65 0 106 32zM406 400q-28 7 -57 10q6 -21 15 -34q22 9 42 24zM409 665q-46 29 -123 29q-35 0 -79 -5q-105 -12 -203 -75q-102 -65 -146 -157 q77 103 207 160q122 54 257 54q41 0 87 -6zM359 374q-11 16 -16 37q-26 3 -54 3q-68 0 -115 -10q47 -39 128 -39q30 0 57 9zM411 600q-156 34 -207 34q-125 0 -233 -84.5t-136 -205.5q-2 -9 -2 -35q0 -57 33 -122q78 109 157 155q58 34 117 57q-11 19 -11 35q0 29 9 35 q2 -34 31 -61q49 12 122 12q26 0 51 -2q-4 16 -4 34q0 108 73 148zM498 366q-46 21 -85 32q-18 -12 -45 -27l7 -7l-6 -3l-6 8q-47 -24 -98 -24q-91 0 -122 50q-94 -35 -155.5 -83.5t-117.5 -131.5q59 -108 197 -108q42 0 102 43q98 70 114 79q75 43 156 44q30 77 59 128z M433 220q-21 2 -28 2q-68 0 -131 -43q-37 -28 -111 -81q-62 -43 -119 -43q-129 0 -191 99q-15 -26 -26 -52q48 -123 147 -123q9 0 32 6.5t30 11t34 31.5q20 20 35 20q21 0 21 -21q0 -32 -47 -52q-39 -17 -74 -17q-131 0 -191 113q-24 -68 -24 -131q0 -94 42 -165 q14 -24 44 -52q9 17 27 17q13 0 65.5 -38t95.5 -38q138 0 222 182q34 75 77 186zM-151 161q-29 48 -34 130q-11 -31 -11 -71q0 -54 19 -106q11 23 26 47z" />
<glyph unicode="G" horiz-adv-x="674" d="M924 505q0 -73 -38.5 -139.5t-101.5 -102.5q-53 -30 -115 -37q-38 -4 -62 -14q-23 -23 -54 -105l-30 -79q-37 -96 -64 -142q-43 -71 -107 -109q-92 -54 -185 -54q-115 0 -169 93q-31 54 -31 129q0 69 27 132q29 68 80 107q-5 23 -5 47q0 138 88 261q-2 19 -2 36 q0 111 90 193q87 80 199 80q123 0 170 -99q45 16 91 16q131 0 191 -105q28 -49 28 -108zM623 634q-1 35 -12 62q-39 -13 -63 -32q36 -9 75 -30zM913 509q0 55 -25 99q-59 104 -188 104q-43 0 -85 -14q14 -31 14 -67q18 -11 37.5 -22t38.5 -7q20 4 34 27l3 -1l2 -1 q-12 -25 -36 -85q-3 -14 -16 -51q-28 -68 -110 -116q-12 -7 -38 -21q23 -40 23 -72q0 -25 -13 -50q104 0 160 15q79 23 132 87q67 81 67 175zM609 700q-43 95 -167 95q-70 0 -137.5 -37t-102.5 -97q-44 -75 -39 -161q130 172 311 172q37 0 68 -7q26 20 67 35zM663 502 q0 52 -41 94q-37 39 -90 53q-59 -59 -59 -149q0 -36 12 -66l-5 -3q-12 32 -12 70q0 90 58 150q-65 17 -133 -10q-61 -25 -110 -78q-57 -62 -88 -148q34 -46 88 -71q46 79 139 79q77 0 119 -65q122 57 122 144zM534 355q-34 62 -117 62q-41 0 -75 -19q-39 -22 -46 -59 q46 -19 96 -19q62 0 142 35zM549 298q0 29 -13 52q-77 -36 -146 -36q-50 0 -96 19q-5 -39 10 -66q17 -31 56 -31q16 0 50 6t51 6q15 0 37 -7q26 -8 36 -9q15 34 15 66zM496 205q-5 1 -18.5 4t-21.5 3q-16 0 -48.5 -3t-48.5 -3q-67 0 -83 48q-7 21 -7 40q0 23 11 45 q-52 25 -87 70q-29 -83 -29 -163q0 -21 2 -40q35 4 50 -19q-20 14 -38 14q-6 0 -11 -2q7 -61 38 -101q47 -60 117 -60q95 0 154 95q8 13 11 25q-60 -42 -123 -42q-39 0 -76 17l14 8q27 -13 65 -13q77 0 122 39zM465 67q-99 -69 -180 -69q-79 0 -137 51t-73 130 q-80 -64 -80 -189q0 -83 40 -153q49 -86 174 -90q-28 5 -54 26q-30 24 -30 50q0 44 39 44q29 0 33 -28q1 -5 -4.5 -14t-5.5 -14q0 -23 18.5 -40.5t41.5 -17.5q126 0 218 314z" />
<glyph unicode="H" horiz-adv-x="944" d="M1050 650q0 -20 -12.5 -35t-31.5 -15q-28 0 -28 24q0 9 19 22q12 8 12 20q0 15 -14.5 25.5t-29.5 10.5q-69 0 -140 -107q26 -32 50 -125q42 -4 70 -19q24 -13 54 -46t36 -67q3 -17 2 -78q-12 65 -15 73q-11 36 -38 63q-41 40 -106 52q1 -18 1 -36q0 -137 -94 -247 q-43 -51 -78 -73q-40 -25 -100 -35q1 -35 36 -46q17 -5 53 -5l-1 -6q-21 0 -61.5 1t-61.5 1q-26 0 -77.5 -1t-77.5 -1v3q64 7 94 63q-20 10 -32 31q-31 53 -31 106q0 75 52 131q-92 2 -150 -1q-31 -76 -49 -116q77 -48 77 -142q0 -98 -73.5 -177.5t-170.5 -79.5 q-42 0 -84 17q-88 -74 -175 -74q-77 0 -116 55q-26 37 -26 76q0 38 27 109q13 35 56 84q39 44 75 69q12 8 104 62q65 38 162 38q37 0 69 -7q10 25 28 65l49 111q10 23 34 91q26 74 26 90q0 41 -82 45q-55 2 -86 -3q-63 -11 -110 -48q-54 -44 -54 -103q0 -32 18 -56 q19 -27 50 -27q48 0 48 39q0 7 -6.5 19t-5.5 17q6 25 31 25q16 0 26.5 -13.5t10.5 -30.5q0 -33 -27 -55.5t-61 -22.5q-43 0 -69 26t-26 69q0 31 14 59q58 117 242 117q30 0 91 -3.5t91 -3.5q47 0 82 4q106 12 97 12q103 0 160 -47q89 90 177 90q27 0 51.5 -18.5t24.5 -44.5z M846 470q-9 43 -12 53q-8 29 -25 48q-29 -49 -60 -116q54 13 97 15zM779 603q-57 51 -163 51q-59 0 -114 -19q-45 -25 -81 -117l-66 -171l157 -1q57 54 152 85q54 104 115 172zM856 377q0 36 -7 74q-13 1 -26 1q-36 0 -79 -8q-14 -33 -70 -177q-14 -34 -39.5 -101 t-27.5 -104q58 10 97 34q33 21 75 70q77 90 77 211zM660 423q-89 -28 -140 -77q60 -1 104 1q17 39 36 76zM617 333h-8q-27 0 -100 1q-51 -58 -51 -142q0 -50 25 -92q11 -19 31 -29q10 18 26 61zM346 30q0 96 -63 147q-103 -230 -227 -337q41 -15 82 -15q86 0 147 59.5 t61 145.5zM214 215q-47 16 -97 16q-156 0 -268 -132q-38 -44 -52 -82q-34 -89 -30 -145q13 22 39 22q28 0 24 -20q-2 -11 -10 -25q-6 -9 -5 -19q0 -26 28 -43q25 -14 53 -14q73 0 135 71q-34 18 -59 48l5 3q23 -28 59 -46q41 49 97 168q9 20 81 198z" />
<glyph unicode="I" horiz-adv-x="554" d="M620 665q-57 -18 -102 -104q-26 -50 -79 -189q-45 -119 -88 -191v-19q2 -94 -54 -175q-60 -86 -150 -98q91 26 142 101q49 72 48 168v0q-43 -64 -102 -103q-91 -60 -169 -60q-54 0 -89.5 31t-35.5 84q0 39 25 64q16 107 97 149q46 24 102 24q94 0 150 -65l19 43 q64 145 116 220q18 26 52 68q-52 -11 -99 -11q-25 0 -75.5 4.5t-75.5 4.5q-57 0 -97 -26q-47 -30 -47 -84q0 -25 14 -42.5t38 -17.5q39 0 39 34q0 27 3 30q7 7 24 6q31 -3 31 -38q0 -27 -23.5 -43t-51.5 -16q-34 0 -58 27t-24 61t23 67q68 96 232 96q31 0 93.5 -3.5 t93.5 -3.5q28 0 76 10zM308 268q-53 73 -149 73q-116 0 -162 -91q-15 -30 -16 -63q28 19 55 19q25 0 43.5 -15.5t18.5 -40.5q-1 -43 -32 -48q-22 -3 -28 26q-1 5 2.5 14t3.5 13q1 28 -37 28q-14 0 -26 -7q2 -38 21 -71q26 -45 105 -46q32 0 73 21q31 16 67 64q14 19 32 59z M210 86q-42 -58 -136 -57q-62 0 -97 61q-16 28 -13 69q-16 -25 -16 -58q0 -44 33 -69q30 -24 75 -24q117 0 154 78z" />
<glyph unicode="J" horiz-adv-x="525" d="M636 419q-19 -88 -161 -82q-35 2 -68 10l-19 -54q35 -8 57.5 -34t19.5 -61q-4 -55 -68 -88q-37 -19 -79 -19q-74 -208 -175 -276q-48 -32 -117 -32q-28 0 -57 14q-34 16 -34 41q0 12 9 21.5t21 9.5q11 0 43.5 -35.5t66.5 -35.5q80 0 141 191q11 36 33 110q-55 15 -92 55 q-40 43 -39 98q1 63 50 105q45 39 110 42q36 2 69 -11q45 114 106 188q-74 -32 -111 -30q-31 2 -108 60.5t-117 58.5q-24 0 -43.5 -24t-19.5 -49q0 -17 14 -17q4 0 13.5 8t17.5 8q33 0 33 -31q0 -32 -32 -32q-22 0 -37 18t-15 40q0 46 37 75q34 27 81 27q49 0 87 -28l56 -52 q37 -29 68 -29q61 0 87 9q63 84 100 84q20 0 20 -15q0 -29 -72 -66q-57 -98 -101 -230q13 -9 49 -14q29 -4 47 -4q89 1 119 53q5 12 10 23zM451 207q0 54 -67 75q-20 -61 -62 -181h5q124 0 124 106zM342 375q-32 17 -71 17q-36 0 -70 -23q-55 -37 -55 -106q0 -106 108 -148 l55 170q-50 -12 -74 -55q25 46 76 62q4 10 31 83z" />
<glyph unicode="K" horiz-adv-x="826" d="M1342 38q0 -160 -138 -256q-89 -62 -180 -62q-137 0 -260 80q-113 73 -189 198q52 -197 290 -263l-7 -5q-249 70 -298 273q-1 11 -6 31q-13 26 -45 94q-34 78 -68 211l-59 -42q-29 -71 -47 -116q-42 -107 -42 -130q0 -44 78 -45v-6h-264l1 6q48 0 74 27q20 19 40 71 q2 4 35 89q-34 -15 -79 -16q-78 -1 -135.5 58.5t-57.5 138.5q0 28 11 62q29 91 110 148q73 52 174 67q69 10 76 10q20 0 61 -1.5t61 -1.5q69 0 112 3l-1 -8q-57 0 -94 -63q-9 -15 -47 -114l-58 -156q51 36 200 154l37 30q46 36 87 72q17 15 17 34q0 35 -61 43l-1 8 q45 -3 96 -3q52 0 110 3v-13q-51 -12 -131 -71q-35 -26 -118 -97q-30 -26 -115 -91q22 -105 57 -204q38 105 127 173q93 72 201 72q148 0 271 -87q127 -91 162 -232q13 -53 13 -73zM1301 16q0 171 -122 287.5t-294 116.5q-109 0 -196 -74q-83 -70 -115 -178q25 -71 45 -110 q67 -130 166 -214q118 -98 247 -98q43 0 90 25q54 29 54 68q0 24 -19.5 35.5t-19.5 16.5q0 27 32 27q25 0 40 -20t15 -46q0 -25 -14 -48q45 34 69 95q22 55 22 117zM403 592q0 26 -37 39q-26 9 -59 9q-156 0 -202 -99q-18 -38 -18 -63q0 -58 56 -58q17 0 30.5 12t13.5 29 q0 5 -4 13t-4 13q0 31 27 31q42 0 42 -46q0 -34 -26 -55.5t-61 -21.5q-41 0 -67.5 23t-26.5 63q0 31 23 67q21 32 49 52q-62 -32 -102 -97.5t-38 -133.5q2 -51 35.5 -101t80.5 -69q27 -11 68 -11q42 0 77 13q143 365 143 391z" />
<glyph unicode="L" horiz-adv-x="389" d="M1137 -20q0 -137 -118 -217q-110 -75 -283 -75q-96 0 -163 23q-53 18 -139 77q-56 38 -120 107q-39 43 -77 87q-47 51 -84 78q-55 -58 -128 -58h-21q-21 3 -37.5 17t-16.5 35q0 42 43 64q34 17 81 17q26 0 55 -12q13 27 43 101q27 80 102 288q45 118 133 191q21 18 45 35 q87 51 148 51q47 0 89.5 -22.5t65 -62.5t22.5 -77q0 -59 -47 -99q-42 -37 -103 -43q-30 -39 -80 -39q-25 0 -47 15t-22 39q0 14 9.5 26t23.5 12q-5 12 -5 20t6 11q1 -23 15 -41t36 -18q26 0 43.5 20.5t17.5 46.5q0 45 -40 68q-27 14 -53 14q-65 0 -113 -64q-28 -37 -63 -122 q-26 -64 -79 -192q-46 -107 -95 -185q29 -20 52 -43q32 -32 115 -114q89 -86 144 -122q89 -58 178 -58q47 0 86 24q44 27 44 72q0 11 -4 18q-14 -2 -28 -2q-89 0 -130 70q-22 38 -22 77q0 91 90 153q81 57 175 57q150 0 232 -142q24 -41 24 -106zM753 608q0 38 -24 79 q-16 27 -40 43q-57 37 -118 37q-130 0 -219 -168q69 73 159 73q58 0 96 -28q43 -32 43 -88q0 -32 -15 -59q51 6 82 33q36 30 36 78zM1123 -30q0 67 -25 109q-84 143 -228 143q-90 0 -165 -57q-83 -61 -83 -148q0 -39 20 -74q36 -63 124 -63q12 0 23 1q-19 20 -19 27 q0 34 32 34q40 0 40 -46v-3q24 9 42 25q-16 -19 -43 -32q-2 -41 -41 -80q-75 -75 -205 -70q80 -28 175 -28q48 0 97 8q204 33 248 194q8 29 8 60zM110 87q-42 26 -75 26q-29 0 -50 -13q-24 -16 -24 -43q0 -18 17 -27.5t36 -9.5q59 0 96 67z" />
<glyph unicode="M" horiz-adv-x="1249" d="M1383 625q0 -18 -15 -18t-15 15q0 4 2 12t2 12q0 23 -29 23q-47 0 -115 -86q-86 -108 -137 -259q-34 -100 -34 -183q0 -110 72 -110q40 0 66 46l4 -2q-41 -79 -117 -79q-100 0 -100 155q0 103 57 226q52 113 128 196q18 20 35 35q12 11 54 48q-54 -16 -107 -47 q-87 -52 -164 -123q-49 -45 -143 -148q10 -67 10 -125q0 -76 -16 -128q-25 -80 -84 -80q-26 0 -41 21q-14 18 -14 45q0 82 92 203q-8 130 -74 303q-21 -165 -79 -286q-46 -97 -144 -197q-53 -54 -146 -121q-141 -101 -310 -153q-101 -31 -180 -31q-101 0 -181 51 q-49 31 -79.5 86t-30.5 112q0 132 105 234q116 112 291 112q188 0 257 -146q28 -59 28 -119q0 -36 -10 -76l-19 -11q16 63 16 104q0 49 -21 98q-63 147 -250 147q-71 0 -140 -24q-95 -33 -158 -112q-67 -83 -67 -180q0 -59 32.5 -113t84.5 -85q81 -49 180 -49q93 0 215 43 q110 38 199 94q67 42 135 103q-99 -62 -216 -62q-90 0 -152 39q-72 47 -72 132q0 50 28 86.5t77 36.5q27 0 47 -18t20 -45q0 -37 -35 -37q-26 0 -26 13q0 3 1.5 8.5t1.5 8.5q0 16 -13.5 26.5t-29.5 10.5q-31 0 -48.5 -25.5t-17.5 -58.5q0 -76 67 -119q58 -37 138 -37 q154 0 282 118q92 85 148 214q51 119 63 254q-21 10 -88 10q-86 0 -124 -12q-69 -22 -69 -88q0 -59 49 -59q17 0 29 12t12 30t20 22q14 3 22.5 -7t8.5 -25q0 -26 -18.5 -41.5t-45.5 -15.5q-34 0 -58.5 24.5t-24.5 58.5q0 73 69 116q60 37 137 37q13 0 132 -3 q65 -184 83 -318q118 130 206 199q172 135 278 135q28 0 49 -12q25 -15 25 -41zM784 192q0 9 -6 79q-85 -117 -85 -197q0 -53 38 -53q29 0 43 71q10 50 10 100z" />
<glyph unicode="N" horiz-adv-x="1082" d="M1463 -148q0 -72 -116 -115q-41 -15 -96 -15q-80 0 -168 26q-187 55 -323 209q-105 118 -208 337q-73 155 -102 249q-61 -211 -169 -396q-54 -93 -163 -171q-99 -72 -211 -110q-59 -20 -131 -20q-52 0 -96 11q-197 49 -289 195q-41 65 -41 158q0 66 23 124q26 67 73 98.5 t94 31.5q55 0 71 -30q-19 23 -64 23q-55 0 -93 -26q-72 -49 -72 -160q0 -141 108 -246q95 -91 242 -128q44 -11 96 -11q72 0 131 20q111 37 199 111q-33 -19 -71 -19q-47 0 -78 27.5t-31 74.5q0 26 14.5 44.5t39.5 18.5q12 0 20.5 -10.5t8.5 -22.5q0 -10 -14 -23.5 t-14 -25.5q0 -28 22.5 -46.5t50.5 -18.5q55 0 114 73q115 142 199 439q6 22 16 67q-63 12 -162 12q-157 0 -157 -73q0 -41 39 -41q28 0 39 24q7 16 20 20q14 3 23 -8.5t9 -25.5q0 -43 -54 -43q-38 0 -62 23.5t-21 61.5q4 62 73 91q51 21 123 21q-16 0 168 -7q-13 51 -22 111 q-15 105 -15 165q0 123 56 267q26 66 57 113q62 94 165 150q49 27 111 27q65 0 116 -28q61 -35 61 -95q0 -62 -60.5 -111.5t-112.5 -49.5q-28 0 -47 13q-22 16 -22 42q0 16 11.5 30t26.5 10q12 -3 15 -14q10 -30 62 -32q28 -1 56 14q-7 -1 -13 -1q-20 0 -40 11q17 -3 31 -3 q52 0 71 48q7 18 7 35q0 54 -58 88q-49 28 -107 28t-111 -29q-91 -49 -145 -145q-43 -75 -78 -211q-21 -81 -21 -164q0 -60 15 -162q13 -88 30 -144l30 -98q28 -91 65 -176q64 -146 127 -241q16 91 64.5 219t97.5 204q28 44 41 61q25 33 86 71q18 10 42 11q22 0 37.5 -16 t15.5 -39q0 -41 -38 -53q-13 -4 -26 -2q-11 2 -20 2q-119 0 -220 -269q-44 -116 -60 -218q6 -10 38 -50q226 -284 470 -284q89 0 122 58q16 28 16 47q0 9 -8.5 20t-7.5 16q6 25 33 25q19 0 32.5 -15t13.5 -34z" />
<glyph unicode="O" horiz-adv-x="657" d="M992 781q0 -67 -30.5 -168t-67.5 -157q-81 -122 -218 -201q-38 -22 -93 -42q-94 -154 -261 -216q-37 -14 -60 -21l-89 -28q-50 -15 -89 -19q-62 -7 -112 -7q-245 0 -338 161q-48 83 -48 186q0 55 15 115q55 217 271 329q11 96 53 164q91 149 217 234q134 91 314 91 q207 0 361 -106q175 -120 175 -315zM964 770q0 189 -164 309q-150 110 -349 110q-70 0 -133 -16q-109 -28 -165 -66q-131 -89 -216 -227q-42 -68 -56 -162q91 45 178 45q86 0 161 -43l-8 -4q-71 41 -154 41q-87 0 -178 -44q-4 -33 -4 -66q0 -55 13 -103l-5 -3 q-16 56 -16 117q0 24 3 50q-198 -101 -252 -318q-14 -56 -14 -108q0 -104 49 -188q89 -152 335 -152q59 0 123 7q40 4 112 27q-12 -1 -25 -1q-99 0 -159 71q-56 66 -56 167q0 87 46 184q106 223 306 267l2 -2q-112 -38 -203 -211q-83 -158 -83 -283q0 -81 35 -130 q41 -55 119 -55q153 0 278 210q-16 -1 -30 -1q-168 0 -215 125q-14 38 -14 71q0 68 45 142q43 71 103 108q53 33 125 33q80 0 123 -65q36 -55 36 -139q0 -127 -67 -243q78 25 156 89q73 59 122 132q42 62 69 156q27 91 27 169zM583 497q0 63 -30 103q-34 45 -95 45 q-65 0 -122 -49q-51 -45 -76 -110q-13 -34 -13 -75q0 -71 49 -71q36 0 33 36q7 17 28 17q36 0 36 -37q0 -26 -27 -45t-54 -19q-34 0 -56 21q26 -58 101 -86q61 -23 135 -20q91 159 91 290z" />
<glyph unicode="P" horiz-adv-x="720" d="M1070 671q0 -141 -105 -267q-98 -117 -238 -168q-76 -28 -165 -28q-108 0 -195 39l-27 -77q0 -1 -23 -60q-16 -42 -16 -58q0 -40 67 -46q9 0 20 -1l-1 -1v-4q-77 3 -150 3q-29 0 -62 -1q-34 -33 -96 -70t-105 -48q-98 -25 -157 -24q-117 2 -227 64q-118 66 -185.5 177 t-67.5 244q0 47 7 87q30 171 118 268q100 110 263 110q60 0 130 -19q84 -22 116 -58q-93 55 -195 55q-150 0 -265 -106q-111 -102 -138 -252q-9 -50 -9 -92q0 -130 69 -233q66 -97 185 -160q106 -56 246 -53q189 4 290 110q-40 -2 -62 -2l1 7q85 0 124 68q3 6 32 71 q6 18 53 134q-56 33 -101 82q-17 -9 -35 -9q-42 0 -65 28t-23 71q0 83 87 146q37 111 136 169q90 52 214 52l-11 -6q-237 0 -327 -208q98 63 268 63q22 0 45 -1q33 74 39 86q25 49 50 80q79 96 171 112q36 6 71 6q137 0 205 -118q44 -76 44 -162zM1051 665q0 87 -43 160 q-69 116 -200 116q-32 0 -67 -6q-70 -12 -137 -99q-25 -32 -46 -82q-16 -45 -33 -89q268 -21 268 -191q0 -86 -62 -138q-58 -49 -146 -49q-83 0 -142 40l2 5q59 -30 102 -30q80 0 124 67q38 58 38 141q0 59 -36 96t-95 37q-68 0 -95 -75l-109 -301q97 -45 211 -45 q232 0 378 196q88 118 88 247zM414 582q5 31 -14 47t-52 16q-103 0 -181 -62q-13 -37 -13 -75q0 -48 22 -85q4 10 17 21q27 8 35 -15q2 -4 5 -17q6 -21 -16 -40q39 -39 93 -71q25 65 95 252q5 14 9 29zM165 409q-24 36 -24 85q0 38 15 79q-57 -51 -57 -107q0 -23 15.5 -42 t37.5 -19q7 0 13 4z" />
<glyph unicode="Q" horiz-adv-x="758" d="M889 413q0 -192 -153 -288q-86 -54 -166 -54q-36 0 -77 10l47 27q32 -7 62 -7q56 0 112 26q139 65 139 261q0 38 -5 80q-13 112 -95 202q-77 85 -189 121q-74 24 -144 24q-141 0 -238 -92q-90 -87 -118 -230q-8 -41 -8 -80q0 -117 81 -229q8 -11 37 -45q77 0 174 -56 q47 27 103 96q103 127 103 238q0 83 -61 146.5t-144 63.5q-72 0 -123 -49.5t-51 -121.5q0 -78 61 -125q38 -31 82 -31q42 0 79 45t37 88q0 24 -9 43q-12 24 -34 24q-9 0 -20 -5.5t-11 -13.5q0 -6 7 -13l13 -13q3 -4 3 -8q-3 -32 -33 -32q-38 0 -38 38q0 25 19.5 42.5 t45.5 17.5q71 0 71 -75q0 -22 -10 -56q-15 -51 -57 -85.5t-94 -34.5q-62 0 -99.5 40t-37.5 102q0 105 81.5 186t186.5 81q54 0 102 -36q73 -54 78 -167q4 -90 -51 -190q-10 -18 -59 -80q-52 -66 -121 -131q37 -24 107.5 -77.5t110 -78.5t75.5 -46q58 -25 87 -25q9 0 29 8.5 t20 15.5q0 3 -6.5 14.5t-6.5 21.5q0 13 10.5 22.5t23.5 9.5q34 0 34 -35q0 -51 -115 -69q-26 -4 -47 -4q-45 0 -97 19q-29 11 -99 45q-39 19 -103 64q-31 21 -104 76q-92 -43 -162 -43q-42 0 -72 14q-39 19 -39 57q0 61 113 79q-14 13 -25 25q-37 41 -59.5 107t-22.5 123 q0 40 9 87q30 155 147 254.5t274 99.5q72 0 139 -22q121 -39 197 -119q83 -87 99 -206q5 -38 5 -71zM278 35q-65 55 -116 73q-39 14 -62 14q-19 0 -34 -11.5t-15 -30.5q0 -38 37 -61q32 -21 72 -21q52 0 118 37z" />
<glyph unicode="R" horiz-adv-x="767" d="M1498 122q0 -163 -83 -275q-55 -73 -168 -112q-95 -32 -203 -32q-125 0 -248 84q-132 90 -214 216q-26 39 -44 76q-120 -38 -252 -36l1 -2q12 -37 85 -38v-3q-94 2 -150 2q-75 0 -142 -2v3q58 -3 101 43q-31 4 -67 17q-168 61 -194 204q-5 28 -5 49q0 89 55 168 q50 71 133 119q91 52 193 68q59 9 153 0q100 -10 134 -17q73 -16 120 -54q56 -47 56 -115q0 -74 -63 -129q-31 -27 -71 -39q-22 -7 -81 -14q18 -101 59 -197q90 26 170 75q-16 44 -16 93q0 67 29 128.5t82 97.5q95 65 219 65q102 0 193 -47t146 -130q72 -110 72 -266z M1463 104q0 80 -27 158q-21 59 -47 100q-55 86 -142 137q-91 53 -190 53q-97 0 -177 -53q-105 -70 -105 -226q0 -44 10 -85q66 43 134 128q54 68 74 111q-16 -49 -71 -118q-64 -82 -136 -125q11 -45 48 -95q-37 26 -60 88q-95 -56 -167 -79q15 -33 34 -66q68 -115 165 -199 q123 -106 237 -106q40 0 76 16q53 23 53 67q0 8 -7.5 19t-7.5 16q1 26 25 35q26 9 43.5 -9.5t17.5 -45.5q0 -61 -74 -97q73 11 118 30q58 25 94 73q82 110 82 273zM684 508q0 56 -32 94t-87 38q-40 0 -62 -26q-11 -13 -19 -34q-12 -33 -48 -125q-8 -18 -23 -55 q-18 -45 -18 -61q53 -15 94 -15q98 0 154 70q41 51 41 114zM532 90q-28 68 -76 210q-35 5 -71 22q-34 -91 -94 -238q-3 -7 -8 -24q120 -5 249 30zM404 594q0 23 -35 37q-28 12 -55 12q-106 0 -176 -71q-45 -46 -38 -92q5 -38 35 -50q14 1 36 -4q5 -4 6 -13q2 -16 -13.5 -25 t-32.5 -9q-31 0 -50 23t-19 54q0 74 74 131q63 48 144 63q4 1 15 6q-11 3 -60 -9q-41 -11 -60 -18q-119 -47 -178 -149q-43 -75 -43 -159q0 -111 61 -168q51 -48 121 -72q35 -12 60 -17q18 28 32 63l170 442q6 16 6 25z" />
<glyph unicode="S" horiz-adv-x="668" d="M1048 545q0 -124 -60 -233q-124 -226 -403 -226q-18 -139 -140 -260q-74 -73 -176 -124q-178 -88 -365 -88q-294 0 -405 217q-42 82 -42 184q0 271 229 411q136 83 273 83q104 0 175 -55q-9 51 -9 96q0 142 80 277q41 70 77 96q-65 -75 -91 -126q-54 -109 -54 -240 q0 -56 15 -118q34 -31 54 -73q24 -46 21 -87q95 -152 272 -169q-20 100 -88 221q-47 83 -61 124q-18 52 -18 104q0 69 31 141q42 98 133.5 155.5t199.5 57.5q97 0 177.5 -44t126.5 -127q48 -86 48 -197zM1022 554q0 96 -40 172q-42 81 -122.5 125t-172.5 44q-101 0 -183 -50 q-87 -51 -126 -141q-24 -55 -28 -141q16 35 55 63q63 45 152 45q126 0 169 -89q14 -29 14 -58q0 -40 -26 -71t-65 -31q-56 0 -59 49q-2 22 7.5 35t31.5 12q7 0 17 -6.5t11 -11.5q2 -22 15 -20q34 5 34 48q0 56 -45 92q-41 34 -99 34q-124 0 -137 -101q-4 -32 23 -92 q5 -10 58 -109q60 -112 76 -243q277 8 388 231q52 104 52 214zM221 291q-2 41 -27 84q-9 16 -39 50q15 -48 66 -134zM503 61q0 13 -1 26q-179 6 -282 156q-15 -43 -57 -67l1 -1h1h3q50 1 79.5 -26t29.5 -76q0 -45 -35 -80.5t-80 -35.5q-24 0 -43 19t-15 42q4 19 18.5 32.5 t33.5 11.5q5 -1 16 -14.5t23 -13.5q19 0 33 14t14 33q0 36 -26.5 57t-63.5 21q-75 0 -128.5 -53.5t-53.5 -127.5q0 -98 71 -151q63 -47 164 -47q121 0 209.5 80.5t88.5 200.5zM415 -175q-111 -64 -254 -64q-165 0 -234 101q-26 39 -26 82q0 67 53 128q82 95 199 103l5 2 q41 16 57 73q-58 88 -79 193q-72 58 -182 58q-206 0 -342.5 -138.5t-136.5 -344.5q0 -98 42 -177q108 -203 365 -203q221 0 402 101l70 39q35 21 61 47z" />
<glyph unicode="T" horiz-adv-x="842" d="M1155 701q0 -66 -36 -154q-25 -61 -52 -91q-18 -20 -65 -53q-82 -56 -173 -56q-65 0 -124 31q-25 13 -60 42q-17 14 -41 38l-31 -76q-35 -90 -176 -458q-18 -46 -10 -71q4 -13 13 -22q23 -12 50 -21q13 -2 33 -2h27v-9q-27 1 -50 1h-1l-2 1q-50 1 -133 1q-25 0 -187 -4 q1 2 3 8q63 -3 108 27q23 15 45 53q-130 113 -152 301q-45 11 -81 64q-29 43 -42 97q-25 -8 -85 -17q-108 -1 -177 74q-66 72 -66 181q0 150 117 238q105 79 260 79q168 0 294 -89q83 92 192 146q116 58 233 58q222 0 339 -203q30 -52 30 -114zM1136 672q0 76 -37 139 q-115 195 -328 195q-111 0 -223 -56q-105 -52 -182 -140q37 -26 66 -58q24 -25 83 -123l18 -5l304 -96q82 -26 102 -26q25 0 25 20q0 8 -11.5 17.5t-11.5 17.5q0 27 23 27q16 0 27.5 -11t11.5 -27q0 -13 -9 -30q-20 -38 -91 -38q-40 0 -104 17q-75 20 -158 45 q-7 -13 -19 -39q25 -23 62 -54q13 -11 60 -42q53 -27 113 -27q81 0 150.5 47t102.5 122q26 59 26 125zM475 642q-23 41 -30 52q-35 56 -92 101q-9 -11 -24 -30q-17 -22 -41 -53q-16 -22 -31 -53q58 5 103 2q65 -4 115 -19zM348 799q-122 95 -291 95q-125 0 -217 -56 q-105 -65 -118 -182q-3 -26 -3 -50q0 -105 74 -179q80 -81 173 -76q21 1 50 9l-1 1q-6 31 -6 56q0 58 38 124q20 35 48 59q-31 44 -82 44q-55 0 -87 -45q31 65 103 65q62 0 98 -42q47 27 118 35q16 33 75 108zM544 529q-10 15 -29 46q-21 8 -79 27q-51 15 -121 18 q-24 1 -75 -1q-74 -189 -73 -348q4 16 31 15q29 -2 34 -35q4 -26 -14.5 -44t-45.5 -21q23 -160 132 -280q16 30 58 142zM228 619q-53 -4 -87 -19q19 -41 19 -64q0 -21 -13 -60q-19 -58 -69 -94q-13 -10 -43 -24q9 -49 33 -87q30 -49 71 -52q-8 154 89 400zM107 478 q13 53 -1 101q-19 -15 -36 -38q-43 -59 -43 -119q0 -25 7 -56q56 43 73 112z" />
<glyph unicode="U" horiz-adv-x="695" d="M1114 463q0 -169 -96 -315q-63 -96 -168 -164q-115 -74 -221 -74q-80 0 -133 38q-61 43 -61 120q0 16 7 69q-111 -158 -237 -158q-108 0 -160 79q-17 25 -22 50q-10 47 -9 74q5 130 59 231q15 27 52 102q17 47 26 83q-21 2 -105 14q-28 4 -61 -1q-96 -15 -96 -79 q0 -42 37 -42q9 0 16.5 8.5t11.5 6.5q16 -3 16 -24q0 -13 -11 -23.5t-24 -9.5q-18 2 -36 27q-16 22 -17 42q-6 88 86 133q43 21 110 21q29 0 84 -8q1 15 1 30q0 60 -24 102q-66 114 -227 114q-70 0 -137 -25q-109 -41 -178 -133q-70 -96 -70 -210q0 -139 98 -205 q50 -33 106 -36q124 -6 184 88l11 6q-74 -117 -215 -110q-57 3 -106 36q-99 66 -99 210q0 120 80 221q76 97 192 140q65 24 136 24q167 0 234 -117q35 -61 33 -138q36 -4 62 -4q35 0 75 9q-7 -22 -30 -52q-19 -23 -38 -47q-59 -76 -86 -128q-62 -118 -62 -220 q0 -100 59 -149q43 -36 102 -36q89 0 145 72q36 46 72 151q-72 95 -72 206q0 106 68 204q106 153 286 153q83 0 165 -39q187 -89 187 -317zM1093 443q0 228 -185 322q-73 37 -154 37q-159 0 -259 -129q-71 -92 -71 -201q0 -103 63 -195l8 27q44 148 111 283q25 51 56 66 q18 9 111 9q16 0 16 -3q-40 -4 -71 -34q-38 -37 -93 -167q-52 -122 -84 -240q91 -77 244 -77l-20 -8q-146 0 -230 66q-21 -80 -21 -117q0 -57 49 -57q38 0 67 37l3 -2q-44 -82 -119 -78q55 -50 153 -50q97 0 193 65q86 57 145 147q88 133 88 299zM258 598q-43 -3 -52 -3 q-16 0 -33 1q-6 -35 -19 -69q-9 -24 -30 -64q-24 -45 -32 -63q41 67 98 127q18 19 68 71z" />
<glyph unicode="V" horiz-adv-x="629" d="M788 836q0 -72 -17 -158q-15 -77 -64 -191q-25 -51 -89 -185q-58 -122 -140 -203q-104 -104 -215 -104q-86 0 -136 55t-50 142q0 118 57 232q13 27 32 54l33 48q-55 39 -99 97q-38 4 -70 4q-113 0 -113 -61q0 -43 44 -43q10 0 25.5 7t18.5 7q16 0 16 -20q0 -48 -51 -48 q-69 0 -69 76q0 60 56 95q45 28 111 31q-53 96 -47 227q-46 13 -115 13q-130 0 -228 -43q-116 -51 -116 -142q0 -38 22 -83q13 -27 42 -48q18 -12 54 -37q-52 25 -64 34q-21 15 -39 42q-30 46 -30 89q0 102 140 159q108 45 226 45q61 0 109 -12q3 36 12 81q27 133 135 212 q105 78 242 70q140 -8 244 -108q133 -129 133 -334zM772 845q0 188 -129 313q-111 108 -265 108q-124 0 -215 -70.5t-116 -191.5q-10 -49 -12 -92q175 -50 231 -145q28 -48 28 -97q0 -59 -53 -151q72 -39 154 -39q103 0 219 63q-38 31 -41 34q-23 23 -23 46q0 19 18 33.5 t37 14.5q50 0 70 -91q2 -9 2 -43q0 -57 -13 -107q44 95 54 120q27 66 37 126q17 99 17 169zM250 666q2 47 -18 82q-58 101 -198 146q-4 -127 52 -222q36 0 82 -2q58 -3 82 -4zM238 604q-39 6 -117 17q40 -50 87 -82q10 16 30 65zM635 463q0 53 -16 74q-120 -70 -231 -70 q-82 0 -155 39q-44 -77 -59 -117q-22 -58 -22 -128q0 -164 106 -199q28 -9 67 -9q32 0 72 17q98 41 170 164q68 118 68 229z" />
<glyph unicode="W" horiz-adv-x="953" d="M1571 764q0 -175 -111 -353q-38 -61 -89 -109q-23 -21 -99 -81q-31 -118 -93 -216q-163 -257 -562 -299q-57 -6 -103 -6q-236 0 -399 148q-64 58 -156 185q-167 95 -246 239q-74 136 -78 335q-4 190 70 328.5t233.5 245t387.5 119.5q35 2 61 2q191 0 317 -88 q141 -100 148 -283q105 -22 212 -96q233 -161 233 -426q0 -83 -20 -170q65 53 90 75q45 41 80 94q112 170 112 368q0 90 -24 146q36 -76 36 -158zM1265 395q0 263 -207 425q-85 67 -206 99q0 -112 -97 -273q-33 -55 -50 -142q-6 -33 -21 -151q-17 -138 -36 -218 q351 325 351 454q0 30 -27.5 35.5t-27.5 27.5q0 21 17 36t38 15q27 0 42 -24q13 -20 13 -48q0 -114 -256 -370q-50 -49 -150 -148q-66 -67 -141 -122q63 82 95 315q17 123 35 191q-51 -68 -133 -192q-73 -110 -143 -190q-113 -128 -181 -130q53 44 80 119q18 49 33 142 q3 21 28 189q2 17 15.5 81t13.5 75q0 31 -38 48q-29 13 -65 13q-61 0 -105.5 -40t-44.5 -100q0 -43 28 -54q16 -7 23 -3q14 5 13 28t16 29q4 1 8 1q31 0 31 -44q0 -27 -23.5 -44.5t-51.5 -17.5q-77 0 -77 97q0 19 8 56q19 89 73 170q82 124 211 178q112 48 274 48 q37 0 68 -2q9 -1 128 -19q-30 178 -151 259q-109 72 -300 72q-198 0 -365 -80q-181 -85 -279 -245q-83 -135 -83 -317q0 -349 296 -549q-29 75 -29 169q0 51 18 109q21 67 55 94q-53 -69 -53 -214q0 -99 40 -178q214 -123 461 -123q202 0 422 79q208 74 381 200 q26 94 26 184zM830 889q0 18 -3 36q-49 11 -121 19q-27 3 -76 3q-245 0 -400 -145q-61 -58 -92 -106q-37 -58 -49 -131q59 102 225 102q20 0 60.5 -5t60.5 -5q15 0 36 4l4 -5q-54 -53 -86 -276q-24 -167 -50 -266q75 78 187 252q119 186 182 257q122 139 122 266zM1233 192 q-146 -104 -345 -175l-98 -35q-51 -18 -105 -31q-119 -29 -258 -29q-145 0 -299 40q-69 18 -127 48l2 -4q96 -191 337 -267q80 -25 176 -25q52 0 119 7q359 38 503 265q61 97 95 206z" />
<glyph unicode="X" horiz-adv-x="800" d="M1798 191q0 -198 -87 -318q-36 -48 -102 -99q-83 -64 -173 -87q-71 -18 -195 -18q-143 0 -292 50q-103 35 -170 76t-144 118q-100 100 -145 206q-19 46 -63 180q-79 -73 -121 -118q-86 -93 -87 -129q0 -32 74 -42v-5q-69 2 -130 2t-112 -2v3q29 5 67 28q53 32 154 132 l150 150q-10 26 -30 83q-12 42 -39 126q-32 95 -52 108q-14 9 -44 9q-62 0 -106 -36q-46 -39 -46 -100q0 -52 35 -52q8 0 18.5 28t36.5 27t26 -35q0 -28 -27 -48t-56 -20q-63 0 -63 72q0 86 70 137q61 45 152 49q-14 32 -101 181q-90 155 -189 235q-124 100 -278 100 q-69 0 -128 -33q-29 -16 -65 -52q-67 -67 -94 -138q-25 -66 -25 -165q0 -178 107 -338q115 -172 310 -172q91 0 193 41q-2 -3 -8 -8q-88 -51 -213 -51q-193 0 -315 165q-111 150 -111 350q0 95 26 163.5t90 134.5q90 93 189 120q46 13 95 13q147 0 281 -97q118 -86 199 -226 q57 -99 99 -193q9 -20 20 -35q76 2 105 1l25 -1l-1 -4q-86 -3 -86 -47q0 -27 29 -112l40 -116q113 109 183 187q16 18 16 40q0 46 -75 48l1 4l145 -2l26 2q119 112 258 184q168 87 312 83q141 -4 249 -90q116 -93 116 -230q0 -60 -26 -122q102 -152 102 -295zM1779 174 q0 124 -95 286q-51 -98 -155 -150q-94 -48 -212 -48q-97 0 -197 42q-55 23 -88 54q134 -88 289 -88q117 0 209 47q101 51 149 150q-43 66 -73 99q-39 44 -96 81q-81 52 -159 72q-72 19 -173 18q-133 -2 -227 -54q-117 -65 -164 -150.5t-47 -222.5q0 -127 96 -199 q79 -60 216 -78q-91 8 -141 26q-71 25 -116 83q-61 78 -61 170q0 139 49.5 224t169.5 153q105 59 231 59q173 0 289 -56q124 -60 218 -198q23 58 23 115q0 124 -122 212q-111 80 -240 80q-161 0 -386 -137q-27 -16 -144 -104q32 1 53 1l-1 -3q-72 -11 -146 -69 q-38 -30 -119 -113q-60 -61 -113 -110l57 -168q40 -117 77 -183q52 -92 133 -146q53 -35 101 -35q13 0 26 3v-2q-33 -9 -54 -9q-37 0 -74 11q81 -57 240 -103q156 -46 259 -46q113 0 183 18q90 23 165 83q57 46 89 91t56.5 113t24.5 181z" />
<glyph unicode="Y" horiz-adv-x="679" d="M1343 241q0 -30 -6 -64q-12 -67 -29 -107q-44 -102 -143 -177q-91 -69 -206 -100q-41 -11 -117 -11q-67 0 -127 9q-45 7 -100 42t-77 73q-48 83 -48 164q0 118 89 200q86 80 205 80q131 0 193 -107q33 -57 33 -119q0 -97 -62 -133l-7 -5q-38 -21 -124 -21l10 6 q68 0 102 15q47 20 61 77q7 28 7 58q0 66 -34 122q-37 59 -96 81q-41 15 -89 15q-110 0 -191 -71t-81 -180q0 -83 51 -170q21 -35 78 -70t100 -41t107 -6q95 0 145 13q273 72 322 351q7 40 7 86q0 296 -273 395q-114 41 -229 41q-81 0 -152 -21h9q37 0 64 -15q32 -19 32 -53 q0 -18 -13 -31.5t-31 -13.5q-27 0 -42 36q-17 43 -55 43q-68 0 -140 -72q-58 -59 -94 -134q-6 -12 -67 -165q-15 -36 -44 -108q-32 -80 -32 -103q0 -27 29 -37q8 0 47 -2v-11h-6q-7 1 -14 1h-30q-114 0 -167 -42q-12 -10 -27 -29q-19 -24 -25 -30q-139 -146 -221 -201 q-125 -84 -286 -98q-41 -4 -91 -4q-151 0 -265 48q-135 57 -202 173q-65 113 -65 216q0 77 32 165q120 330 482 370q18 2 37 2q92 0 173 -46t126 -125q33 -57 33 -125q0 -96 -56 -163q-60 -71 -154 -71t-98 32l2 6q17 -24 111 -24q85 0 136 67q46 62 46 149q0 154 -153 245 q-81 48 -171 48q-19 0 -36 -2q-182 -21 -293 -106t-172 -255q-35 -97 -35 -168q0 -116 71 -217.5t179 -149.5q117 -52 267 -52q71 0 143 12q148 25 264 108q100 72 195 200q20 26 55 67q-31 0 -56 -1v10h44q21 3 38 23l10 12q20 24 59 126l65 169q36 107 36 174q0 41 -19 67 q-21 30 -60 30q-79 0 -108 -136h-9q18 119 93 168q38 25 67 24q37 -1 68 -29q50 -45 50 -123q0 -16 -4 -61q162 243 434 243q113 0 231 -43q158 -58 223 -169q71 -123 71 -244z" />
<glyph unicode="Z" horiz-adv-x="620" d="M2382 407q0 -275 -151.5 -529.5t-392.5 -391.5q-214 -122 -482 -122q-201 0 -400 67q-194 66 -360 187q-107 78 -236 222q-33 37 -80 103q-41 58 -64 82q-46 49 -86 52q-41 3 -84 -38q-186 -177 -415 -298q-256 -136 -436 -136q-136 0 -243 63q-113 67 -161 189 q-30 76 -30 155q0 98 47 177.5t133 123.5q75 38 158 38q106 0 183 -57q81 -60 98 -163q4 -24 4 -54q0 -144 -115 -211l-2 3q100 69 100 199q0 27 -5 57q-17 102 -85.5 162t-171.5 60q-83 0 -159 -40.5t-120 -108t-44 -151.5q0 -94 47.5 -186t124.5 -142q73 -47 200 -74 q47 -10 94 -10q137 0 331 90q113 53 250 157q63 48 202 168q17 14 120 111q166 155 406 386q-42 1 -64 4q-36 5 -132 53q-90 45 -132 45q-26 0 -42 -16t-16 -42q0 -30 21 -51q19 -14 38 -29q23 -20 23 -37q0 -15 -12 -25.5t-28 -10.5q-32 0 -55 45q-19 38 -19 74q0 28 16 56 q35 60 113 60q46 0 107 -16l104 -30q76 -22 105 -22q23 0 59 22q6 4 23 14q73 61 143 103q216 130 410 130q98 0 188 -40q106 -47 158 -92q65 -56 102.5 -142.5t37.5 -174.5q0 -95 -44 -182q-71 -141 -199 -230q-136 -95 -287 -95q-103 0 -189 28q-123 40 -192 150 q-39 63 -41 121q-3 126 83 196q79 65 208 65q75 0 145 -24l-8 -4q-56 20 -120 20q-123 0 -205 -64q-91 -71 -84 -191q3 -48 35 -102q25 -42 52 -65q64 -55 158 -86q89 -31 177 -31q144 0 266 88q112 81 181 217q42 82 42 174q0 86 -38 174.5t-101 144.5q-53 47 -152 92 q-88 40 -186 40q-185 0 -414 -143q-67 -42 -120 -92q-13 -14 -48 -47q-22 -20 -67 -61l-342 -322q-13 -11 -49 -45q62 -7 147 -112q25 -31 52 -78t51 -81q34 -50 104 -149q53 -72 109 -103q44 -24 94 -24q40 0 75 20q41 23 41 61q0 13 -12 24q-22 19 -22 41q0 38 48 38 q24 0 39 -18t15 -43q0 -63 -58 -104q-51 -36 -117 -36h-2q-48 0 -97 20q320 -219 694 -219q279 0 505 122q232 125 371 361q146 248 146 522q0 227 -104.5 408t-302.5 291q-277 154 -661 154q-404 0 -729 -162q-205 -102 -329 -214q-117 -105 -252 -302q-74 -108 -133 -242 q39 112 118 238q126 202 236 308q258 250 675 339q207 44 419 44q411 0 676 -147q202 -112 311 -292t109 -409z" />
<glyph unicode="[" horiz-adv-x="358" d="M394 695l-2 -4q-77 -5 -101 -55q-12 -25 -23 -63l-19 -65q-21 -68 -76 -246q-28 -88 -100 -318q-9 -29 -9 -43q0 -40 71 -46l-3 -7h-146q-6 0 -6 9q0 7 122 392l123 388q4 13 15 45q5 13 16 13h138z" />
<glyph unicode="\" horiz-adv-x="287" d="M233 -63l-14 -10q-7 89 -11 165q-9 147 -19 539l11 19l22 -525q1 -25 11 -188z" />
<glyph unicode="]" horiz-adv-x="316" d="M350 690q0 -3 -11 -31q-12 -31 -13 -35q-61 -207 -212 -696q-2 -5 -16 -55q-3 -9 -11 -21q-5 -5 -23 -5q-36 -1 -126 0l1 3q66 4 94 41q8 10 18 42q7 22 34 109l97 309q82 266 82 296q0 25 -24 35q-10 3 -46 8l6 6h145q5 -1 5 -6z" />
<glyph unicode="^" horiz-adv-x="474" d="M525 288h-24q-23 -42 -59 -64q-40 -25 -84 -17q-50 9 -84 49.5t-34 91.5q0 53 30.5 93.5t81.5 40.5q4 0 4 -4q0 -3 -4 -3q-48 0 -77 -41q-26 -36 -26 -86t40.5 -88t91.5 -38q59 0 106 70q-68 102 -205 314l-210 -315h-87l14 21q-36 19 -36 70q0 50 26 94q16 27 60 77 q76 86 177 98l29 44h1l27 -44q83 -9 156 -86q82 -87 82 -196q0 -31 -10 -59zM510 369q0 103 -80 188q-67 71 -139 83l58 -91q43 -63 153 -226q8 22 8 46zM218 640q-92 -14 -162 -94q-41 -47 -57 -74q-26 -44 -26 -90q0 -47 32 -61z" />
<glyph unicode="_" horiz-adv-x="429" d="M451 -94q0 -3 -18 -18q-27 -16 -52 -16q-7 0 -45 3q-25 2 -89 15q-56 11 -90 11q-61 -1 -82 -3q-36 -4 -75 -19q-3 -1 -4 1t2 3q75 31 163 34q26 1 68 -3q16 -1 101 -16q79 -13 112 12q5 4 7 0.5t2 -4.5z" />
<glyph unicode="`" horiz-adv-x="352" d="M388 502l-5 -5q-12 13 -21 22l-59 59q-21 21 -21 31q0 11 9 21t20 10q28 0 39 -33l36 -111z" />
<glyph unicode="a" horiz-adv-x="401" d="M584 101q0 -52 -39.5 -90.5t-90.5 -38.5q-8 0 -17 1l-12 -6q9 -2 18 -2q55 0 95.5 41t38.5 96q-2 53 -29.5 85.5t-78.5 32.5q-26 0 -42 -9q-50 -29 -104 -101q-81 -108 -123 -108q-18 0 -18 21q0 19 10 56q5 20 30 93q-59 -90 -83 -117q-48 -54 -96 -53q-51 1 -51 53 q0 67 56 161q-126 -148 -248 -148q-64 0 -102 58q-33 51 -33 118q0 76 43 145t111 108q56 32 120 32q92 0 132 -69q13 -22 13 -48q0 -28 -15 -54q-16 -29 -41 -38q22 12 35.5 40t13.5 55q0 24 -11 43q-38 65 -130 65q-69 0 -127.5 -37t-95.5 -99q-41 -69 -41 -143 q0 -65 30 -115q35 -58 96 -58q69 0 159 68q71 53 119 119q125 170 208 170q19 0 38 -22l17 17l53 2q-36 -73 -86 -194q-62 -149 -62 -176q0 -11 10 -11q13 0 60 60q4 6 16 21q30 35 42 47q25 26 48.5 39.5t54.5 13.5q21 0 39 -7q71 -28 70 -117zM302 393q0 27 -25 27 q-41 0 -112 -111q-52 -82 -81 -151q-26 -62 -26 -99q0 -32 24 -32q53 0 139 158q81 148 81 208z" />
<glyph unicode="b" horiz-adv-x="368" d="M494 472q-78 -96 -134 -145q-13 -77 -71.5 -166t-124.5 -132q-44 -29 -93 -29q-45 0 -52 68q-27 -68 -137 -133q-85 -50 -150 -72q-81 -27 -165 -24q-197 8 -259 139q-25 53 -25 90q0 12 2 22q0 -56 27 -109q65 -129 257 -136q117 -5 233 51q123 58 179 155q33 56 77 153 q-68 11 -104.5 54.5t-36.5 111.5q0 47 18 90q48 117 139 169q59 34 125 34q19 0 40 -2q8 -2 16 -2q25 -1 45 4q-13 -66 -39 -123q-15 -33 -39 -90q-31 -74 -31 -83q0 -6 8 -4q47 67 108 67q27 0 46 -31q10 -16 10 -41q0 -11 -2 -24q57 60 133 138zM307 384q0 32 -27 32 q-39 0 -92 -82q-34 -53 -60 -115q72 15 154 64q25 65 25 101zM233 639q0 16 -23 18q-79 -1 -130 -33q-78 -49 -122 -155q-20 -48 -20 -104q0 -60 33 -100t92 -51l22 49q12 26 137 336q11 27 11 40zM280 277q-77 -47 -154 -64q-10 -22 -17 -39q-38 -96 -38 -127q0 -38 27 -38 q29 0 70 55q63 84 112 213z" />
<glyph unicode="c" horiz-adv-x="310" d="M603 318q0 -102 -98 -159q-43 -25 -93 -25q-97 0 -140 74q-4 9 -7 32q5 -17 12 -29q43 -72 140 -72q46 0 84 22q97 56 97 156q0 96 -86 139q-46 23 -99 23q-16 0 -33 -3q-95 -17 -151 -56q19 7 38 7q20 0 36.5 -10t16.5 -29q0 -33 -26 -33q-23 0 -23 23v10q1 7 1 10 q0 22 -19 22q-10 0 -28 -12q-48 -32 -98 -160q-47 -121 -47 -189q0 -43 26 -43t65 42q34 37 50 70l6 -4q-23 -44 -56 -78q-42 -44 -80 -44q-33 0 -53 23.5t-20 57.5q0 90 73 207q-41 -45 -75 -65q-59 -35 -125 -35q-86 0 -125 61q-27 42 -27 101q0 47 28 82q31 39 76 39 q13 0 21 -2q61 -15 61 -76q0 -48 -59 -65q54 20 54 65q0 14 -4 25q-16 47 -71 47q-43 0 -72 -37t-29 -81q0 -69 38.5 -109.5t107.5 -40.5q77 0 130 41q35 26 97 88q36 47 93 86q7 5 28 17q63 36 144 51q17 3 32 3q56 0 103 -25q51 -28 72 -76q14 -32 14 -66z" />
<glyph unicode="d" horiz-adv-x="434" d="M704 319q0 -61 -23 -132q-54 -166 -161 -229q-91 -54 -163 -54q-108 0 -150 51q-20 24 -25 45q-8 32 2 70q5 19 21 79q-101 -149 -165 -149q-49 0 -49 64q0 17 4 36q-38 13 -59 59q-17 39 -17 85q0 43 14 99q34 136 163 232q113 84 226 87q47 1 63 -1l96 1l-29 -73 q142 2 204 -102q48 -80 48 -168zM692 327q0 90 -40 157q-60 101 -202 99l-120 -298q-14 -34 -52 -127q-39 -96 -39 -107q0 -10 9 -10q17 0 82 83l3 -2q-26 -37 -65 -74q-49 -47 -74 -47q-4 0 -2 -4q10 -22 22 -36q37 -43 122 -50q76 -6 176 55q115 70 160 228q20 70 20 133z M407 640q0 10 -20 15q-17 2 -67 1q-115 -3 -228 -88q-122 -92 -151 -225q-15 -68 -15 -107q0 -43 15 -77q19 -41 55 -53q10 44 41 101q42 76 98 137q76 82 134 82q22 0 44 -24q25 59 54 130q40 98 40 108zM294 375q0 45 -35 45q-43 0 -143 -190q-68 -130 -68 -177 q0 -32 23 -32q20 0 63 46q31 34 52 65q35 51 67 117q41 84 41 126z" />
<glyph unicode="e" horiz-adv-x="311" d="M361 329q0 -95 -102 -160q-6 -24 -21 -53q-61 -114 -151 -114q-75 0 -75 88q0 13 2 26q-20 -42 -59 -71q-42 -32 -85 -32q-14 0 -27 3l8 5q12 -3 24 -3q50 0 93.5 47.5t55.5 95.5l1 4q-56 -3 -91 31t-35 90q0 87 101 147q88 52 181 52q110 0 155 -74q25 -41 25 -82z M275 386q0 35 -29 35q-42 0 -95 -106q42 2 72 -26q52 57 52 97zM354 333q0 39 -22 76q-43 71 -153 71q-90 0 -173 -48q-96 -57 -96 -141q0 -52 33 -85.5t85 -33.5q20 58 57 113q-11 -7 -35 -29q21 27 41 39q91 132 164 132q52 0 52 -52q0 -46 -71 -102q26 -36 26 -76 q0 -11 -2 -21q94 69 94 157zM219 285q-29 27 -70 25q-29 -60 -46 -117q57 29 116 92zM255 199q0 37 -24 70q-41 -38 -125 -80q-29 -59 -29 -111q0 -54 40 -54q31 0 68 35q31 29 49 63q13 24 15 42q-6 -6 -35 -14q9 4 29 14q2 2 9 6q3 15 3 29zM25 165z" />
<glyph unicode="f" horiz-adv-x="328" d="M658 502q0 -142 -131 -246q-34 -27 -77 -50q-83 -45 -165 -47q-73 -2 -136 26q-87 -248 -169 -312q-36 -28 -76 -28q-15 0 -27.5 8.5t-12.5 23.5q0 24 27 24q10 0 29 -15t28 -15q12 0 23 9q43 36 126 333q-47 34 -75.5 88.5t-28.5 112.5q0 124 118 192q4 2 7 0 q-111 -77 -111 -188q0 -61 36 -124q19 -34 60 -61l29 101q-20 30 -24 65h-28q3 7 8 20h20q7 63 49 81q-38 -22 -44 -81l42 -2q7 23 23 66q13 35 49 125q25 57 85 96.5t122 39.5q95 0 159.5 -72.5t64.5 -169.5zM643 499q0 94 -60 163q-63 72 -156 72q-35 0 -66 -11 q-81 -29 -119 -111l-6 -13q36 48 96 62q17 4 26 4q14 0 28 -7.5t14 -20.5q0 -24 -23 -24q-10 0 -25 14.5t-27 14.5q-32 0 -67 -99q-7 -19 -36 -125q55 -2 81 18q10 8 27 39q12 23 34 24q29 2 46 -23q15 -21 15 -51q0 -47 -27 -90q-42 -67 -128 -67q-45 0 -87 21l-13 -43 q-5 -14 -14 -40q81 -31 152 -29q86 2 161.5 44t123.5 115q50 77 50 163zM413 408q0 32 -11 56q-15 33 -43 30q-17 -2 -23 -26q-7 -30 -22 -43q-26 -23 -96 -23q-11 -41 -31 -101q45 -20 92 -20q85 0 118 62q16 30 16 65zM151 399q-17 1 -38 1q4 -30 22 -56z" />
<glyph unicode="g" horiz-adv-x="372" d="M449 268q0 -54 -32 -108.5t-79 -81.5q-52 -30 -104 -36q55 -21 92.5 -67t37.5 -102q0 -52 -29.5 -102.5t-75.5 -76.5q-103 -59 -213 -59q-44 0 -84 10q-154 38 -193 153q-14 41 -14 83q0 126 109 186q58 32 114 32q21 0 43 -5q-13 2 -28 2q-69 0 -123 -30 q-98 -55 -98 -178q0 -43 15 -84q40 -109 189 -147q43 -11 91 -11q102 0 187 49q44 26 72.5 75t28.5 100q0 84 -103 155q31 -25 31 -60q0 -18 -11 -40q-40 -80 -174 -80q-52 0 -95 16q-57 22 -57 66q0 45 84 84q14 7 46 22q-46 23 -46 51q0 44 79 86q-58 42 -58 102 q0 61 49.5 107t110.5 46q50 0 72 -35q13 2 38.5 18t45.5 17q27 2 27 -23q0 -14 -12 -18q31 -14 49 -47t18 -69zM254 362q0 57 -41 57q-43 0 -80 -81q-32 -70 -32 -116q0 -56 36 -52q40 4 81 81q36 68 36 111zM439 263q0 71 -59 108q-26 16 -44 18q-31 3 -48 -8 q12 -32 14 -61q3 -63 -46 -110.5t-113 -47.5q-4 0 -12.5 2.5t-13.5 2.5q-12 0 -31.5 -19t-19.5 -31q0 -19 44 -35q29 -8 59 -16t56 -20q124 11 184 112q30 52 30 105zM250 -62q0 39 -91 70q-57 19 -71 23q-43 -19 -61 -34q-31 -26 -31 -61q0 -43 40 -66q33 -18 79 -18 q48 0 85 18q50 24 50 68z" />
<glyph unicode="h" horiz-adv-x="405" d="M365 375q0 -29 -25 -94l-37 -95q-8 -19 -28 -73q-5 -13 -13 -46q-2 -14 12 -16q15 -2 64 66l2 -2l-1 -2q-23 -37 -56 -69q-42 -42 -72 -42q-26 0 -25 25q1 16 24 77q11 27 31 81q6 17 32 79q21 50 27 81q5 15 5 25q0 19 -16 14q-54 -8 -137 -144q14 2 110 38 q-59 -34 -114 -44q-39 -64 -107 -229h-57q-144 -157 -356 -157q-109 0 -185 33q-55 25 -88 52q-63 51 -97 110q-24 41 -24 44h1q3 0 28 -43q32 -54 94 -105q33 -27 87 -51q58 -25 97 -29q33 -3 70 -3q133 0 240.5 61t173.5 175q22 38 56 138q-97 5 -128 58q-24 41 -24 90 q0 93 83 205q62 84 150 84q12 0 35 -3t35 -3h53q5 0 14.5 1t14.5 1q-12 -38 -113 -281q-5 -14 -37 -94q1 -2 1 -4q4 0 7 5q28 47 69 82q50 44 95 44q29 0 29 -40zM221 606q0 12 -4 22q-17 30 -52 30t-78.5 -25t-65.5 -53.5t-49 -78.5q-37 -69 -37 -127q0 -131 149 -139 l29 71q37 90 90 232q18 48 18 68z" />
<glyph unicode="i" horiz-adv-x="261" d="M277 594q0 -32 -33 -39q-8 -3 -45 -6q-63 -6 -70 -53q-4 -25 20.5 -47t50.5 -22q23 0 23 -25q0 -14 -37 -106l-50 -124q55 14 103 48q-9 -7 -30 -23q-10 -6 -24 -13q-28 -14 -53 -20l-34 -84q-8 -21 -8 -28q1 -13 9 -13q20 0 86 89l3 -2q-31 -45 -65 -79q-47 -46 -77 -46 q-28 0 -28 26t42 124l3 7q-58 13 -52 90q3 32 58 91q6 6 72 61q20 16 41 24q-25 4 -47 22q-26 20 -23 43q3 29 41 50q31 18 65 20q-21 12 -21 33q0 18 12.5 30t30.5 12q16 0 26.5 -12t10.5 -28zM154 377q0 11 -10 11q-20 0 -71 -54q-31 -33 -36 -40q-20 -25 -21 -48 q-2 -29 9 -51q13 -27 40 -31q28 60 53 121l28 67q8 19 8 25z" />
<glyph unicode="j" horiz-adv-x="254" d="M392 479q0 -41 -18 -73q-20 -37 -57 -43q-12 -2 -27 -2q-48 0 -71 35q-2 -32 -20 -88l-27 -86q-11 -34 -38 -115q-55 -170 -158 -238q-5 -3 -14 -9q-54 -32 -143 -34q-208 -6 -332 209q-64 111 -64 250q0 107 34 188q46 109 145 175l6 4q42 28 107 28q111 0 162 -89 q28 -49 28 -105q0 -46 -19 -98q-48 -132 -153 -192l-4 -3q-48 -27 -112 -35l12 8q87 10 156 75q62 59 95 148q19 52 19 99q0 55 -26 100q-50 86 -160 86q-58 0 -107 -28q-92 -53 -143 -174q-34 -81 -34 -188q0 -140 63 -248q115 -198 334 -200q53 -1 81 7h-9 q-14 0 -26.5 8.5t-10.5 22.5q3 23 29 25q21 1 34 -12l4 -4q14 -14 23 -14q30 0 62 88q64 174 127 372q3 9 3 28q0 12 -12 12q-21 0 -62 -60q-6 -12 -18 -34l-9 7q86 145 151 145q15 0 25 -19l4 -8q19 -36 67 -36q10 0 27 3q64 11 64 101q0 48 -20 82q-24 40 -69 43 q-30 2 -42 0q-6 -2 -14 -2q-17 0 -27.5 11.5t-10.5 28.5t12 29.5t29 12.5q16 0 28.5 -13.5t12.5 -29.5t-13 -27q20 4 38 2q43 -4 67 -45q21 -35 21 -81z" />
<glyph unicode="k" horiz-adv-x="391" d="M1105 52q0 -90 -44 -183q-41 -87 -110 -153q-96 -93 -246 -116q-51 -8 -96 -8q-197 0 -314 116q-55 55 -82 107q-34 66 -70 204q-10 38 -41 126q-22 -50 -60 -146q-8 1 -33 2q-18 1 -31 -1q9 19 37 82q84 189 197 492q5 12 7 27q7 40 -33 45q-4 1 -15 2l1 3q27 -1 52 1 q10 -1 32 2q61 17 61 102q0 98 -87 161q-79 58 -180 58q-122 0 -211 -99q-84 -94 -94 -218q-2 -26 -2 -38q0 -181 146 -291q89 -67 162 -66q-84 4 -175 64t-120 136q-26 69 -26 146q0 32 1 45q9 125 102 224q96 103 219 103q102 0 183 -60q88 -66 88 -165q0 -56 -18 -97h1 q-5 -15 -16 -43l-116 -292q87 98 157 98q20 0 34.5 -13t14.5 -33q0 -59 -138 -162q-25 -18 -86 -56q5 -16 35 -125l39 -141q31 -101 59 -123q19 -15 41 -15q35 0 50 29q1 1 6 42q3 26 25 26q24 0 24 -25q0 -19 -19 -44q-30 -40 -87 -40q-37 0 -65 18l3 -4q18 -23 37 -42 q114 -116 289 -116q55 0 116 10q249 40 348 263q37 85 37 168q0 134 -96 215q-54 46 -108.5 63t-128.5 14q-56 -2 -102 -19l11 8q64 24 105 26q74 3 126.5 -14.5t108.5 -65.5q95 -81 95 -214zM329 341q0 21 -15 35t-36 14q-30 0 -71 -40q-34 -33 -46 -62q-9 -21 -27 -67 q8 -21 20 -55q175 100 175 175z" />
<glyph unicode="l" horiz-adv-x="256" d="M1171 165q0 -80 -51 -212q-38 -98 -127 -191q-78 -82 -152 -123.5t-185 -66.5q-92 -21 -170 -21q-158 0 -283 78q-131 81 -187 224q-24 61 -24 132q0 63 24 122l200 489q9 22 11 34q3 15 -16 20q-12 4 -29 2l2 7h27q5 0 26 12q62 35 57 124q-6 93 -80 161q-86 79 -227 79 q-49 0 -105 -11q-140 -27 -275 -125q-144 -105 -191 -229q38 123 189 232q191 138 377 138q135 0 232 -66q111 -75 111 -204q0 -60 -20 -109l-54 -132l-99 -244l-80 -200q-13 -33 -13 -37q0 -11 11 -11q33 0 105 117l2 -2q-35 -54 -53 -77q-59 -74 -107 -74q-7 0 -10 4 q-2 -82 24 -148q53 -135 178 -214q120 -76 269 -76q84 0 184 25q104 25 174 64.5t140 111.5q84 86 125 186q58 142 58 224q0 71 -38 143t-96 116q-53 39 -134 56q82 -17 136 -55.5t97 -111.5q47 -79 47 -161z" />
<glyph unicode="m" horiz-adv-x="617" d="M1270 2q-13 -21 -50 -70q-72 -84 -218 -191q-174 -127 -291 -144q-23 -3 -45 -3q-129 0 -194 112q-32 55 -32 134q0 69 22 140q11 36 51 131q-66 -91 -112 -108q-8 -3 -25 -3q-18 0 -31 9q-16 10 -16 27q0 32 24 32q22 0 22 -23q0 -3 -2 -14q-6 -25 15 -25q45 0 104 157 q48 128 48 185q0 41 -22 41q-29 0 -54 -27q-114 -124 -231 -357h-56q38 77 84 190q56 139 56 174q0 23 -12 26q-39 8 -147 -160q-52 -81 -89 -159q-9 -21 -33 -74q-8 3 -21 3h-32q-88 -15 -224 -3q-144 13 -144 88q0 36 35 79q30 36 66 57t39 21v0q-8 -7 -39 -25 q-36 -20 -63 -57q-32 -41 -32 -77q0 -67 140 -80q131 -12 225 4l52 140l42 105q36 90 36 102q0 11 -8 13q-20 6 -54 -47q-16 -25 -37 -63l-1 1q55 140 119 145q12 1 19.5 -8t6.5 -21q-2 -44 -44 -147q-5 -13 9 -13q5 0 10 6q13 23 28 45q24 36 51 69q69 85 128 85 q35 0 35 -32q0 -27 -28 -114q-9 -17 -19 -47q-1 -5 3 -8q3 -2 9 1q43 73 96 129q67 71 114 71q43 0 43 -65q0 -76 -43 -183q-14 -35 -45 -102q-45 -99 -45 -200q0 -88 37 -152q61 -106 192 -106q41 0 85 10q152 34 409 291q23 22 84 85z" />
<glyph unicode="n" horiz-adv-x="459" d="M430 284q0 -89 -38 -165q-74 -149 -202 -240q-177 -126 -346 -138q-114 -8 -200 64t-86 186q0 19 3 42q-1 -18 -1 -34q0 -107 80 -177q77 -67 185 -67q177 0 345 117q134 93 209 244q45 90 45 176q0 13 -1 25q-12 -108 -88 -218q-68 -99 -129 -99q-18 0 -31 11t-13 28 q0 37 30 37q24 0 24 -26q0 -6 -4.5 -16t-4.5 -14q0 -14 17 -14q50 0 104 173q30 98 30 153q0 22 -10 42q-12 24 -31 24q-52 0 -134 -146q-14 -25 -62 -141l-44 -106q3 0 -56 -1q1 5 5 16l99 267q29 78 29 87q0 15 -12 15q-16 0 -49 -42q-29 -36 -44 -65l-3 1q26 67 95 120 q31 24 48 24q23 0 23 -32q0 -36 -29 -117q-2 -5 2 -7t7 2q88 152 160 152q54 0 71 -76q7 -31 7 -65z" />
<glyph unicode="o" horiz-adv-x="347" d="M306 339q1 -27 -1 -41q-34 -204 -155 -277q-35 -21 -61 -21q-41 0 -60 44q-14 32 -14 79q0 30 5 59q-101 -4 -145 54q-21 28 -21 62q0 46 34 95q31 45 74 70q62 36 143 36q130 0 183 -95q16 -29 18 -65zM278 412q-54 79 -176 79q-140 0 -211 -101q-32 -45 -32 -90 q0 -33 18 -58q41 -58 145 -54q17 78 76 148q77 91 137 91q28 0 43 -15zM268 376q0 43 -33 43q-53 0 -142 -220q51 11 137 44q-78 -37 -140 -51q-1 -2 -30 -89q-7 -19 -7 -40q0 -49 33 -57q27 -7 68 59q15 24 44 84q40 82 58 154q12 48 12 73z" />
<glyph unicode="p" horiz-adv-x="419" d="M380 277q0 -84 -42 -154q-43 -74 -118 -104q-40 -16 -68 -16q-31 0 -70 19q-1 -1 -7 -14q-33 -71 -49 -115q-3 -8 3 -21q9 -21 54 -21l-1 -4q-5 -3 -45 -1q-73 4 -64 4q-3 0 -31 -2q-70 -105 -140 -156q-80 -58 -195 -72q-41 -5 -68 -5q-48 0 -108 19q-74 24 -116 54 q-48 34 -84 96q-44 76 -44 150q0 24 3 51q14 127 104 214.5t216 87.5q160 0 257 -131q25 13 56 13q61 0 86 -43q12 -21 12 -45q0 -78 -87 -119q2 -64 -15 -105q28 -9 54 -9q50 0 76 32q5 6 22 34q32 66 73 173l68 176q13 32 46 117q-66 -24 -114 -89l-2 1q59 80 121 113 l33 74q-15 -7 -40 -18q-188 -79 -341 -83q-220 -5 -293 120q-13 22 -13 46q0 34 24.5 70.5t53.5 51.5l4 2q70 35 156 35q143 0 187 -75q15 -26 15 -53q0 -38 -25 -62l-17 -10q35 35 35 77q0 25 -12 45q-43 73 -184 73q-152 0 -209 -86q-22 -33 -22 -67q0 -23 12 -44 q65 -112 311 -105q157 4 322 72q18 7 39 17l1 1q16 5 46 15q13 4 29 12l-34 -86q66 0 102.5 -40.5t36.5 -109.5zM320 296q0 44 -22.5 75.5t-65.5 35.5q-49 -125 -150 -378q28 -17 53 -17q54 0 106 69q79 105 79 215zM-84 82q0 22 -11 41q-23 41 -83 41q-28 0 -52 -11 q60 -83 64 -187q34 16 58 48.5t24 67.5zM-171 -41q-10 -4 -32 -12l21 13q6 2 11 4q-4 103 -65 186q-84 -46 -84 -134q0 -39 20 -74q32 -56 114 -84q17 40 15 101zM-71 -153l-10 -1q-10 -1 -37 -4q-33 -4 -68 5q-12 -24 -33 -51q-84 -104 -205 -104q-69 0 -150 39 q102 -34 147 -34q118 0 203 104q23 29 33 47q-83 23 -120 87q-20 34 -20 73q0 92 93 146q-97 129 -251 129q-122 0 -213 -88t-103 -211q-2 -21 -2 -42q0 -71 37.5 -139t98.5 -105q42 -25 122 -48q60 -17 105 -17q34 0 79 8q102 18 171 68q65 47 123 138z" />
<glyph unicode="q" horiz-adv-x="382" d="M900 205q-12 -104 -135 -212q-62 -54 -128 -82q-111 -47 -195 -63q-98 -18 -204 -5q-40 5 -99 5q-13 0 -43.5 -3t-46.5 -2q-4 0 -17 1l1 2q57 4 83 46q-45 43 -39 95q1 6 3 14q-33 0 -52 32q-15 26 -15 62q0 88 68 194q72 111 153 134q18 5 26 5q35 0 56 -33q1 -2 3 -2 q5 0 17 29q33 -1 56 1q-35 -76 -120 -289q-93 -234 -93 -254q0 -15 13 -23q22 -7 53 -11q160 -19 373 72q69 29 133 80q70 56 105 115q33 56 38 93q8 62 -67 106l14 -2q67 -39 59 -105zM300 377q0 41 -32 41q-44 0 -111 -116q-100 -173 -100 -255q0 -35 25 -39 q24 78 132 143q86 152 86 226zM208 139q-98 -64 -121 -131q47 2 121 131zM180 47q-62 -43 -95 -46q-2 -8 -3 -14q-6 -47 37 -89q4 7 61 149z" />
<glyph unicode="r" horiz-adv-x="367" d="M397 384q0 -40 -39 -37q-14 1 -23 22q-12 27 -34 27q-15 0 -35 -19q-44 -42 -88 -143q-22 -53 -67 -159q-9 -22 -29 -70q-43 -3 -73 -32q-22 -22 -67 -66q-79 -72 -197 -111q-109 -36 -224 -36q-288 0 -388 172q-26 45 -26 88q0 68 59 119q52 45 123 58 q-169 -66 -169 -171q0 -41 26 -86q100 -173 378 -173q107 0 207 32q110 34 184 98q80 69 115 132q36 83 112 271q5 14 19 49q4 7 12 34q2 7 -7 11l-9 2q-23 -1 -100 -109l-3 1q29 47 65 86q50 54 80 54q24 0 24 -32q0 -30 -11 -81q43 61 65 82q35 33 74 33q19 0 32.5 -13.5 t13.5 -32.5z" />
<glyph unicode="s" horiz-adv-x="347" d="M437 385q0 -33 -24 -71q-23 -34 -53 -55q-25 -17 -58 -17q-38 0 -53 28q-6 11 -6 24q0 30 29 51q26 20 57 19q-28 -4 -53 -23q-28 -21 -28 -47q0 -10 5 -21q14 -21 38 -21q41 0 77 43t36 85q0 19 -9 35q-18 33 -54 33q-24 0 -49 -15q-59 -35 -95 -103q-23 -44 -51 -131 q-48 -152 -102 -237q-34 -54 -59 -78q-40 -36 -88 -36q-16 0 -32 8.5t-14 23.5q4 28 29 28q13 0 32 -16t30 -16q24 0 50 47q12 22 28 64q18 46 40 113q-73 -101 -153 -101q-43 0 -70 46q-13 22 -13 50q0 34 19 65t49 48q26 15 56 15q23 0 41 -12t18 -34q0 -36 -45 -62 q-17 -10 -40 -13q11 4 36 16q37 22 37 52q0 10 -5 18q-15 24 -46 24q-23 0 -44 -12q-70 -41 -70 -109q0 -23 12 -43q21 -36 63 -36q43 0 86 37q39 33 67 89q15 31 50 136q21 68 82 239q46 121 110 133q32 6 36 5q48 -7 45 -28q-4 -23 -24 -24q-12 -1 -23 13q-19 23 -33 23 q-28 0 -57 -86q-15 -54 -30 -107q-7 -23 -23 -85q31 59 88 92q36 21 69 21q41 0 70 -33q19 -22 19 -52z" />
<glyph unicode="t" horiz-adv-x="279" d="M795 245q0 -73 -37 -155q-34 -77 -88 -132q-74 -76 -189 -122t-223 -46q-127 0 -195.5 63.5t-56.5 174.5q5 45 48 158q-11 -2 -23 -2q-79 0 -120 70q-7 12 -11 24q-44 -10 -84 -10q-126 0 -168 72q-15 26 -15 52q0 97 119 161q100 54 205 54q157 0 234 -106q23 8 69 25 q-12 -27 -38 -89l2 -8l47 1h36l-10 -24q-23 -1 -71 -1q2 -55 -21 -103q-24 -51 -69 -79q-54 -139 -54 -162q0 -9 3 -11q15 -6 55 31q7 7 40 39q5 -7 -58 -62q-67 -58 -99 -54q-2 1 -5 2q-7 -88 57 -145q32 -28 67 -40q60 -21 132 -21q103 0 207 41t174 113q127 131 127 274 q0 71 -40 127q-58 82 -182 82q-75 0 -151 -29l11 9q82 34 158 34q120 0 180 -85q37 -53 37 -121zM219 404h-7q-20 -43 -68 -162l-3 -8q80 69 78 170zM185 499q-27 33 -73 62q-62 39 -150 39q-99 0 -198 -51q-118 -60 -118 -150q0 -71 79 -102q36 -14 94 -14q37 0 77 7 q-5 18 -5 32q0 58 76 55q-70 3 -70 -60q0 -12 4 -26q121 23 175 84q19 21 34 53l45 1q9 23 26 68zM143 402q-11 0 -27 -1q-91 -91 -211 -121q28 -83 129 -83q13 0 25 2q2 4 24 58z" />
<glyph unicode="u" horiz-adv-x="433" d="M1129 423q0 -109 -44 -220q-36 -90 -91 -152q-151 -169 -397 -243q-57 -17 -116 -17q-125 0 -204 64l-4 4q-78 -79 -164 -128q-51 -29 -101 -29q-83 0 -125 66q-35 54 -35 141q0 99 49 200q37 76 114 174q51 65 106 110q40 33 65 33q23 0 23 -36q0 -28 -40 -128 q-22 -53 -45 -106q-35 -87 -35 -100q0 -19 17 -19q19 0 60 45q86 95 150 238q8 16 27 59q5 13 20 47q8 -5 29 -7q14 -1 26 1l-100 -233q-51 -119 -51 -138q0 -10 10 -10q18 0 82 83l2 -1q-28 -44 -61 -75q-44 -42 -77 -42q-9 0 -15 4v-7q0 -43 22 -73q15 -20 57 -51 q20 22 72 74q-23 -27 -68 -77l6 -5q74 -62 203 -62q64 0 121 17q94 28 193 88.5t165 131.5q57 62 96 155q50 120 50 234q0 112 -49 196q-72 123 -189 175q-101 44 -256 44q-35 0 -61 -1q-100 -4 -230 -80q-147 -86 -214 -245l-9 -6q68 163 220 254l5 3q127 76 230 80 q26 1 63 1q157 0 258 -46q116 -53 188 -178q52 -90 52 -207zM269 -138q-75 61 -75 137q0 64 44 158q3 7 6 22q-63 -109 -154 -162q-27 -16 -46 -16q-25 0 -25 37q0 20 41 122l68 169q13 32 13 42q0 15 -13 15q-22 0 -111 -107q-158 -190 -158 -367q0 -22 3 -50 q8 -76 39 -110q43 -47 107 -47q48 0 96 28q88 51 165 129z" />
<glyph unicode="v" horiz-adv-x="465" d="M440 318q0 -117 -107 -210q-91 -78 -217 -112l-16 -4q106 136 96 305q-6 109 -39 161q-20 32 -31 43q-18 18 -45 18q-24 0 -38.5 -16t-14.5 -40q0 -32 25 -69l-2 -1q-37 51 -37 88q0 34 23.5 57.5t57.5 23.5q44 0 67 -17q-81 106 -222 158q-110 41 -228 41 q-171 0 -314 -82q-146 -84 -224 -233t-78 -359q0 -279 160 -429q143 -134 348 -134q157 0 319 78q151 72 267 193q-106 -125 -266.5 -201t-322.5 -76q-215 0 -358 136q-156 148 -156 424q0 426 309 606q146 85 317 85q97 0 202 -33q109 -34 183 -91q63 -48 106 -132 q33 -65 46 -159q8 39 35 66.5t65 27.5q44 0 69 -36q21 -31 21 -77zM383 302q0 87 -65 87q-67 0 -67 -92q0 -129 -73 -267q205 99 205 272z" />
<glyph unicode="w" horiz-adv-x="560" d="M536 350q0 -134 -146 -288q-23 -24 -72 -64q-2 0 -7 -1q2 12 6 38q26 163 21 269q-100 -179 -238 -307h-4q42 108 38 237q-49 -48 -123 -90q-122 -69 -230 -69q-64 0 -125 25q-117 47 -180 157q-51 88 -51 188q0 93 43 174t120 132q-244 -24 -364 -173 q-105 -130 -105 -281q0 -54 14 -105q51 -186 217 -280q147 -83 351 -78q94 2 171 26q196 60 362 176q-168 -127 -359 -183q-86 -25 -186 -27q-218 -3 -352 79q-168 103 -216 284q-12 45 -12 99q0 173 95 291q127 158 396 179q96 56 231 56q88 0 178 -23q200 -51 307 -230 q35 -59 68 -187q44 57 85 57q33 0 50 -23.5t17 -57.5zM494 300q0 34 -14 62q-17 34 -47 34q-24 0 -49 -29q9 -62 9 -123q0 -80 -20 -186q121 125 121 242zM360 439q-25 79 -53 122q-116 177 -300 224q-90 23 -181 23q-131 0 -217 -50q27 2 115 -11q261 -38 396 -269 q30 -50 39 -83q34 108 114 108q60 0 87 -64zM335 326q-19 145 -96 145q-58 0 -73 -84q13 -27 20 -77q7 6 17 15l-16 -24q5 -39 5 -74q0 -90 -16 -137q103 112 159 236zM144 421q-8 21 -28 52q-74 119 -166 181.5t-230 87.5q-72 13 -123 9q-78 -49 -121.5 -129t-43.5 -173 q0 -99 50 -186q62 -109 178 -156q61 -25 123 -25q106 0 231 71q77 44 120 89q-3 57 -21 111q-26 76 -69 76q-21 0 -35.5 -18t-14.5 -40q0 -36 22 -78q-2 -1 -3 -2q-25 44 -25 83q0 38 23 67t60 29q42 0 73 -49z" />
<glyph unicode="x" horiz-adv-x="435" d="M774 175q0 -165 -128 -251q-83 -56 -167 -56q-55 0 -116 24q-122 48 -177 278q-24 -37 -74 -109q-39 -51 -78 -62q-65 -47 -169 -82q-107 -36 -183 -34q-180 5 -294 122.5t-114 297.5q0 125 55 232q58 113 161 175q114 69 225 69q56 0 121 -16q69 -18 115 -45 q144 -85 211 -248q22 -54 58 -184q2 -7 7 -26q99 167 149 167q33 0 33 -53q0 -35 -20 -76h-1q9 36 9 52q0 42 -36 42q-43 0 -130 -144q4 -8 30 -97q19 -64 36 -92q6 -10 15 -10q21 0 56 80l3 -1q-34 -90 -100 -125q28 -56 85 -93t119 -37q79 0 167 60q121 82 121 238 q0 114 -69 205q-85 112 -244 112q-90 0 -186 -36q105 46 199 46q149 0 239 -114q72 -91 72 -209zM183 182q-9 39 -27 99q-5 19 -17 58q-15 45 -31 45q-15 0 -36 -42q-16 -32 -22 -49l-3 1q49 132 101 132q1 0 4 -1q-81 197 -232 279q-100 54 -224 54q-110 0 -204.5 -57.5 t-147.5 -154.5q-63 -114 -63 -244q0 -179 112 -293.5t291 -119.5q75 -2 179 32q101 33 165 78l3 3q-27 4 -27 47q0 39 18 82l4 -1q-9 -31 -9 -48q0 -18 12 -30t30 -12q37 0 124 142z" />
<glyph unicode="y" horiz-adv-x="375" d="M345 376q0 -45 -35 -156t-119 -263q-16 -29 -35 -48q-68 -109 -271 -176q-176 -58 -339 -57q-75 1 -185 44q-80 32 -139 80q-178 146 -178 341q0 115 85 247q57 88 161 142t211 54q165 0 283 -94q128 -102 128 -263q0 -61 -37 -136q-37 -78 -86 -111q51 48 83 113 q34 69 34 135q0 160 -127 259q-116 91 -280 91q-175 0 -300 -115q-129 -118 -129 -292q0 -73 20 -126q15 -39 58 -107q73 -115 187 -171q97 -47 255 -64q28 -3 59 -3q206 0 397 118q13 8 43 37q-25 -12 -45 -12t-35 9q-18 11 -18 30q0 12 9.5 21t21.5 9q11 0 31.5 -20 t32.5 -20q14 0 36 18q26 30 35 62q7 25 7 71q0 162 -26 296q-4 20 -9 37q-9 31 -26 31q-34 0 -66 -117l-3 1q27 113 79 143q21 12 30 12q27 0 40 -39q33 -100 39 -360q81 154 81 252q0 18 -6 54.5t-6 54.5q0 38 28 38q26 0 26 -50z" />
<glyph unicode="z" horiz-adv-x="374" d="M875 -196q0 -118 -62 -194q-65 -80 -180 -89q-90 -7 -183 54q-75 49 -140 134q-21 28 -40 61q-82 -100 -196 -159q-119 -62 -243 -62q-110 0 -211 55.5t-161 148.5q-48 75 -66 187q-7 45 -7 84q0 181 110.5 304.5t290.5 151.5q76 12 147 12q105 0 178 -26q32 -12 96 -37 q61 -23 105 -31q12 0 27 8q22 11 26 12q10 0 10 -5q0 -7 -18 -27q-13 -13 -46 -49q147 -5 292 -99q139 -91 215 -223q56 -98 56 -211zM287 340q-19 5 -117 44q-42 17 -66 17q-31 0 -31 -26q0 -29 18 -40l36 -22q6 -5 7 -12q71 35 151 37zM859 -175q0 110 -46 189 q-76 130 -216 220q-144 93 -290 98q-72 -85 -221 -250q50 -18 93 -78q21 -30 62 -89q37 -52 69 -85q54 78 53 274q6 -199 -49 -278q60 -62 115 -62q23 0 43 10q24 13 24 34q0 7 -12 18q-8 9 -8 17q0 28 32 28q37 0 37 -40q0 -36 -42 -61q-37 -22 -75 -22q-64 0 -136 49 q-5 -7 -16 -20q17 -29 41 -59q62 -77 141 -124q89 -53 179 -53q111 0 171 90q51 78 51 194zM288 -200q-36 25 -71 65l56 -84q5 6 15 19zM280 332q-77 -3 -145 -36q-2 -25 -29 -25q-7 0 -13 2q-23 -16 -51 -33l-5 -3l-2 4q29 20 53 34q-37 19 -37 73q0 46 42 66q25 12 49 12 q26 0 99 -17l-135 48q-71 25 -175 25q-73 0 -155 -13q-175 -28 -280 -148t-105 -296q0 -42 6 -82q17 -110 66 -185.5t143 -136.5q103 -67 228 -67q121 0 240 63q110 58 193 157l-78 116q-47 69 -89 106q-35 31 -63 31q-7 0 -22 -10q-19 -14 -21 -15q-4 1 -4 6q2 3 9 11 q105 112 281 313z" />
<glyph unicode="{" horiz-adv-x="394" d="M431 694l-2 -4q-107 -7 -142 -120l-62 -197q-24 -77 -112 -96l-3 -12q57 -11 57 -57q0 -29 -28 -119q-19 -59 -38 -119q-6 -20 -6 -41q0 -70 66 -76v-1l-4 -6q-77 1 -97 10q-35 16 -35 59q0 30 11 65l48 152q22 70 22 83q0 48 -79 52q2 4 3 7q71 4 103 41q17 19 36 86 q38 129 40 137q31 86 70.5 122.5t151.5 33.5z" />
<glyph unicode="|" horiz-adv-x="338" d="M275 -85q0 -37 -3 -77q-7 0 -23.5 -11.5t-23.5 -12.5q2 28 2 57q0 75 -20.5 224t-20.5 224q0 115 35 221q22 65 48 123q-45 -188 -45 -321q0 -71 25.5 -212t25.5 -215z" />
<glyph unicode="}" horiz-adv-x="394" d="M432 625q0 -31 -11 -66l-48 -151q-22 -69 -22 -83q0 -48 79 -53l-1 -1q-1 -2 -2 -5q-71 -4 -103 -41q-17 -19 -36 -86q-38 -129 -40 -137q-31 -86 -69 -121q-41 -38 -153 -36l2 5q107 7 142 119l62 198q24 76 112 96l3 12q-57 11 -57 56q0 30 28 119q19 59 38 119 q6 20 6 42q0 38 -15 55t-52 21l1 1l4 6q76 -2 97 -11q35 -15 35 -58z" />
<glyph unicode="~" horiz-adv-x="490" d="M537 721q-59 -87 -129 -87q-29 0 -89 21t-90 21q-46 0 -93 -56l-6 4q59 91 135 91q29 0 84.5 -20.5t84.5 -20.5q51 0 95 51z" />
<glyph unicode="&#xa1;" horiz-adv-x="239" d="M565 463q0 -141 -91.5 -241t-231.5 -108q-17 -1 -43 -1q-43 0 -90 11l-6 -28q-4 -18 -15 -64q-14 -37 -40 -37q-37 0 -37 37q0 24 21 77l15 38q-67 35 -105 101q-36 63 -36 141q0 34 25 95q1 4 4 2q4 -1 2 -4q-24 -61 -24 -93q0 -74 37 -135t102 -94l23 62q25 64 48 122 l33 82q3 9 13 34l6 -1q-1 -6 -4 -22l-60 -299q47 -11 88 -11q26 0 43 1q168 10 260 147q-14 -8 -32 5q-29 20 -29 87q0 15 15 132q2 18 0 22q-2 2 -5 2q-5 0 -54 -75q-24 -37 -44 -37q-27 0 -27 51q0 7 4 50q0 2 1 2q2 -1 2 -3q-4 -42 -4 -49q0 -47 23 -47q14 0 36 31 q19 34 37 60.5t27 26.5q19 0 15 -35q-3 -24 -8 -87q-6 -110 31 -110q27 0 38 23q31 66 31 139q0 34 -11 80q-18 75 -83 127t-142 52q-32 0 -63 -13q-37 -16 -45 -43h8q13 0 25.5 -15.5t12.5 -29.5q0 -19 -15 -32t-35 -13q-19 0 -31 13t-12 32q0 18 12.5 32t30.5 15 q10 29 46 45q31 14 66 14q78 0 144 -53t85 -129q13 -53 13 -82z" />
<glyph unicode="&#xa2;" horiz-adv-x="300" d="M338 207q0 -150 -136 -243q-45 -31 -86 -31q-25 0 -45 12h-1q-51 31 -51 101v18q-5 20 -5 43q0 35 12 81q-17 -9 -33 -9q-21 0 -33 14.5t-12 35.5q0 73 68 128q65 52 140 52q9 0 18 -1q22 12 45 17l20 61l11 2l-20 -60q4 1 12 2q17 3 33 -5.5t16 -25.5q0 -23 -20 -24 q-5 0 -11 2q78 -55 78 -170zM252 382q-4 4 -4 12q-1 7 0 10q3 16 -20 16l-7 -22q17 -7 31 -16zM217 420q-9 -3 -26 -13l-1 -1q11 -2 21 -5zM208 394q-11 4 -24 6q-8 -8 -19 -25q-41 -64 -72 -172q32 31 69 49q23 76 46 142zM327 207q0 61 -26 110q-29 53 -82 74l-41 -132 q43 18 91 18q26 0 42 -4q-8 1 -20 0t-19 -1q-50 0 -98 -25l-73 -235q3 -1 16 3q53 16 96 106q-3 -35 -41.5 -76.5t-73.5 -44.5l-13 -37q20 -8 41 -8q30 0 62 22q139 94 139 230zM165 402h-9q-73 0 -135 -49q-67 -53 -67 -124q0 -45 39 -45q17 0 35 10l1 6q41 141 136 202z M157 237q-42 -27 -72 -63q-17 -65 -17 -104q0 -35 23 -57q39 136 66 224zM87 -2q-28 0 -54 35q6 -48 44 -67q6 20 10 32z" />
<glyph unicode="&#xa3;" horiz-adv-x="487" d="M598 355q-104 105 -241 105q-11 0 -23 -1q-4 -17 -8 -33l5 33q-40 -3 -80 -14q-13 -44 -25 -79q107 0 162 -16q74 -21 119.5 -87.5t39.5 -142.5q-9 -111 -102 -183q-88 -68 -202 -68q-36 0 -70 7q-125 26 -175 133q-12 -4 -23 -4q-13 0 -13 12q0 17 21 34q-8 31 -8 64 q0 134 92 236q-202 8 -202 174q0 102 81 168q75 62 179 62q62 0 116.5 -34t82.5 -89q57 40 121 40q31 0 59 -15q33 -18 33 -46q0 -24 -28 -24q-10 0 -43.5 34.5t-67.5 34.5q-37 0 -69 -36q17 -39 17 -81q0 -21 -8 -62q9 1 19 1q136 0 241 -123zM341 539q0 39 -16 76 q-37 -46 -68 -150q38 10 77 12q7 38 7 62zM319 629q-27 53 -80.5 85.5t-113.5 32.5q-99 0 -171 -61q-76 -64 -76 -161q0 -158 201 -162q46 47 107 76q64 140 133 190zM174 413q-38 -21 -69 -50q17 1 49 1q10 26 20 49zM536 154q0 63 -47 115q-43 48 -106 66q-59 17 -157 17 h-4q-9 -25 -18 -48q22 -2 98 -1l-3 -5q-3 -5 -4 -10q-8 0 -23.5 -1t-23.5 -1h-52q-38 -88 -109 -189l48 26q30 16 54 16q35 0 57 -27q11 -14 27 -34q52 -67 87 -67q25 0 47 23.5t22 48.5q0 20 -14 20q-6 0 -16 -7t-17 -7q-27 0 -27 28q0 32 30 32q21 0 36.5 -16.5 t15.5 -37.5q0 -56 -46 -85q-35 -22 -72 -22q-52 0 -105 59t-77 59q-5 0 -57 -18q-11 -14 -28.5 -35.5t-36.5 -34.5q48 -94 163 -118q19 -4 42 -4q156 0 240 82q33 32 54.5 81.5t21.5 94.5zM149 351q-36 -1 -58 -1q-98 -99 -98 -235q0 -27 6 -52q16 10 41 22q38 43 85 203 q-26 0 -73 -1q1 2 6 15q25 0 72 2q10 26 19 47z" />
<glyph unicode="&#xa4;" horiz-adv-x="366" d="M823 577q0 -80 -69.5 -149.5t-150.5 -73.5q-51 -3 -142 14q-98 18 -142 18q-10 0 -24 -7q14 -33 14 -59q0 -63 -48.5 -110.5t-111.5 -47.5q-9 0 -27 6q-47 -31 -47 -48q0 -19 49 -38l66 -22q91 -30 130 -97q13 -22 13 -44q0 -72 -94 -139q-161 -114 -323 -122 q-112 -6 -202 31q-103 41 -154 129q-25 43 -25 93q0 88 70 180q65 86 150 126l2 -4q-84 -48 -145 -124q-72 -89 -72 -174q0 -51 25 -94q50 -86 159 -125q91 -32 205 -26q152 7 292 106q95 67 95 138q0 31 -26 63q1 -6 1 -12q0 -33 -27 -63q-24 -26 -58 -41q-42 -18 -92 -18 q-57 0 -100 17q-59 23 -59 67q0 46 84 84q22 10 47 22q-46 24 -46 51q0 44 78 86q-28 12 -44 43q-15 28 -15 60q0 62 51 107.5t114 45.5q43 0 66 -38q12 4 25 12q45 25 61 25q29 0 29 -23q0 -9 -9 -16q145 -30 211 -26q81 4 144.5 75.5t63.5 152.5q0 15 -2 28 q-14 92 -130 92q-73 0 -165 -35.5t-145 -78.5q-22 -20 -65 -59q-35 -31 -67 -31q-5 0 -14 2q-40 9 -40 74q0 13 2 29h1q14 -60 70 -60q33 0 85 36q26 20 79 56q119 73 243 73q125 0 151 -96q5 -18 5 -41zM265 368q0 52 -43 52t-79 -80q-30 -66 -30 -114q0 -18 11 -32t28 -15 q41 -2 79 76q34 69 34 113zM260 -66q0 41 -90 72l-72 25q-44 -19 -62 -34q-30 -25 -30 -61q0 -44 36 -67q30 -20 77 -20q70 0 115 37q26 21 26 48z" />
<glyph unicode="&#xa5;" horiz-adv-x="313" d="M430 151q0 -33 -17 -66q-38 -72 -116 -72q-45 0 -78 21q-6 4 -6 12q0 14 13 14q4 0 8 -2q30 -19 74 -19q59 0 90 46q18 27 18 59q0 83 -76 138q-68 50 -154 50h-19q-10 -20 -21 -44q5 1 67 -14q-45 11 -69 9q-62 -142 -62 -223q0 -47 30 -47t67 43q26 30 46 70l4 -1 q-23 -47 -55 -80q-41 -43 -82 -42q-21 -19 -21 -27q0 -7 10 -10q25 -8 33 -14q14 -11 14 -33q0 -31 -24 -47.5t-56 -16.5q-23 0 -41 7q-25 11 -23 30q-18 5 -33 19q-46 40 -46 130q0 77 54 145q52 65 126 91q14 25 30 46q-132 -34 -215 -173q-1 -2 -3 -1t-1 3 q87 144 224 177q74 98 151 98q18 0 34.5 -11t16.5 -28q0 -28 -24 -28q-17 0 -22 21q2 -7 2 16q0 20 -18 20q-46 0 -90 -80h16q92 0 162 -46q82 -53 82 -140zM88 -80q0 19 -13 27q-15 4 -29 9q-4 1 -4 3t41 43q-62 20 -62 81q0 78 59 185q-65 -28 -109 -92.5t-44 -134.5 q0 -77 40 -112q15 -14 41 -15q19 -1 25 -19q3 -18 11 -18q14 0 29 14.5t15 28.5z" />
<glyph unicode="&#xa6;" horiz-adv-x="357" d="M471 561q0 -56 -76 -124q-62 -48 -124 -97v-2h-3q-6 -5 -61 -54q-146 -129 -146 -292q0 -28 11 -70q17 -64 52 -105q43 -50 103 -50q59 0 103 38q4 3 6 3q10 0 10 -10q0 -4 -4 -7q-50 -43 -115 -43q-72 0 -126 45.5t-73 116.5q-13 49 -13 82q0 108 64 200q48 69 150 149 v321h42v-12q32 34 88 34q48 0 80 -37t32 -86zM271 -162h-42v310h42v-310zM462 571q0 44 -29.5 76t-73.5 32q-58 0 -88 -36v-270q69 48 135 95q56 40 56 103z" />
<glyph unicode="&#xa7;" horiz-adv-x="418" d="M459 615q0 -26 -29 -26q-16 0 -36 37q-22 42 -60 42q-50 0 -82.5 -38t-32.5 -89q0 -44 60 -89q26 -19 78 -58q44 -36 44 -78v-11q27 -31 25 -83q-3 -97 -96 -147q-2 -1 -3 1t1 4q40 20 65 59t27 83q1 42 -22 69q-17 -56 -116 -112l-5 -6q39 -38 39 -77q0 -60 -54 -112 q-72 -69 -183 -69q-40 0 -74 11q-49 16 -49 47q0 33 36 33q26 0 44 -33q25 -46 89 -46q52 0 84.5 33t32.5 85q0 62 -62 102q-18 10 -53 32q-61 39 -61 91q0 65 87 110q-47 35 -58 49q-25 30 -25 71q0 52 30.5 95t79.5 64q2 1 3 -2q1 -2 -1 -3q-41 -17 -70.5 -54t-34.5 -80 q-6 -46 24 -80q13 -15 68 -53q14 7 40 17l10 6l1 -1h1q-34 31 -46 48q-18 25 -18 55q0 52 45 99q57 60 144 61q37 0 69 -11q44 -16 44 -46zM331 272q0 39 -41 75q-12 15 -70 62l-11 -5q-19 -12 -32 -22q44 -31 72.5 -81t28.5 -102q0 -12 -1 -23l5 3q49 52 49 93zM253 189 q9 101 -89 182q-31 -30 -31 -66q0 -40 63 -79q14 -9 57 -37zM276 173zM277 176l-1 -3l-1 2z" />
<glyph unicode="&#xa8;" horiz-adv-x="419" d="M451 558q0 -34 -34 -34q-35 0 -35 35q0 34 35 34q14 0 24 -10.5t10 -24.5zM341 558q0 -34 -34 -34q-35 0 -35 35q0 34 35 34q14 0 24 -10.5t10 -24.5z" />
<glyph unicode="&#xa9;" horiz-adv-x="754" d="M767 663q0 -91 -50 -172q26 -59 26 -126q0 -102 -58 -192q37 24 69 53q3 -1 4 -4q-37 -33 -80 -59q-16 -24 -36 -44q-16 -36 -41 -72q-49 -71 -133 -110q-80 -37 -170 -37q-86 0 -153 35q-73 38 -107 111q-26 56 -26 116q0 83 49 159q8 98 61.5 180t139.5 128 q121 198 319 198q83 0 132 -39q54 -44 54 -125zM757 663q0 77 -51 116q-45 36 -124 36q-191 0 -304 -178q76 36 158 36q89 0 163.5 -46t112.5 -126q45 76 45 162zM728 361q0 64 -20 116q-25 -36 -60 -69q6 -20 6 -40q0 -26 -11 -63q22 -32 22 -78q0 -38 -9 -71l7 4 q65 92 65 201zM704 487q-17 40 -47 73q-92 101 -232 101q-82 0 -157 -40q-52 -86 -55 -160q4 3 13 8l43 22q32 40 124 86q2 1 3 -1t-1 -3q-83 -42 -114 -75q91 46 156 46q22 0 44 -5h2q27 0 64 -19q7 2 23 13l4 -1l-6 -29q60 -33 78 -87q34 33 58 71zM645 400l-1 5 q-27 -25 -57 -45l-12 -8q40 -12 64 -42q14 50 6 90zM642 412q-17 53 -75 86l-16 -79q-3 -1 -5 -1q-4 111 -58 111q-63 0 -129 -87q-56 -74 -73 -146q20 -10 41 -10h5q60 48 137 66q26 6 60 6q19 0 37 -4l17 12q39 28 59 46zM656 150l-2 -1l-1 -2zM463 537q-13 2 -26 2 q-66 0 -165 -52q-35 -43 -35 -106q0 -22 7 -40q24 55 68.5 104.5t95.5 73.5q32 15 55 18zM547 342q-9 1 -18 1q-90 0 -172 -58q72 0 140 29q23 10 50 28zM651 227q0 96 -94 113q-62 -41 -145 -58q-7 -3 -18 -4q-21 -2 -47 -1q-31 -23 -59 -56q35 -45 80 -73q86 7 146 127 l3 -2h1q-11 -52 -35 -136h-6v1l-1 2l-1 1q-2 13 -9 49q-43 -41 -79 -53q54 -26 115 -26q63 0 136 36q13 37 13 80zM252 612q-72 -44 -118.5 -115t-55.5 -153q49 66 125 112q2 73 49 156zM261 482l-33 -18q-5 -3 -16 -9q-1 -65 23 -135l6 14q-9 21 -9 47q0 59 29 101z M636 140q-72 -34 -134 -34q-66 0 -123 29q-19 -5 -44 -5q-58 0 -88 32q-9 -19 -22 -49q-3 -7 -10 -4q-6 3 -3 9q7 16 25 57q-16 27 -16 68q0 31 10 65q-28 71 -28 142q-78 -48 -126 -117q-1 -12 -1 -24q0 -129 84 -216t212 -87q147 0 253 108q6 13 11 26zM323 278 q-21 2 -39 10q-4 -20 -4 -39q0 -6 1 -12q20 23 42 41zM357 148q-41 26 -73 66q15 -65 73 -66zM610 88q-107 -93 -240 -93q-131 0 -220 88t-89 219v6q-41 -71 -41 -145q0 -69 34 -128t94 -90q64 -33 146 -33q86 0 165 37q84 39 130 106q10 14 21 33z" />
<glyph unicode="&#xaa;" horiz-adv-x="284" d="M397 400q0 -42 -9 -80q-20 -84 -84.5 -138.5t-149.5 -54.5q-99 0 -169 72.5t-70 172.5q0 36 10 68q37 118 148 153q41 13 76 13q105 0 121 -88l1 2h37q-93 -192 -93 -220l2 -6q19 8 52 52l3 -2q-49 -74 -82 -74q-14 0 -14 13q0 14 18 71q-64 -85 -104 -85q-33 0 -33 35 q0 54 64 134q66 84 117 84q10 0 25 -11l2 3q-14 74 -111 74q-38 0 -75 -11q-101 -30 -138 -141q-11 -33 -11 -65q0 -93 65.5 -161.5t157.5 -68.5q103 0 169 81q61 75 61 179q0 76 -34 130q-39 62 -110 73q-3 0 -3 1q0 4 8 3q77 -12 117 -73q36 -54 36 -135zM250 501 q0 15 -14 15q-26 0 -77 -78q-59 -91 -59 -138q0 -14 13 -14q34 0 87 91q50 86 50 124z" />
<glyph unicode="&#xab;" horiz-adv-x="350" d="M352 427q-76 -75 -134 -159q11 -29 38 -105q5 -16 20 -58l-1 -1q-109 142 -109 166q0 20 69 78q7 4 55 39l59 43zM232 428q-81 -81 -135 -158q18 -44 31 -81q8 -23 31 -83l-2 -2q-115 135 -115 164q0 22 82 87q32 25 105 76z" />
<glyph unicode="&#xac;" horiz-adv-x="529" d="M459 5q-11 0 -42 -1q-34 -54 -97.5 -88t-127.5 -34q-129 0 -224 82q-100 86 -100 213q0 97 53 167t146 99q68 21 114 20q76 -2 134 -33q72 -39 77 -107q2 -31 -10 -61h77v-257zM387 323q-7 63 -78 98q-60 30 -128 28q-51 -1 -110 -19q-88 -26 -138 -93.5t-50 -159.5 q0 -117 98 -192q91 -70 211 -70q50 0 100.5 25.5t82.5 65.5q1 23 1 166q0 3 -2 54q-2 1 -8 3h-2q-55 -77 -146 -77q-10 0 -19 1q-2 1 -2 3q0 3 3 2q8 -1 18 -1q87 0 142 73q-6 0 -18.5 1t-18.5 1h-282v30h337q12 31 9 61z" />
<glyph unicode="&#xad;" d="M396 291q0 -81 -61.5 -146.5t-141.5 -65.5q-59 0 -99 31q-64 50 -73 125h-13l13 33q9 81 65 99q-51 -30 -60 -87h201l-17 -45h-184q5 -43 36.5 -83t71.5 -55q24 -9 59 -9q70 0 129.5 66t59.5 137q0 77 -38 130q-42 60 -116 60q-39 0 -72 -23q-37 -26 -37 -63 q0 -42 41 -59q0 -2 -1 -3q-50 13 -50 56q0 47 34 75q31 26 79 26q77 0 127 -62q47 -59 47 -137z" />
<glyph unicode="&#xae;" horiz-adv-x="755" d="M1092 234q0 -110 -57 -186q-72 -97 -250 -97q-114 0 -223 101q-92 -57 -199 -57q-115 0 -198.5 72.5t-100.5 185.5q-41 44 -41 112q0 119 127 194q25 15 41 21q106 91 244 91q85 0 157.5 -43t112.5 -118q51 23 109 23q70 0 130.5 -31.5t98.5 -88.5q49 -74 49 -179z M1068 221q0 84 -38.5 156t-109.5 113q-61 35 -126 35q-46 0 -87 -18q22 -43 30 -91q9 15 13 24q-3 -11 -12 -27q3 -23 3 -46q0 -88 -40 -165.5t-111 -130.5q101 -104 194 -104q31 0 56 13q31 15 31 43q0 5 -5 13t-5 11q1 18 17 24q18 6 30 -7t12 -31q0 -41 -51 -65 q102 15 143 70q56 74 56 183zM710 377q-2 63 -28 117q-79 -48 -79 -158q0 -30 7 -57q49 31 100 98zM542 494q0 38 -21.5 64t-58.5 26q-28 0 -43 -18q-8 -9 -45 -107q-27 -71 -27 -79q36 -10 63 -10q67 0 104 47q28 35 28 77zM680 498q-36 71 -107 111q-67 37 -150 37 q-78 0 -153 -43l10 1q52 5 103 0q37 -4 91 -11q43 -9 72 -31q46 -35 46 -83q0 -50 -42 -87q-30 -26 -103 -36q12 -68 40 -133q61 17 115 51q-11 29 -11 63q0 109 89 161zM710 370v0q-47 -62 -99 -94q7 -31 32 -64q-25 17 -40 59q-64 -38 -113 -54q28 -62 76 -119 q67 47 105.5 119t38.5 153zM439 212q-19 46 -51 142q-24 3 -48 15l-63 -161q-2 -3 -6 -16q88 -4 168 20zM353 553q0 16 -24 25q-18 7 -37 7q-34 0 -69 -14q-45 -37 -76 -87q0 -19 10 -31q10 -15 28 -12q13 2 15 -10q1 -11 -9.5 -17.5t-21.5 -6.5q-34 0 -44 35 q-28 -64 -28 -132q0 -35 8 -68q46 -37 108 -47q13 20 21 42l114 299q5 13 5 17zM176 566q-58 -29 -92.5 -81.5t-34.5 -116.5q0 -37 12 -68v3q0 154 115 263zM534 78q-57 58 -91 127q-82 -26 -170 -24l1 -2q8 -25 57 -25v-3q-64 2 -101 2q-46 0 -82 -1q83 -115 232 -115 q81 0 154 41zM203 182q-42 6 -89 31q12 -32 32 -59q33 4 57 28z" />
<glyph unicode="&#xaf;" horiz-adv-x="430" d="M471 578l-15 -36h-180l15 36h180z" />
<glyph unicode="&#xb0;" horiz-adv-x="302" d="M331 487q0 -49 -31.5 -83t-80.5 -34q-45 0 -79 32.5t-34 77.5q0 48 33.5 81t81.5 33q41 0 75.5 -33.5t34.5 -73.5zM318 486q0 41 -29.5 68.5t-70.5 27.5t-68.5 -28.5t-27.5 -69.5t28.5 -70t69.5 -29q43 0 70.5 29t27.5 72z" />
<glyph unicode="&#xb1;" horiz-adv-x="345" d="M548 400q-1 -3 -4 -3q-64 17 -95 17q-118 0 -195 -30q-14 -44 -23 -77h147l-5 -12q-51 -3 -92 -4q71 -17 115 -72.5t44 -128.5q0 -133 -96 -197q-57 -38 -119 -38q-70 0 -131 48q-80 63 -81 187h-13l1 12h12q6 110 83 192h-31q2 6 4 13l40 -1q60 57 133 85q14 41 22 68 h14q-6 -22 -19 -61q71 23 190 23q33 0 97 -17q3 -1 2 -4zM237 377q-53 -25 -107 -71q48 0 84 1q7 22 23 70zM428 93q0 80 -49 135t-128 64q-8 0 -25 1q-13 -45 -48 -149h-15q3 9 8 26l38 123q-19 0 -93 1q-41 -40 -70 -108q-5 -8 -9 -21q-11 -37 -12 -63h288q-3 -3 -7 -12 h-281q1 -115 79 -175q58 -44 121 -44q58 0 113 36q90 59 90 186z" />
<glyph unicode="&#xb2;" horiz-adv-x="291" d="M322 566q0 -45 -61 -92q-10 -7 -47 -33q-105 -75 -130 -131h128q28 0 39 25l7 -3l-23 -60h-181l1 2q-2 1 -2 5q4 81 62 126q28 16 81 50l9 8q8 7 32 30q18 23 19 51q1 21 -12.5 37.5t-34.5 17.5q-14 1 -26 -1q-32 -18 -59 -56l-5 3q19 29 45 48q-102 -33 -165 -189 q-1 -2 -3 -1t-1 2q63 160 178 195q34 23 76 23q30 0 50 -13q23 -16 23 -44zM275 563q0 20 -14 33.5t-34 13.5q-17 0 -33 -7q6 1 16 0q22 -1 36.5 -19t13.5 -40q-1 -17 -6 -32q21 27 21 51zM158 418q-74 -47 -88 -111q27 51 88 111z" />
<glyph unicode="&#xb3;" horiz-adv-x="298" d="M444 355q0 -69 -48 -188q-58 -143 -159 -256q-112 -126 -244 -171q-35 -12 -87 -12q-99 0 -159 36q78 -25 128 -25q53 0 111 20q126 44 238 167q102 112 156 248q53 133 53 190q0 36 -11 68q-27 79 -104 79q-20 0 -41 -7q-16 -15 -41 -33q53 -33 53 -79q0 -55 -49 -93 q-45 -36 -102 -36q-75 0 -75 38q0 16 19 16q9 0 30.5 -22.5t41.5 -22.5q36 0 63 36q26 33 26 70q0 26 -12 45q-15 21 -40 21q-13 0 -43 -8v6q119 47 119 110q0 21 -13 36t-34 15q-38 0 -93 -64l-4 4q66 80 123 80q50 0 63 -41q10 23 10 44q0 22 -11 40q-37 59 -98 59 q-24 0 -50 -9q-108 -37 -176 -143q-1 -2 -3 -1q-2 2 -1 4q77 120 176 154q23 8 47 8q73 0 109 -70q13 -25 13 -51q0 -27 -14 -54q0 -23 -26 -51q18 5 35 5q83 0 111 -82q13 -38 13 -80z" />
<glyph unicode="&#xb4;" horiz-adv-x="436" d="M482 613q0 -16 -31 -35l-123 -75v1l89 113q18 23 36 23q29 0 29 -27z" />
<glyph unicode="&#xb6;" horiz-adv-x="466" d="M733 510q0 -55 -20 -110q-41 -113 -140.5 -180.5t-220.5 -67.5q-46 0 -91 11q-101 -248 -248 -248q-26 0 -52 15q-31 17 -31 41q0 11 8.5 19.5t19.5 8.5q12 0 25 -18q19 -26 25 -32q16 -15 36 -15q7 0 29 7q34 11 53 37q23 32 62 162l12 40q-17 5 -41 17q-52 26 -83 57 q62 -42 128 -60q28 89 55 161q-38 -4 -57 -4q-47 0 -77.5 26.5t-30.5 72.5q0 84 60.5 151t143.5 67q23 0 69 -5t69 -5q24 0 72.5 8t72.5 8q29 0 57 -10q95 -35 95 -154zM725 516q0 111 -89 144q-27 10 -58 10q-47 0 -105 -28q-31 -23 -57 -70q-41 -73 -110 -283 q-10 -32 -40 -113q41 -9 84 -9q116 0 214 63q102 66 140 172q21 59 21 114zM392 649q-3 0 -12.5 2t-14.5 2q-44 0 -98 -110q-48 -98 -48 -152q0 -28 26 -28q3 0 18 4q44 140 129 282z" />
<glyph unicode="&#xb7;" horiz-adv-x="195" d="M691 339q0 -81 -45 -167q28 77 28 167q0 109 -48 198q-114 211 -361 207q-82 -1 -142 -23t-119 -75q-125 -113 -125 -292q0 -173 125 -279q32 -28 89 -46q54 -17 100 -17q137 0 238 93t101 229q0 100 -56 174q-60 81 -157 81q-88 0 -153 -43.5t-95 -124.5 q-18 -49 -18 -88q0 -33 12 -69q5 32 39 32q38 0 38 -39q0 -16 -11 -27.5t-27 -11.5q-54 0 -54 96q0 162 113 236q67 44 156 44q98 0 161 -83q57 -76 57 -177q0 -140 -101.5 -238.5t-242.5 -98.5q-49 0 -106 18.5t-92 48.5q-130 112 -130 290q0 185 130 303q62 56 123 78.5 t147 23.5q257 4 376 -213q50 -91 50 -207z" />
<glyph unicode="&#xb8;" horiz-adv-x="281" d="M212 -81q0 -52 -66 -52q-14 0 -31 5v1q7 -1 14 -1q46 0 46 33q0 24 -29 29l38 61h3l-18 -28q43 -16 43 -48z" />
<glyph unicode="&#xb9;" horiz-adv-x="225" d="M483 478q0 -202 -148 -364q-69 -76 -161 -120q-95 -46 -194 -46q-136 0 -228.5 97.5t-92.5 233.5q0 113 77 212q32 146 163 237q123 86 277 86q156 0 234 -92q73 -85 73 -244zM469 478q0 227 -141 294q-68 32 -152 32q-148 0 -269 -80q-128 -85 -164 -223 q146 180 337 180q165 0 278 -159q-1 -3 -4 -3q-46 64 -106 101l-91 -270q-16 -47 -16 -57q0 -13 39 -17l-2 -4h-126l1 4q7 1 20 3q19 7 42 74l78 230q-29 -9 -62 -18v5q56 21 109 54q-72 41 -160 41q-100 0 -195 -59q-88 -54 -149 -142q-4 -25 -4 -51q0 -38 15 -82 q3 -10 31 -77q1 -3 -1 -4t-3 2q-47 105 -47 161q0 21 3 42q-54 -82 -54 -176q0 -129 87.5 -221t216.5 -92q94 0 187 45q88 43 154 116q73 80 104 163q44 117 44 188z" />
<glyph unicode="&#xba;" horiz-adv-x="253" d="M305 436q0 -91 -56 -183q-23 -37 -67 -62t-88 -25q-73 -1 -122 60q-46 56 -46 131q0 181 116 231q28 12 58 12q28 0 50.5 -20t22.5 -48q0 -8 -4 -22q21 12 39 12q43 0 43 -75t-55 -133q-43 -46 -79 -46q-46 0 -46 74q0 59 39 112q56 59 56 82q0 25 -20.5 38t-46.5 13 q-29 0 -52 -10q-108 -46 -108 -220q0 -66 44 -123q48 -61 112 -61q40 0 81 25t63 61q53 87 53 177q0 66 -38 119q-43 58 -106 58h-31q-1 -1 -2 1q0 2 2 2q16 3 32 3q74 0 117 -56q39 -50 39 -127zM229 495q0 21 -19 21q-29 0 -72 -92q-39 -84 -39 -120q0 -28 19 -28 q24 0 67.5 84.5t43.5 134.5z" />
<glyph unicode="&#xbb;" horiz-adv-x="339" d="M311 268q0 -23 -80 -86q-52 -40 -112 -80l-3 4q83 79 138 161q-16 51 -61 162l7 1q40 -53 64 -85q47 -64 47 -77zM191 269q0 -23 -77 -85q-61 -49 -112 -80l-2 5q86 84 136 158q-16 50 -62 164v0q117 -134 117 -162z" />
<glyph unicode="&#xbc;" horiz-adv-x="498" d="M519 293q0 -34 -13.5 -82t-31.5 -77h1l-9 -28h-15q-20 -22 -47 -42l-20 -59h-44l35 101h-125l10 27l204 222h41l-76 -221h39q18 27 32 76.5t14 82.5q0 149 -83 268l-352 -561l-4 2l167 267q-15 -17 -26 -25q-171 -136 -312 -136q-133 0 -212.5 81.5t-79.5 214.5 q0 166 182 262q148 78 326 78q92 0 176 -49q78 -46 135 -125l17 28l5 -3l-19 -30q85 -120 85 -272zM449 326l-177 -192h112zM443 106h-25l-9 -28q19 14 34 28zM428 565q-125 174 -308 174q-178 0 -318 -75q-174 -93 -174 -260q0 -125 75 -194.5t201 -69.5q62 0 155 41 q85 38 141 83q113 91 113 181q0 33 -31 63q-1 2 0 4q2 2 4 0q33 -33 33 -67q0 -37 -16 -80zM249 623l-92 -273q-16 -47 -16 -57q0 -13 39 -17l-2 -4h-126l1 4q7 1 20 3q19 7 42 74l78 230q-29 -9 -62 -18v5q58 22 113 57z" />
<glyph unicode="&#xbd;" horiz-adv-x="531" d="M689 204q0 -29 -11 -58q-30 -81 -116 -143q-9 -7 -66 -36q-2 0 -2 1q-1 1 0 2q25 12 63 40q83 60 112 139q9 24 9 47q0 49 -37 79q-34 27 -84 27q-32 0 -59 -4v-4q1 -23 -14 -48q-4 -7 -42 -38q-25 -21 -42 -32q-79 -53 -98 -77q-18 -28 -36 -55h128q30 -5 39 24l7 -3 l-23 -60l-201 -5q29 70 72 110q27 25 94 82q18 14 54 44q28 25 23 53q-38 -12 -101 -45q-53 -36 -136 -84q-19 -11 -79 -37l-78 -123l-4 2l74 119q-17 -5 -33 -5q-71 0 -118 65q-43 60 -43 133q0 77 58 153t132 103l113 57l5 -4l-92 -273q-2 -7 -9 -28q-3 -7 -7 -14 q-3 -8 0 -15q8 -17 39 -17l-2 -4h-126l1 4q32 0 45 25q6 20 17 52l78 230q-99 -28 -166 -97q-75 -76 -75 -172q0 -36 18.5 -76t45.5 -66q39 -37 86 -37q23 0 49 10l284 453l4 -3l-281 -447q38 17 97 54q70 44 95 58q63 34 103 46q-21 41 -67 41q-30 0 -54 -21t-26 -51l-5 4 q7 36 36 59t66 23q24 0 51.5 -12.5t37.5 -32.5q30 5 65 5q57 0 94.5 -31t37.5 -86z" />
<glyph unicode="&#xbe;" horiz-adv-x="575" d="M311 565q0 -41 -75 -94q53 -33 53 -79q0 -55 -49 -93q-45 -36 -102 -36q-75 0 -75 38q0 16 19 16q9 0 30.5 -22.5t41.5 -22.5q36 0 63 36q26 33 26 70q0 26 -12 45q-15 21 -40 21q-13 0 -43 -8v6q119 47 119 110q0 21 -13 36t-34 15q-38 0 -93 -64l-4 4q66 80 123 80 q27 0 46 -16t19 -42zM748 96q0 -143 -118 -283q-87 -103 -175 -151q-98 -53 -224 -53q-83 0 -147 39q-69 43 -89 119q-11 41 -11 97q0 114 71 226q-4 -1 -40 -9q-16 -4 -16 13q0 10 10 13l66 13l7 9q97 125 160 166q52 37 162 105l124 198l5 -3l-120 -191q54 27 166 68 q19 56 19 107q0 44 -16 89q-17 49 -47 75q-63 55 -186 55q-144 0 -263 -71q-88 -53 -112 -111q-6 -14 -18 -57v-32q4 -28 26 -47t50 -19q71 0 160 83q2 2 4 0t0 -4q-93 -85 -164 -85q-31 0 -56 20t-28 50q-1 1 -1 35l1 1q6 28 18 59q22 56 116 113q121 73 267 73 q125 0 192 -57q31 -26 49 -78q17 -47 17 -92q0 -49 -14 -102l48 17q2 1 3 -1t-1 -3q-17 -7 -52 -19q-17 -60 -48 -116h39l-63 -184q52 27 109 27q50 0 83 -25q37 -28 37 -77zM577 466q-113 -41 -169 -70l-150 -239q79 24 147 73q121 86 172 236zM526 325q-48 -73 -107 -115 l-1 -1l-69 -75h112zM399 392q-51 -28 -117 -76q-20 -13 -70 -50q-40 -32 -122 -143q54 8 161 32zM725 96q0 39 -28.5 61t-68.5 22q-61 0 -117 -31l-5 -14h46l-10 -28h-47l-34 -101h-44l34 101q-61 -55 -99 -136q-2 -4 -6 -2t-2 6q36 77 89 132h-106l10 27l52 56 q-69 -42 -151 -64l-79 -125l-4 2l76 122l-5 -2q-5 -1 -156 -29q-66 -106 -66 -229q0 -41 13 -91q18 -69 81 -107q58 -35 133 -35q121 0 215 51q84 46 168 145q111 131 111 269z" />
<glyph unicode="&#xbf;" horiz-adv-x="350" d="M339 633q0 -19 -15 -32t-34 -13q-44 0 -44 45q0 20 14.5 34t34.5 14q18 0 31 -15t13 -33zM355 444q0 -81 -42 -133q-33 -41 -111 -80q-97 -48 -97 -105q0 -8 15 -25t19 -17q-49 0 -49 43q0 63 113 122q140 73 140 195q0 67 -49 100q-3 3 -3 5q64 -44 64 -105zM324 446 q0 -60 -66 -113q-38 -28 -115 -83q-86 -63 -86 -126q0 -43 35.5 -80t77.5 -37q41 0 70.5 26t29.5 67q0 28 -17.5 50.5t-44.5 22.5q-11 0 -29 -10q35 -20 35 -46q0 -35 -34 -35q-16 0 -27 12t-11 29q0 25 21 40.5t47 15.5q32 0 51 -23t19 -55q0 -45 -44 -77q-40 -29 -87 -29 q-64 0 -104 38.5t-40 102.5q0 66 62 127q20 20 118 90q52 38 67 52q36 35 36 73q0 26 -18.5 47t-44.5 21q-19 0 -34 -12.5t-15 -31.5q0 -21 16 -32q6 -1 8 3q1 2 0 8q-2 14 11 14q18 0 18 -20q0 -24 -27 -24q-38 0 -38 41q0 26 20 43.5t46 17.5q44 0 69 -31t25 -76z" />
<glyph unicode="&#xc0;" horiz-adv-x="1035" d="M1035 722l-1 -1q-16 11 -58 39q-13 7 -35.5 22.5t-22.5 36.5q0 13 9.5 21.5t22.5 8.5q18 0 50 -59q12 -23 35 -68zM1145 675l-2 -4q-15 5 -29 5q-26 0 -55 -20q-11 -8 -23 -18q-15 -17 -34 -67l-173 -451q-19 -50 -19 -65q0 -42 76 -45v-2l-1 -6q-60 2 -83 0q-10 2 -91 0 l-92 -2l2 7q76 2 111 78q4 8 19 48l68 177l-39 -2q-52 -3 -70 4h-75q-50 -74 -104 -141q-10 -12 -23 -27q-127 -142 -273 -142q-110 0 -181 74q-52 55 -52 122q0 32 13 60q-21 49 -21 104q0 97 53 167t147 99q68 21 114 20q75 -2 134 -34q71 -38 76 -106t-50 -119.5 t-124 -51.5q-9 0 -18 1q-1 1 -1 3q0 1 1 2q9 -1 18 -1q68 0 120 49q56 51 49 117q-6 63 -77 98q-60 30 -128 28q-52 -1 -110 -19q-88 -27 -138.5 -94t-50.5 -159q0 -45 16 -86q28 39 74 39q36 0 65 -26.5t29 -62.5q0 -19 -11 -34.5t-30 -15.5q-22 0 -22 16q0 6 3 17.5 t3 17.5q0 24 -17 39t-42 15q-28 0 -46 -18q36 -77 120 -122q78 -41 168 -41q85 0 155 62q13 15 42 49q37 46 110 139q89 112 141 167q163 172 296 172q39 0 82 -14zM977 666q-93 -34 -181 -142l-140 -182h176q27 76 61 161q37 93 84 163zM377 75q-30 -8 -58 -8 q-95 0 -176 47q-85 49 -123 133q-11 -21 -11 -48q0 -78 69 -127q62 -44 142 -44q83 0 157 47z" />
<glyph unicode="&#xc1;" horiz-adv-x="1041" d="M1417 61q0 -186 -138 -313q-133 -123 -321 -123q-255 0 -406 119q-84 66 -166 195q-26 41 -44 82q-51 -19 -107 -19q-111 0 -181 74q-52 55 -52 122q0 48 24 80q27 37 73 37q36 0 65 -26.5t29 -62.5q0 -19 -11 -34.5t-30 -15.5q-22 0 -22 16q0 6 3 17.5t3 17.5 q0 24 -17.5 40.5t-41.5 16.5q-34 0 -53.5 -25.5t-19.5 -60.5q0 -78 71 -127q62 -44 144 -44q56 0 111 23q-42 105 -42 233q0 154 91 319q60 108 176 168q108 56 238 56q126 0 237 -52l55 51q23 21 39 21q28 0 28 -30q0 -21 -35 -35l-56 -23q42 -23 91 -59q2 -2 0 -4l-1 -1 q-1 0 -2 1q-51 37 -94 60l-79 -33l-1 1l51 47q-112 52 -236 52q-129 0 -234 -56q-110 -59 -170 -168q-78 -141 -78 -315q0 -117 46 -222q77 40 204 202q117 149 168 207q88 101 148 146q96 73 189 73q38 0 80 -15l-2 -4q-18 7 -31 7q-67 0 -108 -106l-18 -46 q207 -17 314 -153q119 -151 119 -311zM979 670q-107 -42 -243 -221q76 64 165 75q36 83 78 146zM889 494q-132 -21 -230 -152h173q18 50 57 152zM1384 61q0 147 -113 290q-103 131 -298 145l-144 -376q-19 -50 -19 -68q0 -41 76 -44l-1 -3h-265l1 3h9q71 0 104 80 q5 12 17 45l69 179h-185q-153 -226 -268 -281q17 -35 43 -76q77 -122 158 -184q90 -69 223 -96q79 -16 167 -16q174 0 298 113q128 117 128 289z" />
<glyph unicode="&#xc2;" horiz-adv-x="1035" d="M1092 722l-2 -1l-80 87l-143 -87l-1 1l129 126h54zM1334 805q0 -130 -97 -213q-40 -34 -131 -83q147 82 196 203q16 39 16 94q0 185 -166 315q-99 78 -223 123q-127 46 -250 46q-173 0 -314 -70q-126 -62 -256 -196q-66 -68 -108 -184q-40 -110 -40 -210q0 -38 7 -72 q35 -169 108 -242l3 -3q9 2 20 2q33 0 60.5 -22.5t32.5 -54.5q73 -29 169 -29q108 0 216 77q98 125 159 194q87 98 144 140q92 69 183 69q38 0 80 -15l-2 -4q-18 7 -31 7q-67 0 -108 -106l-173 -451q-19 -50 -19 -68q0 -41 76 -44l2 -8h-268l1 8h9q50 0 79 40q7 9 22 42 q6 11 20 43l69 179h-185q-64 -95 -127 -168q-122 -142 -273 -142q-111 0 -181 74q-52 55 -52 122q0 38 16 68q18 34 51 44q-113 120 -113 326q0 110 36 214q38 112 109 185q252 260 578 260q118 0 249 -46t225 -120q181 -141 181 -324zM979 670q-87 -34 -181 -144 q-38 -45 -142 -184h176q30 84 61 162q37 94 86 166zM564 270q-105 -70 -203 -70q-95 0 -168 28v-2q0 -19 -11.5 -34.5t-29.5 -15.5q-22 0 -22 16q0 6 3 17.5t3 17.5q0 23 -16 39l-16 12q-13 6 -27 6q-34 0 -53.5 -25.5t-19.5 -60.5q0 -78 71 -127q62 -44 144 -44 q99 0 178 62q37 29 161 174z" />
<glyph unicode="&#xc3;" horiz-adv-x="1035" d="M1139 821q-38 -88 -89 -88q-15 0 -45 17q-21 13 -43 26q-16 9 -27 9q-28 0 -56 -39l-2 2q45 82 91 82q20 0 62 -26.5t53 -26.5q30 0 54 45zM1146 675l-7 -9q-19 7 -36 7q-62 0 -101 -102l-173 -451q-18 -47 -18 -68q0 -41 76 -42l-1 -10h-144q-41 -45 -82 -73 q-131 -89 -308 -89q-54 0 -78 5q-126 27 -207 89q-77 60 -141 175q-1 2 1 4q2 1 4 -1q60 -108 144 -165q77 -52 204 -79q23 -5 73 -5q228 0 371 139h-99l1 6q55 -5 89 53q21 35 80 188q7 18 22 54l-171 9q-22 -23 -69 -87q-41 -56 -71 -85q-71 -69 -121 -97 q-69 -39 -149 -39q-103 0 -174 68q-59 57 -59 127q0 47 26.5 82.5t70.5 35.5q36 0 64 -26.5t28 -62.5q0 -48 -38 -48q-18 0 -18 13q0 7 2 18t2 15q0 21 -20.5 39t-41.5 18q-32 0 -50 -25.5t-18 -58.5q0 -80 70 -127q61 -42 144 -42q94 0 172 60q56 43 165 181l106 133 q66 80 122 136q-68 111 -177 179q-116 72 -241 72q-115 0 -209 -68q-104 -75 -104 -184q0 -81 69 -134q63 -49 146 -49q26 0 60 4q44 5 60 6q3 0 3 -2q0 -3 -2 -3q-16 -1 -60 -6q-38 -4 -61 -4q-86 0 -150 50q-70 54 -70 138q0 112 106 188q96 69 212 69q148 0 229 -40 q124 -61 208 -198q65 61 116 93q64 39 139 39q43 0 84 -13zM978 669q-78 -29 -164 -125q33 -58 49 -119q60 162 115 244zM847 384q-12 72 -51 140q-9 -11 -137 -183l173 1q6 16 15 42z" />
<glyph unicode="&#xc4;" horiz-adv-x="1034" d="M1108 775q0 -14 -13.5 -26.5t-27.5 -12.5q-37 0 -37 46q0 12 10.5 22t22.5 10q17 0 31 -11t14 -28zM956 773q0 -15 -13 -26.5t-28 -11.5q-14 0 -26 14.5t-12 29.5q0 13 11.5 23t24.5 10q15 0 29 -12t14 -27zM1221 533q0 -104 -80 -183t-184 -79q-37 0 -62 7l-63 -164 q-19 -49 -19 -67q0 -28 33 -38q16 -5 44 -6l-2 -3h-265v3q56 3 84 33q19 21 43 83l72 189q-64 0 -183 -1q-60 -90 -128 -168q-122 -142 -272 -142q-90 0 -153 49q-90 69 -80 156q12 109 96 109q35 0 63.5 -26t28.5 -61q0 -18 -10 -35t-27 -17q-16 0 -20 13q-1 4 1 9.5t2 7.5 q0 29 -17 53t-45 24q-57 0 -67 -83q-4 -34 23 -77q61 -96 188 -96q102 0 181 65q60 50 157 172q240 304 362 380q69 43 144 43q125 0 149 -98q6 -25 6 -52zM1210 533q0 75 -39 112q-25 23 -58 23q-53 0 -84 -50q-7 -12 -23 -52l-23 -59q12 -1 38.5 -13t26.5 -19v0q-2 1 -7 4 q-23 17 -60 23l-81 -211q33 -9 57 -9q101 0 177 75t76 176zM979 660q-104 -43 -226 -198q-19 -26 -93 -125h157q-11 22 -11 49q0 80 91 113q36 91 82 161zM893 490q-71 -35 -71 -104q0 -14 9 -32l4 -8q5 11 58 144z" />
<glyph unicode="&#xc5;" horiz-adv-x="1034" d="M1096 786q0 -24 -17 -40.5t-41 -16.5t-41 17.5t-16 41.5q0 23 18 39.5t41 16.5t39.5 -17.5t16.5 -40.5zM1144 674l-1 -2l-2 -3q-17 7 -28 7q-55 0 -93 -64q-6 -10 -18 -41l-174 -452q-19 -49 -19 -67q0 -28 33 -38q16 -5 44 -6l-1 -8h-266v6q6 -1 9 -1q53 0 87 56 q20 33 54 123l48 128h-182l-19 -29q-30 -42 -59 -81q-152 -200 -321 -200q-91 0 -159 52q-75 56 -75 144q0 48 24 80q27 37 73 37q36 0 65 -26.5t29 -62.5q0 -19 -11 -34.5t-30 -15.5q-22 0 -22 16q0 6 3 17.5t3 17.5q0 24 -17.5 39t-41.5 15q-30 0 -47.5 -24.5t-17.5 -55.5 q0 -33 17 -66q53 -103 189 -103q149 0 268 139q36 42 132 169q81 107 136 165q79 83 138 123q87 60 170 60q36 0 82 -14zM1077 779q0 21 -15.5 37.5t-36.5 13.5q-35 -5 -36 -42q-1 -23 15 -37.5t39 -13.5q33 1 34 42zM975 665q-88 -35 -180 -142q-32 -37 -139 -181h159 q13 0 18 10q18 34 65 155q40 101 77 158z" />
<glyph unicode="&#xc6;" horiz-adv-x="1196" d="M1294 558q0 -35 -24 -58t-59 -23q-23 0 -41.5 14t-18.5 36q0 13 9 24.5t22 11.5q9 0 15 -7q1 -1 5 -10q8 -18 31 -18q16 0 27.5 11t11.5 27q0 46 -44 71q-37 21 -86 21q-95 0 -160 -75q-41 -48 -54 -111q-6 -29 -6 -61q0 -18 8 -22q26 15 65 20q28 4 52 -6q28 -13 28 -40 q0 -58 -81 -58q-41 0 -96 44q-92 -61 -92 -169q0 -70 35 -114q39 -49 107 -49q57 0 117 42q54 39 85 93q-6 -40 -68 -97q-84 -77 -184 -77q-68 0 -115 41q-50 42 -50 109q0 108 134 220q-45 -16 -126 -16q-58 0 -87 6q-38 -56 -143 -196q-111 -140 -276 -140q-109 0 -181 75 q-52 55 -52 123q0 69 48 100q23 15 48 15q38 0 66 -25.5t28 -63.5q0 -19 -10.5 -34.5t-29.5 -15.5q-20 0 -20 14q0 8 4 19q-1 4 -1 18q0 23 -16 39.5t-39 16.5q-69 0 -69 -81q0 -79 68 -129q62 -45 144 -45q174 0 340 239q25 37 57 77q-96 21 -186 78q-112 71 -112 149 q0 33 19.5 55.5t52.5 22.5q18 0 41 -12q0 -3 -3 -5q-14 8 -38 8q-56 0 -56 -69q0 -76 114 -140q89 -50 184 -68q170 203 293 271q80 44 167 44q128 0 178 -63q20 -25 20 -57zM1052 652q-86 -13 -190 -106q-115 -102 -186 -186q22 -6 66 -6q72 0 145 12q-19 31 -19 74 q0 75 56 136q52 56 128 76zM1059 371q-3 24 -45 24q-48 0 -75 -19q27 -41 80 -41q8 0 17 4q26 11 23 32z" />
<glyph unicode="&#xc7;" horiz-adv-x="758" d="M835 624q-44 -108 -75 -200l-6 2q4 23 4 52q0 181 -156 181q-200 0 -364 -256q-105 -164 -105 -305q0 -89 50 -142t138 -53q91 0 165.5 47.5t116.5 129.5q30 59 30 119q0 54 -32.5 91t-85.5 37q-42 0 -78 -28q-38 -31 -38 -72q0 -36 26 -36q4 0 11 1.5t11 1.5 q13 0 13 -19q0 -17 -13.5 -31.5t-30.5 -14.5q-60 0 -60 70q0 57 52 99q49 40 107 40q64 0 101.5 -39t37.5 -103q0 -142 -152 -247q-85 -59 -185 -59q-43 -33 -43 -38q0 -7 20 -13q30 -9 36 -44q5 -30 -21.5 -48t-57.5 -18q-65 0 -65 37q0 22 27 20q-13 18 -46 56 q-75 69 -182 69q-74 0 -136 -34.5t-96 -99t-34 -142.5q0 -81 36 -145q39 -69 110 -99q62 -26 109 -26q54 0 103 33q61 42 79 106q8 29 8 54q0 83 -72 136q-49 36 -95 36q-15 0 -37 -5q-68 -16 -98 -75q-4 -8 -4 -17q0 -11 7 -32t7 -30q0 -17 -21 -24q-17 -6 -28 15 q-10 17 -10 35q0 24 17 64q19 46 66 71q43 23 96 23q55 0 112 -43q80 -61 80 -153q0 -30 -10 -64q-21 -72 -89 -115q-51 -32 -105 -32q-69 0 -134 37.5t-98 97.5q-36 66 -36 146q0 176 139 253q63 35 137 35q99 0 179 -58q13 -9 41 -59q22 -40 47 -40q6 -4 11 -4q27 0 25 40 q-2 29 -32 36q-19 4 -19 6q0 5 22 24q12 11 12 19t-14 9q-92 10 -150.5 71.5t-58.5 153.5q0 138 85 272q80 126 204 202q133 82 272 82q93 0 167 -52q14 -10 23 -10q11 0 27 18z" />
<glyph unicode="&#xc8;" horiz-adv-x="560" d="M627 559q-14 -138 -132 -221q-90 -63 -184 -63q-72 0 -140 29q-42 -53 -42 -125q0 -68 36 -114q39 -51 105 -51q59 0 117 42q53 38 83 94l5 -4q-41 -74 -105 -119q-70 -49 -149 -49q-67 0 -115 42.5t-48 108.5q0 99 92 185q-58 31 -108 101q-72 100 -72 204 q0 83 42 157.5t113 117.5q61 37 129 46q-71 -17 -134 -63.5t-97 -109.5q-40 -75 -40 -150q0 -99 69 -195q51 -70 108 -99q21 18 47 37q-30 45 -30 90q0 11 1 23q-80 61 -80 144q0 51 27.5 98.5t71.5 77.5q67 47 153 47q18 0 37 -2q9 10 22 10q18 0 33 -23q134 -47 175 -183 q14 -46 10 -83zM616 573q0 78 -46.5 143t-120.5 96l47 -90l-2 -1l-89 60q-26 18 -26 36q0 8 3 14q-20 3 -40 3q-67 0 -123.5 -32t-89.5 -89q-27 -47 -27 -96q0 -80 77 -140q13 91 102 146q79 49 177 49q56 0 98 -22q51 -27 60 -77zM598 571q0 42 -43 68q-37 22 -82 22 q-87 0 -154 -65t-73 -153q53 -15 109 0q50 13 83 45q10 9 39 48q17 23 37 23q5 0 11 -12q8 -18 31 -18q18 0 30 12t12 30zM610 524q-21 -47 -76 -47q-23 0 -41 12t-19 34q-42 -64 -118 -84q-57 -15 -111 0v-10q0 -21 10 -45q45 17 78 17q62 0 62 -41q0 -27 -24 -41 q-19 -12 -48 -12q-49 0 -105 40q-22 -15 -39 -33q65 -27 132 -27q92 0 178 60q100 70 121 177zM379 362q0 29 -45 29q-35 0 -76 -18q24 -45 73 -45q48 0 48 34z" />
<glyph unicode="&#xc9;" horiz-adv-x="560" d="M921 536q-1 -108 -62 -194q-126 -177 -386 -202q-20 -40 -65 -80q-91 -82 -189 -82q-66 0 -113.5 42.5t-47.5 108.5q0 125 149 231q-30 45 -30 90q0 100 92 164q83 58 189 58q58 0 104 -27q56 -32 56 -86q0 -34 -25.5 -57t-59.5 -23q-21 0 -40 12.5t-19 32.5 q0 13 11.5 23t25.5 10q5 0 10 -10q10 -19 37 -15q36 6 36 36q0 42 -42 69q-37 24 -82 24q-87 0 -155.5 -69.5t-68.5 -156.5q0 -24 11 -50q43 17 77 17q63 0 63 -44q0 -27 -26 -41q-21 -12 -50 -12q-41 0 -103 42q-88 -58 -88 -166q0 -68 35 -114q39 -52 104 -52q78 0 151 76 q34 36 50 62q105 5 207 61.5t162 142.5q58 82 64 179q10 157 -116 239q-72 47 -190 46q23 -4 23 -29q0 -21 -35 -36l-115 -48q-7 -3 -24 -11l-2 2l110 101q20 18 34 21q-101 -3 -176.5 -36.5t-144.5 -107.5q-20 -22 -48 -80q-3 -1 -5 2q30 63 64 99q59 64 144 100t174 36 q109 0 194 -55q132 -86 131 -243zM379 362q0 29 -48 29q-32 0 -71 -17q25 -46 71 -46q48 0 48 34z" />
<glyph unicode="&#xca;" horiz-adv-x="560" d="M555 722l-2 -1l-80 87l-143 -87v1l128 126h54zM934 674q0 -62 -19 -127q-47 -161 -87 -243q-53 -107 -151 -214q-102 -111 -227 -174q-134 -67 -276 -67q-148 0 -235 81.5t-87 228.5q0 110 50 195q58 97 158 117q2 -2 1 -5q-96 -19 -146 -117q-42 -82 -42 -190 q0 -129 87 -204q83 -71 214 -71q134 0 262 65q117 60 214 166q159 174 237 440q20 68 20 135q0 125 -71 192.5t-198 67.5q-109 0 -199 -58q-116 -75 -178 -182q-36 -62 -45 -145q38 50 109 80q65 27 133 27q75 0 119 -36q48 -40 48 -113q0 -59 -31 -132q-23 -53 -61 -88 q-67 -61 -136 -61q-96 0 -149 86q-14 8 -30 19q-89 -59 -89 -168q0 -68 36 -114q39 -51 105 -51q59 0 117 42q53 38 83 94l5 -4q-41 -74 -105 -119q-70 -49 -149 -49q-67 0 -115 42.5t-48 108.5q0 125 149 231q-30 45 -30 90q0 47 21 87q4 101 50 180q65 112 183 188 q102 66 207 66q136 0 216 -80.5t80 -216.5zM616 547q-4 -31 -27 -50.5t-55 -19.5q-24 0 -42 13t-18 36q0 14 13 23.5t27 9.5q5 0 11 -12q8 -18 31 -18q18 0 30 12t12 30q0 42 -43 68q-37 22 -82 22q-92 0 -160 -70t-68 -162q0 -21 10 -45q45 17 78 17q62 0 62 -41 q0 -27 -24 -41q-19 -12 -48 -12q-16 0 -32 4q31 -33 86 -42q13 -2 21 -2q58 0 121 51q35 28 64 87q37 74 33 142zM379 362q0 29 -45 29q-35 0 -76 -18q24 -45 73 -45q48 0 48 34z" />
<glyph unicode="&#xcb;" horiz-adv-x="560" d="M984 419q0 -133 -54 -246q-42 -89 -82.5 -141.5t-115.5 -116.5q-191 -163 -439 -163q-170 0 -260 82q-135 123 -143 335q-3 80 11 138.5t52 127.5q52 93 129 154v12q0 200 155 324q95 76 241 76q84 0 164 -27q85 -29 143 -83q94 -87 147 -216q52 -124 52 -256zM963 441 q0 127 -45 242q-48 122 -137 204q-118 109 -303 109q-144 0 -238 -75q-153 -122 -153 -320v-9q84 64 194.5 100.5t217.5 36.5q81 0 160 -31q84 -33 134 -90q86 -99 86 -215q0 -125 -81 -221q-86 -102 -208 -94q-74 5 -129 45q-42 -65 -102 -103q-66 -42 -138 -42 q-67 0 -115 42.5t-48 108.5q0 125 149 231q-30 45 -30 90q0 102 92 166q82 56 189 56q61 0 106 -26q53 -32 53 -89q0 -35 -24 -57.5t-59 -22.5q-24 0 -42 13t-18 36q0 14 13 23.5t27 9.5q5 0 11 -12q8 -18 31 -18q18 0 30 12t12 30q0 42 -43 68q-37 22 -82 22 q-92 0 -160 -70t-68 -162q0 -21 10 -45q45 17 78 17q62 0 62 -41q0 -27 -24 -41q-19 -12 -48 -12q-49 0 -105 40q-89 -59 -89 -168q0 -68 36 -114q39 -51 105 -51q61 0 117 41q50 37 83 95q71 -47 133 -51q110 -6 189 84q75 86 75 198q0 111 -84 210q-47 56 -129 87 q-75 28 -155 28q-244 0 -410 -141q1 -9 4 -27q-2 -2 -5 -1l-3 24q-54 -47 -97 -119.5t-59 -141.5q-12 -56 -9 -131q8 -203 135 -318q81 -74 236 -74q107 0 225 47q115 45 199 117q73 62 111 110q44 54 82 133q55 116 55 257zM379 362q0 29 -45 29q-35 0 -76 -18 q24 -45 73 -45q48 0 48 34zM563 778q0 -16 -11.5 -27t-27.5 -11t-27 11.5t-11 27.5t11.5 27t27.5 11t27 -11.5t11 -27.5zM409 778q0 -16 -11 -27t-27 -11t-27.5 11.5t-11.5 27.5t12 27t28 11t26.5 -11.5t10.5 -27.5z" />
<glyph unicode="&#xcc;" horiz-adv-x="615" d="M607 722l-2 -1l-89 60q-25 17 -25 36q0 31 30 31q20 0 36 -31zM814 582q0 -24 -109 -24q-9 0 -18 1q-8 -6 -12 -13q-54 -79 -81 -177l-59 -211q-39 -120 -84 -201q-118 -210 -310 -210q-86 0 -157 63.5t-78 149.5q-6 75 2 120q19 109 87 178q74 75 181 75q115 0 181 -83 l29 67q74 171 172 296q-51 -9 -107 -9q-24 0 -71 4t-71 4q-56 0 -99 -27q-50 -32 -50 -85q0 -24 16 -41.5t40 -17.5q39 0 39 35q0 3 -1 8.5t-1 8.5q0 17 24 17q15 0 25.5 -11t10.5 -26q0 -25 -21.5 -41t-47.5 -16q-36 0 -61 25.5t-25 61.5q0 48 41 90q70 72 212 72 q30 0 107 -4q-6 8 -71 95q-96 128 -223 128q-57 0 -100 -31q-63 -45 -67 -101q-3 -46 26 -75.5t75 -29.5q49 0 82 38t33 87q5 -13 5 -26q0 -43 -38 -74.5t-82 -31.5q-51 0 -82.5 30.5t-29.5 81.5q3 66 76 113q65 42 134 42q111 0 187 -87q42 -49 68 -93q13 -23 39 -68 q27 -1 48 -1q29 0 76 10l2 -3q-39 -12 -74 -61q30 -23 66 -30q34 30 87 30q59 0 59 -22zM781 576q0 3 -23 3q-26 -1 -48 -9q72 0 71 6zM657 563q-34 8 -65 28q-29 -44 -63 -130q-25 -69 -51 -138q-34 -86 -78 -152q11 -33 14 -70q-4 35 -16 68q-50 -74 -116 -120 q-76 -54 -155 -54q-52 0 -89 28q-41 31 -41 81q0 42 28.5 72t70.5 30q23 0 40.5 -14.5t17.5 -36.5q0 -41 -38 -41q-22 0 -22 14q0 4 3 13.5t3 14.5q0 28 -34 28q-29 0 -47 -25t-18 -55q0 -47 32 -71.5t80 -24.5q88 0 153 78q42 51 88 156q-67 77 -178 77q-100 0 -170 -73 q-64 -66 -81 -169q-7 -41 -1 -116q6 -77 72.5 -133t144.5 -56q169 0 282 201q57 101 91 213q16 53 59 190q14 45 33 96q16 45 48 87z" />
<glyph unicode="&#xcd;" horiz-adv-x="638" d="M1103 314q0 -278 -200 -441q-155 -127 -374 -134q-251 -8 -385 119q-104 98 -149 192q-50 102 -50 237q0 217 147 348q2 2 3 0q2 -2 0 -3q-134 -120 -134 -345q0 -112 37 -199q-1 8 -1 16q0 42 28.5 72t70.5 30q23 0 40.5 -14.5t17.5 -36.5q0 -45 -35 -45q-24 0 -24 21 q0 4 2.5 12.5t2.5 12.5q0 28 -34 28q-29 0 -47 -25t-18 -55q0 -47 32 -71.5t80 -24.5q82 0 145 69q44 49 86 143q12 28 42 97q76 173 172 296q-51 -9 -107 -9q-24 0 -71 4t-71 4q-47 0 -87 -21q-46 -24 -58 -65q-2 -13 -2 -22q0 -63 54 -63q39 0 39 35q0 3 -2 9q-1 5 0 8 q3 17 24 17q15 0 25.5 -11t10.5 -26q0 -25 -21.5 -41.5t-47.5 -15.5q-88 2 -88 101q0 78 41 158q98 191 369 191q227 0 382 -162t155 -390zM1095 314q0 225 -152 384q-154 163 -377 163q-268 0 -364 -189q-27 -53 -36 -129q10 26 33 50q70 72 212 72q31 0 93.5 -3.5 t93.5 -3.5q29 0 76 10l2 -3q-49 -15 -96 -94q-22 -38 -76 -180q-44 -116 -72 -167q-53 -96 -124 -156q-87 -73 -181 -73q-64 0 -103 40q43 -75 135 -162q123 -116 370 -109q175 5 304 81q136 81 208 233q54 114 54 236zM709 776q0 -26 -18.5 -44.5t-44.5 -18.5t-44.5 18.5 t-18.5 44.5t18.5 44.5t44.5 18.5t44.5 -18.5t18.5 -44.5z" />
<glyph unicode="&#xce;" horiz-adv-x="615" d="M892 839l-1 -1l-1 -2q-15 -21 -123 -31l-16 -11q-52 -35 -88 -71l1 -1l-3 -1q-30 -30 -54 -63q25 1 67 10l2 -3q-49 -15 -96 -94q-22 -38 -76 -180q-44 -116 -72 -167q-53 -96 -124 -156q-87 -73 -181 -73q-51 0 -87 26q-41 29 -43 78q-83 18 -142 91.5t-59 158.5 q0 84 42 139q45 61 126 64q3 0 3 -2q0 -3 -2 -3q-78 -3 -121 -63q-38 -54 -38 -135q0 -77 58 -142.5t135 -81.5q7 35 34 58t63 23q23 0 40.5 -14.5t17.5 -36.5q0 -8 -2 -14q54 18 150 97q49 40 102 119q23 53 75 131q59 90 79 125q-51 -9 -107 -9q-24 0 -71 4t-71 4 q-56 0 -99 -27q-50 -32 -50 -85q0 -24 16 -41.5t40 -17.5q39 0 39 35q0 3 -1 8.5t-1 8.5q0 17 24 17q15 0 25.5 -11t10.5 -26q0 -25 -21.5 -41t-47.5 -16q-36 0 -61 25.5t-25 61.5q0 48 41 90q70 72 212 72q29 0 88 -3.5t88 -3.5q29 40 68 76q-34 72 -77 72q-57 0 -139 -85 l-1 1l111 109q-90 31 -130 31q-37 0 -67 -19q-34 -21 -34 -56q0 -75 78 -87q2 0 2 -3q0 -2 -3 -2q-82 13 -82 92q0 37 36 61q31 21 70 21q45 0 140 -29l8 8q13 13 27 13q15 0 30 -37q18 -3 35 -3q8 0 25 -1.5t26 -1.5q29 0 60 3q60 38 97 38q18 0 16 1q12 -3 12 -12 q0 -4 -3 -9zM879 847q-5 1 -12 1q-28 0 -69 -24q42 6 70 17q8 3 10 6v-1zM743 803q-18 -1 -33 -1q-9 0 -26 1.5t-26 1.5q-13 0 -27 2q11 -29 27 -70q40 36 85 66zM557 613zM365 268q-22 -26 -48 -48q-71 -59 -102 -77q-35 -21 -89 -36q-61 -17 -96 -12q-14 0 -29 3 q3 -44 36 -68q30 -22 76 -22q92 0 161 89q43 56 91 171zM100 156q0 28 -34 28q-49 0 -62 -60q30 -5 56 -2q9 1 34 5v1q0 4 3 13.5t3 14.5z" />
<glyph unicode="&#xcf;" horiz-adv-x="626" d="M691 778q0 -16 -11 -27t-27 -11q-17 0 -28 11t-11 28q0 16 11.5 27t27.5 11t27 -11.5t11 -27.5zM544 778q0 -16 -11 -27t-27 -11t-27.5 11.5t-11.5 27.5q0 17 11.5 27.5t28.5 10.5q16 0 26.5 -11.5t10.5 -27.5zM702 568q-61 -49 -111 -173l-87 -225q-52 -132 -63 -153 q-43 -85 -112 -138q-77 -60 -115 -75q-57 -23 -161 -23q-105 0 -165 88q-53 77 -53 186q0 134 76 226q86 105 238 105q93 0 109 -72q3 -14 -7 -36t-22 -32q20 24 20 50q0 41 -30 64q-27 20 -70 20q-139 0 -223 -91t-84 -230q0 -106 51 -179q59 -83 160 -83q74 0 133 30 q38 19 111 78q65 52 119 153q29 53 58 126q21 56 63 169q38 100 79 154q-36 -11 -73 -15l-4 -9q-4 -8 -50 -131q-30 -79 -57 -128q-53 -96 -124 -156q-87 -73 -181 -73q-52 0 -89 28q-41 31 -41 81q0 42 28.5 72t70.5 30q23 0 40.5 -14.5t17.5 -36.5q0 -41 -38 -41 q-22 0 -22 14q0 4 3 13.5t3 14.5q0 28 -34 28q-29 0 -47 -25t-18 -55q0 -47 32 -71.5t80 -24.5q82 0 145 69q44 49 86 143q12 28 42 97q44 101 87 173q-99 9 -177 76q-12 11 -42 38q-94 -28 -94 -104q0 -24 16 -41.5t40 -17.5q39 0 39 35q0 3 -1 8.5t-1 8.5q0 17 24 17 q15 0 25.5 -11t10.5 -26q0 -25 -21.5 -41t-47.5 -16q-36 0 -61 25.5t-25 61.5q0 71 76 117q-38 27 -74 27q-58 0 -98 -45q-35 -41 -42 -102q0 -3 -3 -2q-2 0 -2 2q7 64 43 106q41 46 102 46q43 0 82 -27q71 40 169 40q31 0 93.5 -3.5t93.5 -3.5q29 0 76 10l2 -3 q-49 -15 -96 -94q-13 -22 -28 -57q35 7 76 23q18 7 74 31zM558 613q-51 -9 -107 -9q-24 0 -71 4t-71 4q-22 0 -44 -5l7 -5q8 -8 31 -27q75 -62 182 -66q32 53 73 104z" />
<glyph unicode="&#xd0;" horiz-adv-x="843" d="M850 387q0 -111 -68 -211t-172 -140q-80 -31 -187 -31h-332v3q61 0 89 34q16 18 44 91l77 201q-18 -2 -36 -2q-90 0 -183 42q-67 31 -105 66q-87 82 -87 228q0 38 7 78q32 180 186 285q142 96 332 96q57 0 113 -10q150 -27 243 -128q74 -81 74 -173q0 -122 -112 -218 q68 -47 99 -123q18 -44 18 -88zM709 586q-57 59 -152 59q-54 0 -76 -58l-17 -45q38 -15 77 -15q87 0 168 59zM840 816q0 90 -73 170q-92 100 -240 126q-52 9 -107 9q-186 0 -325 -97q-150 -104 -181 -281q-6 -34 -6 -73q0 -144 85 -220q19 -17 76 -51q-18 22 -18 56 q0 38 24 76q88 141 365 141q183 0 289 -71q111 94 111 215zM772 411q0 108 -59 172q-83 -61 -172 -61q-40 0 -79 16l-73 -191h181l-4 -13h-182l-95 -248q-10 -26 -10 -41q0 -25 43 -31h61q85 0 143 17q107 32 179 151q67 111 67 229zM403 611q0 39 -80 39q-72 0 -133 -27 q-68 -31 -101 -88q-19 -33 -19 -61q0 -37 31 -37q16 0 37 21q11 0 18 -11.5t7 -22.5q0 -20 -15.5 -32.5t-35.5 -12.5h-6q49 -22 92 -28q29 -4 109 -4l87 227q9 23 9 37z" />
<glyph unicode="&#xd1;" horiz-adv-x="1289" d="M880 821q-8 -18 -26 -50q-31 -40 -69 -40q-19 0 -60.5 27t-53.5 27q-26 0 -53 -39l-2 2q44 81 90 81q19 0 60 -26t54 -26q33 0 57 45h1zM1459 -153q0 -25 -20 -51q-56 -74 -186 -74q-92 0 -185 29q-232 72 -397 313q-125 183 -223 482q-94 -346 -234 -488 q-59 -60 -127 -60q-43 0 -76 25.5t-33 67.5q0 72 53 72q30 0 30 -33q0 -9 -17 -25q-10 -9 -10 -23q0 -26 22.5 -47.5t48.5 -21.5q106 0 217 248q81 181 111 333q-71 13 -159 13q-160 0 -160 -74q0 -17 11.5 -29t28.5 -12q18 0 31 13l20 27q4 5 10 5q32 0 32 -33 q0 -44 -55 -44q-37 0 -60 23t-23 60q0 54 57 88q38 22 124 27q21 1 132 2q-51 140 -173 242q-74 62 -122 88q-80 44 -181 44q-96 0 -172 -41q-83 -44 -123 -126q-35 -71 -35 -168q0 -78 26 -140q31 -74 92 -105q48 -24 97 -24q91 0 169 71q-83 -84 -179 -84q-132 0 -190 130 q-30 68 -30 152q0 218 167 307q84 45 192 45q99 0 183 -29q62 -23 132 -75q96 -72 158 -177q44 -75 88 -202q56 -161 81 -218q76 -172 132 -254q45 180 83 277q58 147 142 237q58 62 105 62q27 0 44 -20t17 -48q0 -48 -53 -48q-10 0 -10 19q0 34 -31 34q-42 0 -96 -64 q-116 -137 -187 -468q100 -149 218 -236q144 -106 298 -106q94 0 129 51q12 17 12 35q0 11 -11 25l-3 5q-5 6 -5 11q0 28 32 28q17 0 29 -13t12 -30z" />
<glyph unicode="&#xd2;" horiz-adv-x="725" d="M547 722l-2 -1l-89 60q-26 18 -26 36q0 31 30 31q21 0 37 -31zM924 224q0 -87 -61 -203q-48 -92 -123 -150q-85 -65 -180 -65q-86 0 -138 46q-73 -29 -137 -29q-143 0 -225 67q-169 137 -169 318q0 183 157 350q147 155 333 203q3 1 2 2q-1 2 -4 1q-50 -13 -132 -54 q-85 -41 -123 -72q-101 -81 -160 -184q-65 -114 -65 -233q0 -45 8 -83q30 -144 160 -238q94 -68 218 -68q58 0 131 26q-47 47 -63 127q-41 -10 -81 -10q-100 0 -160 70q-56 66 -56 168q0 87 46 184q106 224 307 268l2 -4q-131 -40 -227 -261q-63 -143 -63 -250 q0 -76 37 -121q40 -49 115 -49q39 0 78 15q-5 27 -5 57q0 128 62 243q-12 -3 -23 -3q-42 0 -65 29t-23 72q0 99 86.5 189t185.5 90q102 0 142 -103q58 13 80 10q53 -8 86 -43t36 -88q2 -33 -22 -104q33 -52 33 -120zM904 449q-2 47 -34 80t-79 40q-22 3 -76 -10 q14 -42 14 -92q0 -36 -5 -72q28 12 56 12q63 0 103 -52q23 62 21 94zM650 548q-24 98 -121 98q-65 0 -122 -49q-50 -45 -76 -110q-15 -38 -15 -70q0 -29 13 -51q15 -28 41 -28q16 0 23 14t13 28q4 10 19 10q19 0 29 -15l2 3q80 120 194 170zM655 499q0 20 -3 39 q-127 -58 -187 -166l-5 -9q1 -4 1 -8q0 -35 -37 -54q-65 -118 -65 -249q0 -27 4 -52q119 54 209 220q83 153 83 279zM877 338q-37 54 -97 54q-30 0 -60 -14q-26 -136 -124 -245t-230 -145q18 -81 65 -124q71 28 126 68q94 68 186.5 184.5t133.5 221.5zM909 224q0 57 -25 102 q-54 -142 -180.5 -275t-265.5 -192q47 -38 122 -38q91 0 172 63q72 56 118 144q59 112 59 196z" />
<glyph unicode="&#xd3;" horiz-adv-x="725" d="M660 816q0 -20 -35 -35l-141 -59l-1 1l111 102q23 21 39 21q27 0 27 -30zM875 399q0 -146 -48 -250q-46 -98 -156.5 -200.5t-240.5 -132.5q-53 -12 -90 -12q-277 0 -392 221q-46 88 -46 186q0 149 60 265q65 128 191 189q60 29 168 50q-125 -39 -191 -77 q-213 -122 -213 -427q0 -92 45.5 -176t121.5 -139q103 -75 256 -75q34 0 87 12q112 26 225 122q109 93 159 201q46 99 46 243q0 75 -35 122q-40 53 -112 53h-1q20 -48 20 -107q0 -129 -66 -242.5t-178 -183.5q-106 -66 -213 -66q-100 0 -160 70q-56 66 -56 168q0 87 46 184 q106 224 307 268l2 -4q-131 -40 -227 -261q-63 -143 -63 -250q0 -76 37 -121q40 -49 115 -49q104 0 202 104q78 83 128 199q52 121 52 216q0 35 -10 64q-129 -41 -184 -212q-19 -59 -76 -59q-42 0 -65 29t-23 72q0 99 86.5 189t185.5 90q89 0 132 -81q5 1 9 1q79 0 124 -58 q41 -53 41 -135zM639 580q-32 66 -110 66q-65 0 -122 -49q-50 -45 -76 -110q-15 -38 -15 -70q0 -29 13 -51q15 -28 41 -28q16 0 23 14t13 28q4 10 19 10q18 0 29 -14q61 162 185 204z" />
<glyph unicode="&#xd4;" horiz-adv-x="725" d="M620 722l-3 -1l-79 87l-143 -87l-1 1l129 126h54zM957 565q0 -73 -112 -179q-82 -77 -164 -127q-67 -138 -196 -218q-106 -66 -213 -66q-72 0 -125.5 39.5t-76.5 108.5q-181 52 -181 186q0 142 194 311q58 50 225 136q-92 -48 -116 -62q-53 -32 -106 -78 q-192 -168 -192 -307q0 -127 173 -175q-11 38 -11 79q0 87 46 184q106 224 307 268l2 -4q-102 -31 -185 -176q-47 -83 -76 -173q29 39 75 77q17 14 80 60q24 85 99 152q80 71 165 71q52 0 89 -29q75 26 144 26q58 0 101 -23q54 -28 54 -81zM923 620q-43 38 -120 38 q-63 0 -134 -24q60 -56 60 -167q0 -94 -38 -185q91 57 159 118q103 93 103 159q0 35 -30 61zM605 622q-31 24 -76 24q-71 0 -131 -58q-54 -53 -75 -126q116 85 215 130q19 8 67 30zM655 499q0 75 -40 115q-13 -6 -72 -33q-124 -58 -214 -131l-11 -9q-2 -12 -2 -24 q0 -29 13 -51q15 -28 41 -28q16 0 23 14t13 28q4 10 19 10t25.5 -10t10.5 -25q0 -28 -23.5 -45.5t-52.5 -17.5q-42 0 -65 29t-23 72q0 17 3 35q-48 -37 -72 -57q-61 -52 -88 -94q-19 -72 -19 -127q0 -15 1 -29q42 -6 83 -6q159 0 364 100q86 155 86 284zM557 194 q-193 -90 -352 -90q-40 0 -82 7q21 -131 150 -131q85 0 167 70q65 56 117 144z" />
<glyph unicode="&#xd5;" horiz-adv-x="725" d="M667 821q-38 -88 -89 -88q-15 0 -45 17q-21 13 -43 26q-16 9 -27 9q-29 0 -56 -39l-2 2q44 81 90 82q2 1 4 1q20 0 61.5 -26t51.5 -26q30 0 52 43zM729 467q0 -128 -66.5 -242.5t-177.5 -183.5q-106 -66 -215 -66q-100 0 -159 71q-55 67 -55 169q0 73 31 148q-8 32 -8 65 q0 97 53 168t146 99q66 20 114 19q90 -2 151 -44q13 2 26 2q80 0 123 -65q37 -56 37 -140zM655 499q0 105 -74 135q19 -28 22 -60q5 -68 -50.5 -119.5t-124.5 -51.5q-9 0 -18 2q-2 0 -2 2q0 3 3 2q8 -1 17 -1q67 0 122 50t48 116q-4 36 -30 64q-18 5 -40 5q-63 0 -120 -48 q-51 -44 -76 -107q-15 -38 -15 -69q0 -29 12 -52q14 -28 40 -28q17 0 25 13q1 2 11 28q4 10 20 10q13 0 25 -10t12 -23q0 -27 -24.5 -46t-52.5 -19q-39 0 -64 32q-24 29 -24 69q0 89 73 174q71 82 160 101q-61 34 -138 32q-52 -1 -110 -19q-88 -27 -138 -94t-50 -159 q0 -21 3 -40l3 6q55 110 123 173q84 78 186 98l2 -4q-105 -31 -191 -188q-51 -92 -78 -187q44 -58 116 -90q69 -30 145 -30q58 0 115.5 31.5t82.5 80.5q54 105 54 221zM547 178q-70 -45 -144 -45q-78 0 -149.5 33.5t-118.5 94.5q-14 -60 -14 -106q0 -78 37 -124 q40 -50 117 -50q147 0 272 197z" />
<glyph unicode="&#xd6;" horiz-adv-x="725" d="M731 462q0 -95 -52.5 -204.5t-162.5 -192.5q-119 -90 -234 -90q-103 0 -162 62t-59 166q0 36 15 95q5 21 38 102q26 65 68 118q-14 45 -5 100q16 103 97 153q70 45 180 45q72 0 123 -17q11 18 33 18q16 0 26.5 -11.5t10.5 -27.5q0 -7 -2 -13q58 -44 52 -108q-2 -1 -4 0 q6 61 -50 104q-10 -21 -37 -21q-35 0 -35 36q0 11 4 20q-41 13 -101 16q20 -9 20 -45q0 -9 -13.5 -18t-23.5 -9q-16 0 -29 10t-13 26q0 26 22 37q-95 -4 -159 -55t-79 -143q-6 -40 3 -74q44 60 127 102t158 42q40 0 68 -14q7 1 14 1q45 0 86 -29q76 -53 76 -181zM600 549 q7 45 -8 79q-29 17 -62 17q-61 0 -119 -51q-51 -45 -76 -107q-15 -37 -15 -67q0 -4 1 -8q37 -19 84 -19q74 0 128.5 42t66.5 114zM547 670q-30 13 -61 13q-137 0 -255 -202l1 -2q24 -31 58 -50l9 -5q9 59 57 123q46 61 101 93q43 25 90 30zM400 368q-40 0 -73 13 q14 -41 45 -41q21 0 28 28zM655 500q0 83 -53 121q12 -30 5 -73q-10 -64 -50.5 -110t-102.5 -63q7 -9 7 -20q0 -28 -23.5 -45.5t-52.5 -17.5q-56 0 -81 58q-9 21 -7 45q-3 1 -19 10q-37 20 -62 51q-93 -170 -93 -296q0 -68 41 -120q44 -57 110 -57q105 0 202 103 q77 81 128 200.5t51 213.5z" />
<glyph unicode="&#xd8;" horiz-adv-x="727" d="M858 431q0 -123 -37 -214q-35 -83 -119 -182q-39 -46 -107.5 -78.5t-127.5 -32.5q-32 0 -62 18t-43 47q-49 -14 -97 -14q-110 0 -174 90q-36 -31 -109 -92v4q0 8 47 47q28 23 58 47q-13 24 -22 48q-59 58 -59 175q0 125 43.5 215.5t141.5 167.5q122 95 291 95 q87 0 183 -25q2 -1 1 -3q0 -2 -3 -2q-92 25 -176 25q-166 0 -285 -94q-96 -76 -137.5 -165.5t-41.5 -213.5q0 -64 30 -127q-4 23 -4 46q0 130 91 265q44 66 115 118q78 58 148 68l1 -3q-129 -42 -224 -255q-62 -140 -62 -242q0 -27 6 -61l1 -1l229 192q-64 28 -64 99 q0 98 87 188t185 90q89 0 137 -87q34 28 99 83l4 -3l-100 -88q21 -52 21 -106q0 -159 -99 -294.5t-250 -183.5q12 -23 39 -38t54 -15q53 0 117 33q56 30 99 72q160 159 160 390q0 82 -38 171q1 2 2 2q51 -98 51 -176zM644 537q-6 33 -14 47q-32 61 -107 61q-66 0 -122 -49 q-50 -43 -76 -109q-16 -41 -16 -70t13 -51q15 -28 41 -28q22 0 28 20t8 22q6 10 19 10q15 0 30 -15q41 32 196 162zM646 487q0 20 -3 42l-191 -162q2 -9 2 -13q0 -26 -23 -44t-50 -18q-6 0 -18 1q-42 -36 -231 -194q31 -12 64 -12q80 0 148 56q14 12 119 108q3 3 6 3 q9 0 9 -9q0 -4 -3 -6q-14 -12 -63 -58q-46 -75 -46 -156q0 -9 2 -18q108 53 194 205q84 148 84 275zM393 163q-102 -93 -197 -93q-35 0 -66 10q35 -98 138 -98q45 0 89 19q-3 12 -3 24q0 68 39 138z" />
<glyph unicode="&#xd9;" horiz-adv-x="871" d="M695 722l-2 -1l-89 60q-26 18 -26 36q0 31 30 31q21 0 37 -31zM963 658q-59 -4 -102 -69q-16 -26 -56 -118q-50 -117 -84 -230q9 4 23 15q64 68 78 130q3 11 4 12q2 1 2 -5q0 -7 -2 -17q-18 -89 -64 -138q-17 -18 -56 -49q-21 -79 -21 -113q0 -57 46 -57q43 0 74 46l3 -3 q-43 -80 -115 -80q-37 0 -59 24t-22 62q0 17 7 73h-1q-104 -162 -236 -162q-84 0 -135.5 52t-51.5 136q0 180 177 360q34 34 71 73q-37 -6 -59 -6q-36 0 -108.5 11.5t-108.5 11.5q-44 0 -74 -17q-36 -22 -36 -63q0 -18 12 -30t30 -12q11 0 32 16q2 1 3 1q15 0 18 -24 q12 27 17 55q0 3 3 2q2 0 2 -3q-10 -60 -46 -103q-41 -49 -98 -49q-53 0 -83 38q-29 35 -29 89q0 69 83 146q68 63 181 63q60 0 138 -24q8 -2 101 -47q37 1 71 9l2 1h2q2 0 2 -2q0 -4 -25 -36q25 -14 46 -19q86 87 155 87h1q7 -2 17 -9q2 -7 2 -14q0 -33 -51 -61 q-45 -25 -77 -25q-25 0 -47 5l-6 -6q-48 -48 -78 -135q-28 -81 -26 -154q2 -55 30 -95q33 -47 85 -47q45 0 104 27q16 37 40 108q64 187 120 300q26 52 51 64q21 10 124 9v-4zM690 676q0 12 -16 13q-58 2 -142 -84q16 -3 34 -3q33 0 75 20q49 24 49 54zM606 137 q-47 -16 -82 -16q-64 0 -105 57q-36 50 -38 117q-2 74 33.5 159t89.5 139l2 2q-19 6 -43 19q-9 -10 -27 -33q-61 -77 -95 -141q-65 -121 -65 -230q0 -77 41 -127q44 -54 120 -54q108 0 169 108zM390 656q-23 15 -73 38q-85 27 -135 27q-94 0 -168 -54q-82 -59 -82 -150 q0 -21 8 -46q22 -69 90 -69q55 0 95 46q-7 -2 -14 -2q-29 0 -46 27q-14 23 -14 53q0 51 43 93q54 53 140 53q29 0 78 -7q56 -8 78 -9z" />
<glyph unicode="&#xda;" horiz-adv-x="871" d="M1238 351q0 -126 -47 -249q-78 -204 -264 -315q-175 -105 -402 -105q-201 0 -340 139q-56 56 -88 134q-45 108 -40 199q8 163 120 266q33 31 96 63q40 21 86 30l13 14q19 19 71 73q-37 -6 -59 -6q-36 0 -108.5 11.5t-108.5 11.5q-44 0 -74 -17q-36 -22 -36 -63 q0 -18 12 -30t30 -12q11 0 32 16q2 1 3 1q18 0 18 -27q0 -17 -12 -28t-29 -11q-29 0 -46 27q-14 23 -14 53q0 51 43 93q54 53 140 53q30 0 88.5 -8.5t88.5 -8.5q42 0 80 9q86 110 234 146l16 15q22 21 40 21q27 0 27 -29q137 0 214 -48q108 -67 163 -180q53 -106 53 -238z M1216 373q0 263 -199 386q-84 52 -210 53q-3 -18 -34 -31l-141 -59l-1 1l87 80q-137 -39 -248 -180q-28 -34 -81 -105q30 3 73 3q61 0 122 -24q68 -26 101 -70q11 -14 20 -32q41 108 83 194q25 52 51 64q21 10 124 9v-4q-43 -3 -74 -34q-63 -62 -153 -335q1 -7 1 -14 q0 -82 -46 -147q-6 -33 -6 -52q0 -57 46 -57q43 0 74 46l3 -3q-43 -80 -115 -80q-74 0 -81 77q-36 -18 -77 -20q-68 -60 -153 -60q-84 0 -135.5 52t-51.5 136q0 166 143 324q-34 -10 -58 -23q-61 -32 -92 -60q-104 -96 -111 -254q-4 -86 39 -191q30 -73 84 -127 q126 -125 325 -125q213 0 385 102q184 108 256 299q50 132 50 261zM698 374q-36 75 -119 108q-58 23 -117 23q-50 0 -85 -5q-101 -152 -101 -290q0 -77 41 -127q44 -54 120 -54q32 0 62 11q-102 14 -102 124q0 43 32 96q3 1 6 0q-20 -31 -20 -96q0 -106 111 -106h8 q47 29 84 104q20 39 50 127q20 58 30 85zM620 144q-20 -34 -28 -45q-18 -25 -36 -39q30 5 56 19q1 14 8 65z" />
<glyph unicode="&#xdb;" horiz-adv-x="871" d="M775 722q-10 43 -24 61q-19 24 -58 25q-63 1 -143 -87l-1 1q66 118 129 126q62 8 84 -28q17 -29 13 -98zM963 658q-43 -3 -74 -34q-50 -50 -128 -263q-76 -209 -76 -285q0 -57 46 -57q43 0 74 46l3 -3q-43 -80 -115 -80q-37 0 -59 24t-22 62q0 17 8 76 q-105 -165 -238 -165q-74 0 -124 42q-68 -17 -123 -17q-121 0 -209 84q-80 76 -80 202q0 93 57 160.5t149 82.5q2 46 42 86q54 53 140 53q30 0 88.5 -8.5t88.5 -8.5q42 0 81 9l2 1h2q2 0 2 -2t-62 -82q-31 -40 -49 -66q46 4 126 56q-80 -63 -134 -68q-103 -154 -103 -293 q0 -107 74 -156q170 65 211 219q-3 -42 -33 -89q1 -1 4 -2q20 -5 46 30q18 24 30 53q8 18 62 192q33 105 52 142q30 58 67 84q41 28 101 25q-25 -1 -43 -5q-74 -16 -121 -112q-16 -33 -48 -140q-15 -55 -62 -193q-36 -96 -86 -86q-2 2 -7 4q-55 -80 -169 -125q36 -22 83 -22 q122 0 186 141q17 38 45 119q63 185 120 300q26 52 51 64q21 10 124 9v-4zM443 600q-37 -6 -59 -6q-36 0 -108.5 11.5t-108.5 11.5q-43 0 -73 -17q-37 -21 -37 -63v-3q27 4 55 4q45 0 76 -5q118 -19 168 -19h3l13 13q21 21 71 73zM349 503q-104 0 -165 10q-31 5 -72 5 q-24 0 -49 -4q12 -19 36 -19q11 0 32 16q2 1 3 1q18 0 18 -27q0 -17 -12 -28t-29 -11q-50 0 -59 67q-84 -15 -136.5 -76.5t-52.5 -146.5q0 -120 73 -192q86 -85 209 -85q49 0 108 12q-58 53 -58 142q0 172 154 336z" />
<glyph unicode="&#xdc;" horiz-adv-x="862" d="M790 778q0 -16 -13 -28t-29 -12t-26.5 12t-10.5 28q0 17 12 28t29 11q15 0 26.5 -12t11.5 -27zM957 658q-42 -3 -72 -32q-43 -42 -110 -213q-92 -236 -92 -330q0 -62 46 -62q40 0 69 44l3 -3q-42 -80 -114 -80q-38 0 -60 24t-22 62q0 15 7 69q-111 -161 -243 -161 q-84 0 -133 54q-47 51 -47 136q0 146 119 297q11 14 45 49q19 20 77 83q-27 -3 -42 -3q-37 0 -109 11t-109 11q-35 0 -53 -7q3 -19 10 -70q1 -5 6 -28q4 -19 4 -25q0 -34 -38 -34q-21 0 -36 32q-12 27 -12 51q0 61 62 105q8 110 105 166q84 47 200 40q67 -4 143 -47 q12 21 36 21q17 0 29.5 -14t9.5 -31q-1 -9 -6 -15q58 -32 118 -32q107 0 183 81q-60 -102 -173 -102q-64 0 -139 42q-12 -8 -23 -8q-17 0 -28.5 14.5t-9.5 31.5q-92 54 -173 54q-100 0 -172 -49q-81 -53 -94 -148q46 30 109 30q30 0 88.5 -8t88.5 -8q21 0 84 9q3 1 3 -1 t-24 -34q-56 -74 -70 -94q-39 -53 -63 -98q-62 -114 -62 -208q0 -87 35 -139q40 -62 123 -62q95 0 154 86q33 48 75 170q40 116 51 144q31 81 61 141q18 36 24 46q25 39 70 46q10 2 91 0v-4zM120 537q-2 19 -8 68q-54 -22 -54 -77q0 -38 35 -38q11 0 22 9q8 7 5 38z" />
<glyph unicode="&#xdd;" horiz-adv-x="695" d="M775 605q0 -20 -12 -33.5t-31 -13.5q-15 0 -24 7q24 -87 24 -184q0 -118 -49 -218q-52 -107 -149 -163q-76 -44 -153 -44q-63 0 -132 49h-184v3h11q71 0 104 80q5 12 17 45l61 158q57 148 57 229q0 40 -19 66q-21 30 -60 30q-80 0 -109 -136l-9 2q23 120 97 168 q34 22 65 22q56 0 87 -47q28 -42 28 -100q0 -15 -5 -71q121 192 257 215q-29 56 -85 105l-124 -52l-1 1l87 81q-82 56 -177 56q-162 0 -302 -109q-71 -56 -109 -136q-31 -66 -34 -74q-16 -43 -16 -80q0 -81 38 -147q45 -78 118 -78q29 0 67 27q5 4 59 48q2 2 3 0q2 -3 0 -4 q-20 -16 -59 -48q-35 -28 -70 -28q-76 0 -122 80q-39 68 -39 150q0 76 48 165q46 84 109 133q149 116 309 116q103 0 190 -59l10 9q23 21 39 21q27 0 27 -30q0 -20 -33 -34q56 -49 88 -111q6 1 12 1q36 0 63 -15q32 -18 32 -52zM703 381q0 153 -42 256q-9 5 -22 5 q-71 0 -144 -75q-57 -58 -96 -138q-18 -37 -68 -166l-61 -158q-14 -36 -14 -52q0 -17 11 -25.5t22 -13.5q15 -5 46 -6v-3h-27q38 -15 73 -15q67 0 136 40q90 52 139 150q47 93 47 201z" />
<glyph unicode="&#xde;" horiz-adv-x="745" d="M771 393q0 -84 -64 -135q-59 -47 -145 -47q-83 0 -141 40l2 5q58 -31 101 -31q79 0 124 69q39 60 39 140q0 60 -34 97t-93 37t-80 -54l-91 -233q-53 -129 -108 -226q-162 -287 -342 -287q-43 0 -77 20q-41 24 -41 64q0 19 12.5 33t31.5 14q27 0 27 -20q0 -2 -8 -18 t-8 -28q0 -28 27 -44q22 -14 52 -14q81 0 155 93q55 70 110 196q34 88 69 176q55 136 112 284q24 63 24 85q0 42 -77 46q-18 1 -28 1q-144 0 -204 -87q-25 -36 -25 -73q0 -32 18 -55q20 -26 51 -26q20 0 36 11.5t16 30.5q0 10 -7.5 21.5t-7.5 12.5q0 26 32 26q17 0 26.5 -14 t9.5 -31q0 -33 -27 -55t-61 -22q-40 0 -67 28t-27 68q0 32 18 65q59 109 243 109q38 0 94 -1q1 14 1 29q0 73 -40 114.5t-113 46.5q-86 6 -211 -32q-118 -36 -198 -86q-215 -135 -215 -346q0 -104 88 -167q78 -55 186 -55q189 0 295 154q2 4 7 4q10 0 10 -9q0 -3 -2 -6 q-111 -162 -310 -162q-116 0 -200 61q-93 68 -93 180q0 221 224 363q186 118 419 118h1q73 0 118 -50q41 -48 41 -128q0 -15 -1 -29q127 -3 173 -3l-2 -4q-69 -5 -110 -79q36 3 49 3q89 0 150 -49q66 -52 66 -139z" />
<glyph unicode="&#xdf;" horiz-adv-x="539" d="M654 248q0 -156 -110.5 -274t-261.5 -118q-53 0 -100 22q-39 -34 -82 -34q-40 0 -40 30q0 26 27 26q12 0 28 -14l7 -5q15 -11 22 -11q14 0 27 14q-28 14 -58 42q-33 31 -44 75q-41 -71 -68 -102q-49 -55 -102 -55q-40 0 -40 30q0 27 26 27q10 0 29 -15t29 -15 q35 0 75 109q29 79 48 148t56 205q91 333 229 333q45 0 45 -30q0 -8 -8 -15t-17 -7q-12 0 -29 17.5t-28 17.5q-21 0 -37 -35q-11 -24 -25 -71q-8 -29 -16 -69q32 50 80 79q52 31 108 27q56 86 131 86q14 0 28.5 -8t14.5 -21q0 -8 -10 -16.5t-18 -8.5q-9 0 -27 18t-29 18 q-19 0 -35 -29q-4 -8 -18 -46q104 -31 161 -163q32 -77 32 -162zM420 574q-106 5 -175 -103q-32 -49 -55 -131l-39 -138q55 35 122 35q13 0 26 -1l20 77q44 169 101 261zM648 246q0 82 -30 156q-32 79 -92 128q-32 26 -66 37q-33 -116 -79 -269q-10 -34 -23 -74 q37 -13 66 -37q76 -63 76 -153q0 -38 -14 -82q9 33 9 64q0 94 -78 159q-28 23 -63 36q-80 -239 -159 -321q47 -18 97 -18q118 0 232 93q124 101 124 281zM295 222q-88 7 -152 -43q-32 -92 -65 -158q9 -51 44 -84q2 -2 29 -24q15 -10 30 -17q40 57 114 326z" />
<glyph unicode="&#xe0;" horiz-adv-x="390" d="M342 499l-2 -1q-23 22 -81 79q-20 20 -20 34q0 11 10.5 20t22.5 9q25 0 34 -28l19 -61zM389 422q-20 -39 -56 -121q28 -16 28 -57q0 -81 -62 -164q-57 -76 -99 -76q-21 0 -21 19q0 26 32 121l-39 -48q-69 -94 -131 -94q-51 0 -51 53q0 66 58 163q41 68 100 129 q77 79 130 79q18 0 37 -19l14 16q-13 -1 26 -3q12 0 34 2zM354 244q0 36 -24 50q-90 -204 -90 -239q0 -9 8 -14q18 6 52 50q54 69 54 153zM301 392q0 28 -27 28q-34 0 -96 -88q-44 -61 -78 -132q-44 -90 -44 -144q0 -28 24 -28q33 0 86 73q9 12 32 45q32 51 73 146 q-47 -26 -67 -84q-2 -5 -6 -3q-5 2 -3 6q22 66 80 91q26 63 26 90z" />
<glyph unicode="&#xe1;" horiz-adv-x="398" d="M400 586q0 -18 -67 -60l-84 -50l-1 1q24 32 89 114q19 24 37 24q10 0 18 -9.5t8 -19.5zM389 422q-20 -39 -56 -121q28 -16 28 -57q0 -81 -62 -164q-57 -76 -99 -76q-21 0 -21 19q0 26 32 121l-39 -48q-69 -94 -131 -94q-51 0 -51 53q0 66 58 163q41 68 100 129 q77 79 130 79q18 0 37 -19l14 16q-13 -1 26 -3q12 0 34 2zM354 244q0 36 -24 50q-90 -204 -90 -239q0 -9 8 -14q18 6 52 50q54 69 54 153zM301 392q0 28 -27 28q-34 0 -96 -88q-44 -61 -78 -132q-44 -90 -44 -144q0 -28 24 -28q33 0 86 73q9 12 32 45q32 51 73 146 q-47 -26 -67 -84q-2 -5 -6 -3q-5 2 -3 6q22 66 80 91q26 63 26 90z" />
<glyph unicode="&#xe2;" horiz-adv-x="390" d="M393 507l-4 2q-4 5 -11 18q-2 5 -6 13l-30 52q-104 -73 -119 -87q-59 -57 -59 -127v-15q69 63 114 63q22 0 39 -21l15 17h6q2 42 -21 80q-2 4 -2 6q1 2 2 3q3 3 6 -3q24 -41 20 -86q6 0 18 -2q7 -5 24 -15q-20 -32 -81 -177q-65 -153 -65 -174q0 -13 10 -13q18 0 79 85 l1 -1q-79 -123 -131 -123q-19 0 -19 21q0 18 11 56q8 27 30 93q-14 -23 -48 -75q-67 -95 -131 -95q-51 0 -51 53q0 65 54 156q46 78 107 139q-3 14 -3 28q0 54 73 138q6 7 119 122q12 0 29 2l3 1q8 -44 21 -134zM300 394q0 26 -21 26q-42 0 -106 -95q17 -26 52 -30 q24 -2 53 14q22 60 22 85zM272 294q-24 -13 -47 -12q-37 1 -59 32q-56 -84 -87 -161q-23 -56 -23 -93q0 -35 23 -35q40 0 101 92q51 76 92 177z" />
<glyph unicode="&#xe3;" horiz-adv-x="398" d="M488 528q0 -46 -54 -94q7 -23 7 -52q0 -87 -58 -196q-98 -184 -185 -184q-20 0 -20 17t11 57q7 27 30 94q-97 -168 -178 -168q-51 0 -51 53q0 39 22 94q20 49 47 85q-56 27 -56 94q0 44 23 92t58 76q75 62 153 61q3 4 8 8q3 -1 4 -3l-6 -5q10 0 19 -1q14 9 31 9 q15 0 49.5 -20t44.5 -20q11 0 24 9q12 25 29 28q11 3 18 3q30 0 30 -37zM472 528q0 24 -18 24q-20 0 -31 -18q-14 -22 -29 -33q21 -21 33 -50q45 42 45 77zM416 442q-12 29 -36 51q-9 -4 -19 -4q-19 0 -48.5 17.5t-41.5 17.5q-36 0 -53 -40l-2 1q13 37 28 55h-17 q-22 -28 -22 -64t31 -60q23 10 42 10t39 -21l15 17h56q11 6 23 16zM301 396q0 26 -23 26q-13 0 -31 -13q21 -13 50 -13h4zM427 379q0 26 -5 46q-21 -16 -44 -25q-4 -7 -10 -19q-17 -37 -63 -150l-8 -18q-58 -142 -58 -161q0 -10 11 -10q20 -2 64 54q32 41 52 76 q61 106 61 207zM224 409q-30 28 -30 67q0 34 25 63q-69 -6 -128 -52q-32 -25 -55 -74t-23 -91q0 -63 54 -74q82 119 157 161zM299 382h-2q-34 0 -61 18q-26 -23 -58 -68q-61 -86 -100 -181q-25 -61 -25 -99q0 -10 8.5 -18t18.5 -8q51 0 132 145q75 134 87 211z" />
<glyph unicode="&#xe4;" horiz-adv-x="394" d="M404 490q0 -40 -83 -219.5t-83 -217.5q0 -12 11 -12q18 0 77 79q-28 -42 -58 -74q-42 -44 -70 -44q-19 0 -19 21q0 17 11 56q6 20 28 89q-27 -44 -49 -74q-66 -92 -128 -92q-51 0 -51 53q0 66 58 163q40 66 100 129q78 81 130 81q18 0 39 -23l15 17q67 0 65 68 q-1 21 -17 39q-8 -6 -18 -7q-24 0 -32 29q-25 0 -48 -12q-7 -11 -19 -14q-22 -13 -54 -78q9 27 14 41q10 24 22 36q-28 5 -29 34q0 16 12 26.5t28 8.5q30 -3 32 -35v-2q20 8 41 8q5 29 35 29q15 0 25.5 -11.5t8.5 -26.5q-1 -13 -10 -21q7 -14 16 -44zM300 393q0 26 -22 26 q-43 0 -114 -109q-106 -162 -106 -253q0 -28 20 -28q57 0 142 155q80 145 80 209z" />
<glyph unicode="&#xe5;" horiz-adv-x="390" d="M486 554q9 -55 -57 -103q-9 -7 -42 -29q-32 -70 -72 -163q16 -6 36 -6q50 0 79 41q-28 -46 -79 -46q-21 0 -38 6l-9 -21l3 -1q33 -18 36 -63q2 -40 -52 -102t-93 -65q-19 -1 -19 21q0 14 11 55q8 31 28 88q-54 -78 -86 -112q-50 -52 -91 -52q-51 0 -51 53q0 66 58 163 q78 130 193 200q11 37 16 51q10 28 24 48q-19 17 -19 42q0 22 16.5 38t38.5 16q26 0 44 -23q32 18 66 18q51 0 59 -54zM353 585q-14 17 -37 17q-18 0 -31 -13t-13 -31q0 -20 14 -33q26 36 67 60zM362 558q0 11 -6 21q-35 -24 -59 -62q9 -4 20 -4q20 0 32.5 12.5t12.5 32.5z M476 551q-7 50 -49 50q-26 0 -32 -2q-10 -2 -30 -15q7 -11 7 -23q0 -24 -16 -40.5t-40 -16.5q-13 0 -24 6q-7 -16 -22 -47q-6 -13 -13 -39q11 2 21 2q19 0 39 -21l15 17h46q55 41 69 56q34 37 29 73zM301 395q0 25 -22 25q-11 0 -23 -7q-3 -19 -3 -33q0 -49 20 -83 q28 69 28 98zM338 169q-3 37 -33 57l-3 2q-62 -147 -62 -169q0 -5 4 -10.5t9 -3.5q22 10 54.5 55.5t30.5 68.5zM268 286q-28 37 -28 94v21q-7 -6 -20 -19q-52 -57 -105 -159q-56 -108 -56 -165q0 -30 22 -30q38 0 95 85q37 54 68 120q-64 -12 -122 -74q44 68 125 80 q12 24 21 47z" />
<glyph unicode="&#xe6;" horiz-adv-x="524" d="M693 276q-2 -308 -208 -414q-62 -32 -132 -32q-30 0 -53 5q-115 25 -136 105q-4 17 -4 47q1 46 44 83q-35 -40 -35 -85q0 -19 6 -40q22 -76 131 -98q20 -4 39 -4q65 0 144 39q102 51 154 188q39 103 38 208q-1 129 -94.5 227t-222.5 98q-219 0 -360 -188 q-84 -112 -84 -239q0 -112 50 -112q18 0 40 15q10 61 60 141q42 68 94 123q77 82 130 82q19 0 40 -20l13 15h9q-5 0 50 -1l-8 -19q48 24 71 24q53 0 53 -49q0 -67 -145 -153q-14 -8 -59 -33q-28 -53 -28 -110q0 -52 39 -52q47 0 120 99l3 -1q-64 -103 -138 -122 q-6 -2 -10 -3q-82 0 -82 91q0 19 10 65q-51 -73 -81 -104q-49 -50 -91 -50q-52 0 -52 53q0 6 1 13q-17 -10 -34 -10q-33 0 -50 45q-13 33 -13 73q0 129 86 244q142 190 366 190q133 0 231.5 -100.5t97.5 -233.5zM488 381q0 36 -31 36q-36 0 -85 -90q-32 -60 -58 -133 q56 28 111 81q63 61 63 106zM320 390q0 27 -24 27q-43 0 -116 -115q-103 -162 -103 -240q0 -33 23 -33q53 0 139 155q81 146 81 206z" />
<glyph unicode="&#xe7;" horiz-adv-x="313" d="M322 388q0 -28 -24 -28q-17 0 -22 21q2 -7 2 16q0 20 -18 20q-20 0 -36 -11q-36 -24 -78 -118q5 1 67 -14q-45 11 -69 9q-62 -142 -62 -223q0 -47 30 -47t67 43q26 30 46 70l4 -1q-23 -47 -55 -80q-41 -43 -82 -42q-21 -19 -21 -27q0 -7 10 -10q22 -7 30 -12 q15 -9 16 -28q37 -15 60 -51.5t23 -77.5q0 -87 -82 -140q-70 -46 -162 -46q-90 0 -169 54q-72 49 -121 131q2 2 4 2q49 -81 120 -129q78 -53 166 -53q86 0 154 50q76 55 76 138q0 76 -70 100q-12 -49 -78 -49q-23 0 -41 7q-25 11 -23 30q-18 5 -33 19q-46 40 -46 130 q0 77 54 145q52 65 126 91q87 150 186 150q18 0 34.5 -11t16.5 -28zM85 -65q-5 12 -39 21q-4 1 -4 3t41 43q-62 20 -62 81q0 78 59 185q-65 -28 -109 -92.5t-44 -134.5q0 -77 40 -112q17 -15 32 -15q40 25 86 21zM86 -91q-32 0 -55 -9q6 -23 13 -23q28 0 42 32z" />
<glyph unicode="&#xe8;" horiz-adv-x="303" d="M302 499l-1 -1q-38 37 -80 80q-19 19 -19 33q0 29 31 29q21 0 34 -33q7 -17 35 -108zM304 374q0 -53 -81 -109q-6 -4 -125 -79q-23 -59 -23 -105q0 -21 10.5 -39t30.5 -18q48 0 120 104l2 -1q-23 -46 -62 -82q-46 -44 -89 -44q-77 0 -77 89q0 24 6 50q-42 -18 -73 -18 q-40 0 -64 35q-22 31 -22 72q0 89 87 170q75 69 168 99q3 1 4 -2q0 -2 -2 -3q-87 -27 -160 -98q-82 -80 -82 -166q0 -33 19 -60q21 -30 52 -30q36 0 81 25q30 110 124 203q60 59 102 59q54 0 54 -52zM272 383q0 36 -31 36q-36 0 -84 -90q-34 -64 -57 -136q54 27 109 83 q63 64 63 107z" />
<glyph unicode="&#xe9;" horiz-adv-x="344" d="M378 619q0 -8 -10.5 -22t-18.5 -18q-73 -45 -92 -58q-32 -22 -74 -61q-64 -59 -64 -116q0 -4 1 -8q76 90 131 90t55 -52q0 -47 -79 -106q-4 -3 -126 -80q-25 -54 -25 -105q0 -56 44 -56q47 0 116 101l2 -1q-76 -125 -153 -125q-75 0 -75 88q0 69 52 163q20 37 50 73 q-5 9 -5 18q0 81 130 175q30 41 75 97q19 24 37 24q9 0 19 -6t10 -15zM270 383q0 36 -29 36q-39 0 -91 -105q37 8 48 41q2 1 3 -1q-5 -17 -22 -31.5t-34 -16.5q-27 -56 -45 -112q56 27 109 82q61 63 61 107z" />
<glyph unicode="&#xea;" horiz-adv-x="314" d="M304 374q0 -49 -79 -108q-6 -4 -74 -48q-15 -10 -54 -34q-24 -65 -24 -113t39 -48q52 0 124 105l2 -1q-76 -125 -153 -125q-75 0 -75 88q0 28 8 60q-33 -10 -62 -10q-44 0 -79 19q-77 42 -77 110l10 45q3 9 15 24q5 4 11 4q17 0 17 -18l-15 -23q-11 -22 -11 -45 q0 -55 56 -85q37 -20 80 -20q27 0 57 8q32 110 128 207q59 60 102 60q54 0 54 -52zM273 387q0 34 -28 34q-40 0 -88 -91q-32 -60 -57 -137q51 25 108 84q65 67 65 110z" />
<glyph unicode="&#xeb;" horiz-adv-x="321" d="M352 558q0 -34 -34 -34q-35 0 -35 35q0 34 36 34q33 0 33 -35zM242 558q0 -34 -34 -34q-15 0 -25 10t-10 25q0 34 36 34q33 0 33 -35zM304 374q0 -50 -79 -108q-58 -43 -129 -83q-23 -65 -23 -112q0 -48 39 -48q52 0 124 105l2 -1q-76 -125 -153 -125q-75 0 -75 88 q0 31 9 66q-72 -4 -150 56q-81 63 -81 135q0 38 26 63t65 25q37 0 72.5 -19.5t53.5 -50.5q3 -28 6 -33v1q0 9 -11 29q-16 30 -51 48.5t-71 18.5q-37 0 -61 -23t-24 -59q0 -26 17 -57q31 -56 90.5 -90t123.5 -31q33 105 124 197q59 60 102 60q54 0 54 -52zM273 387 q0 34 -28 34q-40 0 -88 -91q-32 -60 -57 -137q54 27 110 85q63 65 63 109z" />
<glyph unicode="&#xec;" horiz-adv-x="257" d="M246 499l-2 -1l-80 80q-19 19 -19 33q0 29 31 29q24 0 35 -33zM327 247q0 -46 -30 -68q-41 -31 -73 -28q43 8 70 39q21 24 21 56q0 45 -38 45q-50 0 -125 -80l-54 -131q-10 -24 -10 -31q0 -11 11 -11q20 0 86 90l3 -2q-29 -42 -65 -78q-48 -47 -77 -47q-26 0 -26 25 q0 19 29 89q-42 -27 -71 -27q-45 0 -45 68q0 74 111 210q-97 -125 -100 -209q-2 -56 36 -56q29 0 75 31l91 220q8 19 8 26q0 10 -10 10q-24 0 -99 -108l-3 2q100 144 155 144q26 0 26 -24q0 -9 -38 -107l-26 -67q66 75 122 75q46 0 46 -56z" />
<glyph unicode="&#xed;" horiz-adv-x="308" d="M329 605q0 -16 -28 -34q-37 -24 -134 -85q-47 -25 -139 -77q-85 -52 -85 -108q0 -59 59 -59q37 0 107 20l37 90q8 19 8 26q0 10 -10 10q-24 0 -99 -108l-3 2q100 144 155 144q26 0 26 -24q0 -2 -38 -107l-4 -11q42 13 55 13q8 0 8 -5q0 -9 -26 -33l-76 -71l-44 -108 q-10 -25 -10 -31q0 -11 11 -11q20 0 86 90l3 -2q-29 -42 -65 -78q-48 -47 -77 -47q-26 0 -26 25q0 11 10 40q-59 -78 -87 -163q-2 0 -4 1q41 126 107 205l61 149q-73 -21 -111 -21q-66 0 -66 61q0 53 88 109q47 28 140 83q29 18 60 54q24 33 49 65q18 23 35 23q27 0 27 -27z M224 283q0 4 -7 4q-10 0 -38 -8l-27 -67l41 36q31 27 31 35z" />
<glyph unicode="&#xee;" d="M268 450q0 -41 -31 -78q-20 -23 -42 -54l-10 -23l-87 -215q-10 -25 -10 -31q0 -11 11 -11q20 0 86 90l3 -2q-29 -42 -65 -78q-48 -47 -77 -47q-26 0 -26 25q0 7 4 21q-24 -28 -24 -70q0 -41 38 -41q8 0 13 2q82 33 161 130q-20 -34 -57 -73q-77 -81 -131 -81 q-46 0 -46 55q0 67 94 202l74 181q8 20 8 26q0 10 -10 10q-24 0 -99 -108l-3 2q100 144 155 144q26 0 26 -24q0 -11 -12 -43q48 58 48 97q0 29 -33 29q-54 0 -118 -52q-55 -45 -87 -100q-1 -2 -3 -1q-3 1 -1 3q33 58 89 103q65 52 120 52q42 0 42 -40z" />
<glyph unicode="&#xef;" horiz-adv-x="284" d="M310 558q0 -34 -34 -34q-15 0 -25 10t-10 25q0 34 36 34q33 0 33 -35zM205 558q0 -34 -34 -34q-15 0 -25 10t-10 25q0 34 36 34q33 0 33 -35zM289 432q0 -34 -90 -104q-3 -8 -14 -34l-87 -214q-10 -25 -10 -31q0 -11 11 -11q20 0 86 90l3 -2q-29 -42 -65 -78 q-48 -47 -77 -47q-26 0 -26 25q0 19 33 100l52 128l-48 -42q-118 -102 -118 -206q0 -43 31 -50q40 -8 85 11q82 35 131 101q53 70 53 155q0 32 -8 63q12 -34 12 -72q0 -82 -52 -154q-49 -68 -127 -102q-34 -15 -61 -15q-19 0 -38 7q-41 15 -41 56q0 46 23 88q14 25 55 76 q29 36 112 106l32 76q8 19 8 25q0 11 -10 11q-24 0 -99 -108l-3 2q100 144 155 144q26 0 26 -25q0 -12 -16 -53q60 49 60 78q0 30 -32 30q-142 0 -238 -216q26 90 93 155q74 71 162 71q15 0 26 -10t11 -24z" />
<glyph unicode="&#xf0;" horiz-adv-x="344" d="M832 487q4 -70 -70 -129v-16q0 -128 -128 -218.5t-284 -90.5q-17 0 -51 4q-7 0 -6 7t8 7q33 -4 49 -4q148 0 275.5 90t127.5 205v9q-109 -82 -294 -91q-11 -1 -31.5 1.5t-29.5 2.5q-2 0 -2 3q0 2 3 2q9 0 29 -2.5t31 -1.5q185 9 294 92q-8 99 -98 158q-79 52 -184 52 q-88 0 -174 -18q20 -93 20 -165q0 -108 -36 -197q-41 -103 -121 -157q-43 -29 -70 -29q-38 0 -58 44q-15 33 -15 77q0 135 98 235q66 68 117 68q14 0 38 -14q-3 58 -16 129q-80 -20 -206 -94q-129 -76 -176 -89l-1 -2q-3 1 -4 4q122 154 368 256q-8 24 -17 50l31 42 q16 -44 26 -77q134 49 278 49q269 0 279 -192zM827 486q-10 185 -250 185q-143 0 -297 -56q5 -18 10 -37l59 16l6 -23q26 4 51 3q54 -2 65 -2q104 0 186 -52q94 -58 104 -156q69 56 66 122zM248 568q-4 16 -9 31q-240 -96 -354 -226q155 112 288 165zM269 381q0 40 -31 40 q-40 0 -101 -123q-84 -170 -84 -249q0 -44 32 -44q43 0 113 144q39 81 58 154q13 51 13 78z" />
<glyph unicode="&#xf1;" horiz-adv-x="455" d="M447 600q-36 -74 -77 -74q-18 0 -71 34q-14 7 -22 7q-30 0 -49 -43l-2 1q27 79 75 79q16 0 50 -20t46 -20q23 0 48 38zM681 487q-22 -71 -36 -101q-43 -87 -125 -111q-24 -7 -48 -7q-27 0 -56 9q-32 -138 -135 -242q-9 -9 -23 -25q-23 -14 -48 -14q-39 0 -42 34 q-3 38 30 38q21 0 21 -22q0 -5 -3.5 -15t-3.5 -14q0 -9 12 -9q38 0 82 112q38 97 50 184q-33 19 -101 53q-63 -73 -101 -167q-49 -123 -76 -185q-9 0 -28 -1t-28 -1h-2q3 8 9 25l113 304q13 35 13 45q0 11 -9 11q-23 0 -81 -92q-80 -127 -125 -179q-87 -102 -178 -121 q-10 -2 -22 -2q-79 0 -79 70q0 47 52 116q39 52 89 93q122 101 244 127q47 10 99 4q23 19 39 19q21 0 23 -31q26 -7 51 -17q47 50 92 50q36 0 55 -23t19 -59q0 -22 -4 -48q25 -7 49 -7q40 0 83 24q49 28 81 78q8 12 48 97zM358 332q0 22 -11 42q-12 25 -32 25t-48 -28 q12 -5 90 -48q1 5 1 9zM246 361q-21 9 -40 15q-2 -36 -22 -97l2 -4q5 1 7 5q26 48 53 81zM134 394q-44 6 -86 -3q-122 -26 -241 -125q-45 -37 -83 -87q-51 -66 -51 -113q0 -29 19 -45t49 -16q10 0 19 2q133 28 238 192q26 44 80 131q17 27 56 64z" />
<glyph unicode="&#xf2;" horiz-adv-x="339" d="M296 499l-2 -1l-80 80q-19 19 -19 33q0 29 31 29q24 0 35 -33zM452 297q1 -60 -77 -149q-91 -105 -213 -152q-86 -33 -167 -33q-60 0 -102 34q-46 36 -46 94q0 126 166 239q73 50 199 93q1 1 2 0q10 2 20 2q57 0 66 -97q46 10 86 10q66 0 66 -41zM269 382q0 39 -32 39 q-48 0 -124 -174q68 45 146 70q10 40 10 65zM442 295q0 27 -56 27q-35 0 -84 -14v-8q0 -83 -40.5 -158t-110.5 -118q-37 -23 -61 -23q-38 0 -58 43q-16 34 -16 77q0 13 1 27q-31 -36 -49 -79l4 12q18 44 47 82q14 109 96 194q27 28 51 44q-95 -38 -150 -75 q-158 -107 -158 -235q0 -52 45 -85q41 -29 95 -29q101 0 203 52q95 49 166 129q75 85 75 137zM253 293q-66 -24 -147 -72l-5 -3q-22 -54 -30 -79q-16 -52 -16 -81q0 -49 35 -49q26 0 65 61q19 31 43 79q37 77 55 144z" />
<glyph unicode="&#xf3;" horiz-adv-x="356" d="M390 612q0 -15 -28 -34q-12 -7 -41 -25q-13 -9 -48 -30q-11 -7 -33 -20l-1 1l19 24q2 6 32 43l38 46q18 22 36 22q26 0 26 -27zM387 365q0 -50 -32 -101q-29 -46 -74 -77q-40 -111 -135 -167q-32 -19 -56 -19q-38 0 -58 44q-15 33 -15 77q0 133 98 235q66 68 117 68 q37 0 56 -45q14 -33 14 -76q0 -56 -18 -109q97 72 97 170q0 83 -100 83q-78 0 -165 -57q-64 -42 -107 -107q-47 -71 -47 -141q0 -36 16.5 -75t44 -58t76.5 -19q61 0 131 57q58 48 97 111q3 5 5 5q5 0 -3 -13q-44 -71 -96 -117q-68 -60 -134 -60q-116 0 -143 96q-7 24 -7 73 q0 72 50 147q44 68 110 111q79 52 172 52q106 0 106 -88zM269 380q0 40 -33 40q-37 0 -103 -130l-9 -18v-2q-10 -24 -10 -49q0 -68 60 -68q13 0 27 3q68 144 68 224zM198 151q-12 -3 -24 -3q-69 0 -69 81v1q-46 -110 -46 -168q0 -18 7 -33q9 -18 25 -18q37 0 105 136z" />
<glyph unicode="&#xf4;" horiz-adv-x="339" d="M453 326q-2 -94 -79 -206q-53 -77 -118 -129q-82 -66 -158 -66q-93 0 -93 107q0 33 13 71q-1 10 -1 20q0 29 5 56q-18 -6 -36 -6q-57 0 -57 59q0 89 83 175q76 78 168 106q13 15 45 50l73 77q6 0 26 1l27 -139l-2 -1q107 -55 104 -175zM347 502l-18 30q-15 25 -19 35 l-15 24l-73 -51q-14 -9 -36 -25q33 9 62 9q55 0 99 -22zM269 382q0 39 -31 39q-48 0 -124 -172q22 24 63 67q3 0 3 -3q-10 -12 -33 -36q59 48 119 72q3 18 3 33zM440 319q0 87 -52.5 140t-139.5 53q-104 0 -207 -87q-107 -91 -107 -193q0 -54 52 -54q18 0 37 7q19 96 92 172 q65 68 117 68q47 0 63 -66q55 16 117 16q6 0 5 -2q0 -3 -7 -3q-57 0 -112 -24q4 -22 4 -46q0 -84 -42.5 -160.5t-113.5 -119.5q-32 -19 -56 -19q-50 0 -67 70q-4 -21 -4 -39q0 -94 79 -94q58 0 120 44q88 63 149 147q73 101 73 190zM263 333q-93 -39 -164 -118 q-19 -46 -27 -73q-17 -58 -17 -85q0 -17 9.5 -32t25.5 -15q27 0 65 60q19 30 43 79q46 95 65 184z" />
<glyph unicode="&#xf5;" horiz-adv-x="362" d="M475 261q0 -207 -186 -333q-62 -42 -118 -42q-66 0 -107 58q-25 35 -26 89q-21 34 -21 89q0 56 18 106q-17 -5 -33 -5q-27 0 -44.5 20t-17.5 47q0 89 76 160q69 64 161 82q27 72 73 72q16 0 50 -20t45 -20q23 0 49 38l2 -2q-36 -74 -77 -74q-13 0 -72 34q-12 7 -22 7 q-26 0 -44 -35q23 5 44 5q116 0 185 -81q65 -77 65 -195zM271 381q0 38 -32 38q-56 0 -141 -212q63 91 168 130q5 25 5 44zM460 261q0 112 -60 187q-65 80 -175 80q-99 0 -185 -69q-91 -73 -91 -169q0 -24 14.5 -42t38.5 -18q18 0 36 7q24 66 77 120q66 68 117 68t66 -78 q41 12 85 12q17 0 45 -7q11 -3 12 -5q0 -3 -56 -3q-43 0 -84 -12q2 -16 2 -32q0 -84 -42 -161t-114 -119q-32 -19 -56 -19q-17 0 -30 9q20 -95 124 -95q42 0 86 30q71 48 110 99q80 104 80 217zM262 317q-125 -55 -179 -173q-24 -52 -26 -96q5 -40 34 -40q27 0 65 61 q74 118 106 248z" />
<glyph unicode="&#xf6;" horiz-adv-x="344" d="M420 356q0 -150 -137 -245q-32 -22 -61 -28q-25 -29 -58 -53q-42 -29 -72 -29q-40 0 -60 45q-14 34 -14 80q0 112 76 205q-11 -4 -22 -4q-20 0 -32.5 15t-12.5 35q0 64 53 116q48 46 115 61v5q0 34 35 34q34 0 34 -35v-1q23 -4 43 -12q-2 7 -2 14q0 34 35 34q34 0 34 -35 q0 -30 -30 -34q76 -56 76 -168zM401 419q-19 71 -72 107q-8 2 -13 7q-25 13 -53 17q-7 -26 -33 -26q-25 0 -33 23q-64 -14 -111 -59q-53 -50 -53 -111q0 -45 39 -45q14 0 29 7q33 39 65 61q9 12 35 53q1 2 2 1q2 -1 1 -3l-29 -45q30 18 58 18q20 0 35 -12q40 15 84 15 q21 0 44 -5q3 -1 5 -3zM262 410q-8 9 -23 9q-33 0 -80 -82l2 2q51 51 101 71zM409 356q0 30 -7 58q-1 -9 -10 -7q-21 5 -40 5q-38 0 -73 -12q24 -33 24 -100q0 -102 -60 -190q17 7 26 13q140 95 140 233zM271 381q0 9 -2 16q-54 -21 -98 -68q-59 -63 -59 -136q0 -72 65 -88 q33 61 61 135q33 90 33 141zM165 85q-67 22 -67 108q0 8 1 18q-18 -44 -27 -75q-16 -54 -16 -80q0 -17 9 -31q10 -17 26 -17q30 0 74 77z" />
<glyph unicode="&#xf7;" horiz-adv-x="358" d="M554 199q0 -120 -85 -185q-66 -50 -162 -50q-70 0 -123 30q-62 34 -75 98q-5 25 -5 41q0 51 39.5 90.5t90.5 39.5q53 0 91 -46q1 -1 -1 -3q-1 -1 -3 0q-34 43 -82 43q-52 0 -87 -40t-35 -93q0 -73 62 -114q53 -35 130 -35q98 0 160.5 56.5t62.5 154.5q0 118 -82 194 q-63 59 -157 51q2 -4 2 -10q1 -18 -13 -30t-32 -9q-31 5 -32 35q-1 44 71 44q44 0 95 -16q56 -18 85 -45q85 -80 85 -201zM375 307q-2 -7 -4 -13h-308l6 13h306zM224 183q1 -15 -11 -26.5t-28 -11.5t-27 10.5t-11 26.5t12.5 26t28.5 9q33 -1 36 -34z" />
<glyph unicode="&#xf8;" horiz-adv-x="348" d="M424 250q0 -137 -78 -239q-85 -112 -218 -112q-41 0 -84.5 23t-61.5 58q-25 50 -22 109q6 98 88 178q29 59 78 105q60 56 103 56q32 0 57 -50q6 7 44 51l6 -6q-16 -18 -47 -54q3 -11 5 -21q44 -12 73 -47q2 -3 2 -6q0 -10 -10 -10q-4 0 -7 4q-21 26 -54 36q1 -10 1 -21 q0 -87 -41.5 -163.5t-115.5 -120.5q-32 -19 -55 -19q-36 0 -62 55l-30 -35q15 -51 62 -76q36 -19 71 -19q126 0 207 101q77 95 77 223q0 110 -65 189q-69 84 -176 84q-87 0 -162 -60t-93 -145q-1 -2 -3 -2q-3 1 -2 3q19 87 95.5 148t165.5 61q21 0 45 -5q96 -20 153 -98 q54 -75 54 -175zM266 378q0 42 -33 42q-29 0 -79 -85q48 19 95 19q8 0 15 -1q2 20 2 25zM246 332q-56 -1 -111 -30q-6 -11 -16 -32q-29 -62 -56 -156zM260 332h-2q-6 -8 -114 -137q-21 -26 -78 -92q-11 -38 -11 -51q0 -42 32 -42q28 0 72 71q67 109 101 251zM23 195 q-32 -54 -35 -108q-1 -29 4 -54q19 22 29 32q-6 28 -6 57q0 37 8 73z" />
<glyph unicode="&#xf9;" horiz-adv-x="418" d="M588 222q2 -100 -90 -177q-87 -73 -190 -75q-111 -2 -181 73q-50 -42 -83 -42q-24 0 -24 34q0 24 32 107l10 26q-9 37 -9 73q0 35 5 71q-12 -17 -21 -31l-2 1q11 18 24 37q21 135 137 230q-1 5 -1 10q0 34 35 34q10 0 18 -5q49 30 99 30q41 0 77 -22t51 -59 q12 -28 12 -67q1 -49 -24 -107q-24 -54 -59 -93q-41 -45 -86 -73l-4 -10q-51 -127 -51 -138t10 -11q21 0 64 64q67 100 84 120q55 65 104 66q28 1 45 -18.5t18 -47.5zM468 470q-1 54 -33.5 86.5t-86.5 35.5q26 -6 26 -34q0 -34 -34 -34q-35 0 -35 35q0 25 24 32 q-31 -5 -66 -24q1 -4 1 -9q0 -34 -34 -34q-11 0 -19 5q-88 -72 -124 -171q56 68 95 68q23 0 23 -30q0 -29 -34 -115l-51 -129l56 5q28 3 56 13q44 68 126 252h57l-84 -196q80 64 115 146q22 53 22 98zM579 221q-2 61 -54 60q-53 -1 -107 -74q-16 -22 -47 -67.5t-47 -67.5 q-53 -72 -103 -72q-24 0 -24 21q0 14 18 65q6 16 26 76q-6 -2 -13 -3q-54 -75 -92 -108q66 -74 172 -72q97 2 182 72q91 75 89 170zM248 186l-10 -14l7 3zM141 373q0 13 -12 13q-14 0 -46 -39q-16 -50 -15 -105q1 -22 5 -49l55 136q13 32 13 44zM223 157q-38 -8 -74 -9h-31 l-18 -44q14 -28 34 -51q8 7 26 26q34 35 63 78zM124 46q-17 19 -30 42q-10 -26 -10 -35q0 -17 17 -17q9 0 23 10z" />
<glyph unicode="&#xfa;" horiz-adv-x="416" d="M374 558q0 -34 -34 -34q-35 0 -35 35q0 34 35 34q34 0 34 -35zM264 558q0 -34 -34 -34q-35 0 -35 35q0 34 35 34q34 0 34 -35zM422 189q0 -207 -186 -333q-62 -42 -118 -42q-65 0 -107 58q-27 38 -27 96q0 91 71 181l60 149q-42 -67 -70 -97q-48 -50 -96 -50 q-27 0 -44.5 20t-17.5 47q0 101 94 176q88 71 191 71q106 0 174 -71l12 28h57l-33 -76q40 -68 40 -157zM341 382q-64 74 -169 74q-99 0 -185 -69q-91 -73 -91 -169q0 -24 14.5 -42t38.5 -18q49 0 102 60q27 30 73 103q17 39 17 52t-12 13q-28 0 -92 -105l-2 1q28 48 65 90 q48 54 82 54q23 0 23 -30q0 -28 -34 -115l-18 -46q65 40 142 47zM291 275q-77 -12 -150 -69l-32 -81q-25 -63 -25 -72q0 -17 17 -17q18 0 59 43q70 73 131 196zM407 189q0 78 -32 141l-20 -47q14 -1 30 -4q-12 1 -32 0l-39 -92q-51 -120 -51 -138q0 -11 10 -11q18 0 82 84 l2 -1q-27 -41 -63 -76q-46 -44 -77 -44q-20 0 -20 20q0 14 18 65q11 30 33 100q-133 -185 -204 -185q-24 0 -24 34q0 8 3 20q-19 -47 -19 -87q0 -57 34.5 -91t92.5 -34q42 0 86 30q71 48 110 99q80 104 80 217z" />
<glyph unicode="&#xfb;" horiz-adv-x="417" d="M422 189q0 -205 -176 -324q-71 -48 -130 -48q-62 0 -105 55q-27 35 -27 96q0 91 71 181l60 149q-42 -67 -70 -97q-48 -50 -96 -50q-27 0 -44.5 20t-17.5 47q0 101 94 176q88 71 191 71q106 0 174 -71l12 28h57l-33 -76q40 -68 40 -157zM341 382q-64 74 -169 74 q-99 0 -185 -69q-91 -73 -91 -169q0 -24 14.5 -42t38.5 -18q79 0 175 163q17 29 17 52q0 13 -12 13q-28 0 -92 -105l-2 1q28 48 65 90q48 54 82 54q23 0 23 -30q0 -28 -34 -115l-18 -46q65 40 142 47zM291 275q-77 -12 -150 -69l-32 -81q-25 -63 -25 -72q0 -13 17 -13 q19 0 59 42q73 76 131 193zM407 189q0 78 -32 141l-20 -47q14 -1 30 -4q-12 1 -32 0l-39 -92q-51 -120 -51 -138q0 -11 10 -11q18 0 82 84l2 -1q-27 -41 -63 -76q-46 -44 -77 -44q-20 0 -20 20q0 14 18 65q11 30 33 100q-87 -128 -158 -169q-28 -16 -46 -16q-24 0 -24 34 q0 8 3 20q-19 -47 -19 -87q0 -85 71 -115q29 -12 56 -10q47 3 108 47q54 37 88 82q80 104 80 217z" />
<glyph unicode="&#xfc;" horiz-adv-x="418" d="M617 482q0 -56 -14 -109q-33 -126 -136 -209q-58 -47 -123 -64q-74 -100 -128 -100q-19 0 -19 21q0 15 18 65l5 14q-15 4 -29 10q-52 -64 -101 -93q-27 -16 -46 -16q-24 0 -24 34q0 29 32 107l27 66q-23 37 -36 82q-3 -5 -6 -9l-2 1q4 6 7 12q-11 42 -11 85q0 119 77 181 q21 17 46 17q24 0 41 -16q1 32 35 32t34 -35q0 -34 -34 -34q-8 0 -15 3q7 -20 7 -46q0 -41 -23 -118q-14 -47 -28 -82l-46 -115q31 -30 69 -46q46 58 90 142q-25 60 -25 130q0 87 38 162q62 122 158 128q84 5 127 -59q35 -53 35 -141zM596 471q0 80 -26 131q-34 68 -107 64 q-79 -4 -120 -73q31 -3 31 -35q0 -34 -34 -34q-19 0 -30 15q-33 -69 -33 -160q0 -56 14 -103q20 40 67 146h57l-93 -217q10 -17 52 -70q-26 22 -56 63l-4 -11q-9 -17 -29 -68l-5 -14q94 2 178 70q97 79 127 200q11 45 11 96zM216 478q0 33 -11 56q-6 6 -9 14l-2 3 q-12 18 -37 18q-23 0 -43 -16q-74 -59 -74 -175q0 -37 9 -74q77 122 133 122q21 0 23 -26q11 45 11 78zM141 373q0 13 -12 13q-23 0 -79 -85q11 -45 33 -82l45 110q13 32 13 44zM248 186q-31 -44 -50 -67q12 -5 25 -8q15 43 25 75zM335 98q-30 -6 -60 -6q-12 -33 -12 -43 q0 -11 10 -11q14 0 62 60zM187 112q-36 16 -66 45l-12 -32q-25 -67 -25 -72q0 -17 17 -17q16 0 59 45q13 13 27 31z" />
<glyph unicode="&#xfe;" horiz-adv-x="384" d="M648 337q0 -104 -59 -202q-100 -165 -308 -235q-75 -25 -142 -25q-64 0 -112 17q-1 -4 -1 -8q0 -32 64 -36l-1 -3h-207l1 3q60 0 90 72q-120 79 -120 235q0 2 3 2q2 0 2 -2q0 -145 121 -220l184 454q-71 -33 -121 -100l-2 2q58 78 130 116l103 255l60 18q-47 8 -99 8 q-205 0 -341 -96q-45 -34 -166 -125q-1 -1 -2 -1t-1.5 1t-0.5 2t1 2q44 35 167 126q135 96 343 96q178 0 290 -87q124 -96 124 -269zM641 337q0 160 -107 254q-76 67 -192 88l-102 -254q65 0 103 -40t38 -106q0 -95 -67 -183q-71 -94 -163 -94q-30 0 -74 21 q-16 -37 -45 -113q45 -17 107 -17q148 0 300 106q89 62 143 145q59 93 59 193zM322 301q0 44 -22 74q-25 33 -67 34l-154 -381q29 -17 54 -17q56 0 109 71q80 108 80 219z" />
<glyph unicode="&#xff;" horiz-adv-x="375" d="M248 558q0 -34 -34 -34q-35 0 -35 35q0 34 36 34q33 0 33 -35zM494 334q0 -121 -73 -211q-76 -95 -194 -105q-40 -75 -71 -112q-53 -62 -110 -62q-18 0 -33 10q-18 12 -18 29q0 12 10 20.5t22 8.5q19 0 34 -20l6 -8q12 -16 25 -16q19 0 40 22q38 39 40 128 q-156 15 -223 166q-34 76 -34 142q0 69 24 120q30 62 90 75q14 3 26 3q66 0 116.5 -54t49.5 -120q0 -2 -2 -2q-3 0 -3 2q1 63 -48 116t-111 53q-14 0 -27 -3q-53 -12 -81 -70q-22 -47 -22 -109q0 -68 35 -147q63 -142 210 -157q0 53 -2 85q-4 64 -14 137q-15 107 -30 126 q-7 9 -16 9q-36 0 -69 -120l-3 1q9 40 30 81q25 50 52 65q19 11 27 11q26 0 39 -36q37 -101 41 -359h1q79 154 79 244q0 19 -6 55.5t-6 55.5q0 38 31 38q10 0 16 -14t3 -24q4 -3 4 -7v-10q0 -119 -113 -337v0q106 12 168 102q57 82 57 193q0 77 -38 137q-29 45 -71 73 q-10 -15 -28 -15q-35 0 -35 35q0 23 22 32q4 3 11 3q18 0 28 -13q66 -35 105 -103t39 -144z" />
<glyph unicode="&#x152;" horiz-adv-x="992" d="M1092 560q0 -36 -23.5 -59.5t-59.5 -23.5q-24 0 -41 13.5t-17 36.5q0 13 13.5 21.5t26.5 8.5q3 0 9 -11q8 -17 29 -17q41 0 41 40q0 42 -44 68q-37 21 -82 21q-95 0 -160.5 -72.5t-64.5 -168.5l2 -3q0 -2 2 -5l2 -2q7 -21 16 -21q12 0 36 7.5t36 7.5l1 -1q59 0 59 -43 q0 -9 -3 -16q0 -3 -17 -20q-42 -42 -114 -97q-49 -37 -105 -62q6 -62 45.5 -103t100.5 -41q56 0 112 41q50 38 79 91q3 -2 8 -3q-40 -73 -107 -119q-72 -50 -151 -50q-115 0 -164 120q-120 -99 -224 -118q-43 -8 -67 -8q-80 0 -135 51q-52 48 -69 128q-99 18 -168 78 q-78 69 -78 163q0 95 65 188q60 87 148 134q56 30 128 54q38 13 133 38q2 -2 2 -4q-106 -28 -133 -37q-68 -22 -128 -54q-87 -47 -146 -133q-63 -91 -63 -186q0 -90 76 -155q66 -55 162 -74q-4 25 -4 50q0 32 6 65q-43 63 -43 134q0 103 95 175q87 65 194 65q24 0 47 -4 q26 10 54 16l1 -3q-19 -6 -38 -17q31 -8 58 -23q67 50 138 50q90 0 134 -95q94 95 231 95q59 0 104 -25q55 -31 55 -86zM854 362q0 29 -46 29q-33 0 -77 -19q30 -44 76 -44q47 0 47 34zM816 306q-10 -2 -19 -2q-46 0 -96 35q-67 -66 -67 -157q66 31 182 124zM654 495 q0 64 -29 103q-33 44 -95 44q-48 0 -91 -26q85 -53 85 -137q0 -70 -53 -156q-18 -29 -39 -51q-79 -82 -178 -111q78 -28 163 -28q54 0 106 11q10 13 20 29q8 45 26 75q6 10 30 38q3 4 10 12q1 2 11 29q34 94 34 168zM507 479q0 79 -81 128q-61 -43 -92 -119q-15 -37 -15 -67 q0 -31 11 -53q14 -29 41 -29q20 0 28.5 25.5t24.5 25.5q15 0 26 -10.5t11 -25.5q0 -27 -24 -44.5t-52 -17.5q-43 0 -67 32q-22 29 -22 73q0 55 39 119q34 56 82 96q-29 15 -62 22q-82 -55 -151 -191q-55 -109 -75 -213q44 -37 104 -62q101 27 184 113q31 32 67 102 q23 44 23 96zM330 638q-11 1 -22 1q-99 0 -182 -62q-89 -68 -89 -165q0 -58 30 -109q12 45 35 94q82 174 228 241zM507 124q-45 -8 -90 -8q-102 0 -192 37q-43 -9 -89 -9h-15q1 -72 40 -117q41 -48 112 -48q119 0 234 145zM205 162q-44 21 -79 49q-5 -29 -5 -54q7 -1 15 -1 q35 0 69 6z" />
<glyph unicode="&#x153;" horiz-adv-x="493" d="M540 396q0 -90 -70 -170q-58 -66 -150 -112q-2 -2 -3 1q-1 2 1 3q91 45 148 111q69 79 69 167q0 48 -31.5 76t-81.5 32l-35 3q-21 0 -52 -6q-134 -26 -234 -122q13 -5 26 -11q60 58 104 58q50 0 69 -96q83 96 136 96t53 -52q0 -66 -148 -155q-5 -2 -60 -34 q-24 -54 -24 -106q0 -54 44 -54q43 0 94 68q8 13 27 38l3 -2q-27 -47 -66 -82q-49 -45 -91 -45q-38 0 -58 31q-27 -40 -75.5 -65.5t-96.5 -25.5q-16 0 -31 2q52 -74 152 -74q27 0 99 27q81 30 133 87q11 7 33 28q2 1 4 0q2 -2 0 -4q-7 -12 -24 -36q-55 -59 -140 -91 q-67 -25 -105 -25q-117 0 -172 91q-85 16 -141 76q-59 62 -59 147q0 75 41 129.5t113 76.5q52 16 89 15q27 -1 57 -8q104 101 246 129q31 6 54 6l36 -3q53 -4 85 -35.5t32 -83.5zM457 384q0 35 -31 35q-38 0 -87 -92q-32 -61 -58 -139q88 55 134 111q42 51 42 85zM188 283 q-3 32 -29 56q-47 -81 -82 -183q48 8 80 43q36 37 31 84zM269 380q0 40 -32 40q-31 0 -75 -76q27 -25 30 -61q3 -48 -32 -86t-84 -45q-2 -6 -4 -10q-17 -57 -17 -84q0 -49 35 -49q20 0 45 33q44 58 87 162q47 113 47 176zM191 54q-62 -53 -101 -53q-38 0 -58 44 q-15 33 -15 77q0 134 98 235l6 5q-13 6 -27 10q-82 -82 -111 -184q-14 -50 -14 -120q0 -51 22 -96q23 -4 47 -4q44 0 87 24t66 62zM79 375q-24 6 -49 5q-40 -1 -85 -15q-69 -21 -107.5 -72.5t-38.5 -122.5q0 -73 52 -127q48 -50 122 -68q-19 45 -19 93q0 152 78 253 q20 26 47 54z" />
<glyph unicode="&#x178;" horiz-adv-x="702" d="M836 535q0 -68 -32 -128q-79 -148 -241 -148q-30 0 -60 6q-90 18 -148 62q-11 -32 -24 -64l-61 -158q-14 -36 -14 -52q0 -29 32 -39q16 -5 47 -6v-3h-270v3q61 0 89 34q15 18 43 91l51 129q26 67 43 131q-28 43 -28 84q0 51 39 89q-16 50 -66 50q-84 0 -109 -136 q-3 1 -5 0h-4q23 121 94 168q37 24 68 24q66 0 97 -65q23 5 48 5q44 0 80 -18q88 78 175 78q36 0 63 -15q32 -18 32 -52q0 -20 -12 -33.5t-31 -13.5q-26 0 -42 39q-18 45 -51 45q-58 0 -121 -56l5 -3q0 -3 -3 -4l-6 4q-32 -30 -58 -66q-47 -65 -65 -105q-13 -28 -31 -74 q89 -65 202 -65q154 0 229 141q27 51 27 109q0 82 -53 157q-48 69 -125 110q-27 14 -56 20q17 -11 17 -32q0 -16 -11.5 -27t-27.5 -11t-27 11.5t-11 27.5q0 27 27 36q-59 4 -109 -16q5 -10 5 -21q0 -16 -11 -27t-27 -11t-27.5 11.5t-11.5 27.5q0 24 23 34q58 36 137 36 q69 0 126 -30q80 -43 130 -119t50 -165zM501 590q-35 18 -78 18q-22 0 -44 -5q16 -36 16 -78q0 -15 -5 -71q52 83 111 136zM310 511q0 30 -6 51q-35 -35 -35 -81q0 -37 25 -75q16 61 16 105z" />
<glyph unicode="&#x2c6;" horiz-adv-x="1790" d="M1789 0h-1789v800h1789v-800zM1679 625h-184l-29 -52h124l-90 -160h-170q13 57 15 92q8 126 -84 126q-117 0 -163 -215l-1 -3h-101l-29 -52h120l-4 -17q-4 -17 -6 -50q-7 -124 84 -124q110 0 158 191h151l-104 -185h187l29 52h-125l74 133h47l29 52h-47zM1737 729h-1445 l-29 -52h1446zM1052 625h-183l-29 -52h124l-224 -397h190l29 52h-128zM821 413h-144v212h-46l-93 -212h-248l-29 -52h76l-5 -24q-10 -49 -21 -71q-20 -40 -55 -40q-32 0 -32 49q0 8 1 17q7 61 23 136q32 147 85 147q41 0 38 -59l62 23q-5 92 -90 92q-72 0 -114 -75 q-26 -47 -46 -139t-22 -128q-7 -119 87 -119q71 0 107 63q17 31 41 128h120l-81 -185h58l75 185h57v-185h52v185h115zM1526 123h-1445l-29 -52h1445zM1282 506q-1 -11 -6 -46q-3 -22 -9 -47h-107l3 12q37 150 86 150q37 0 33 -69zM1256 361q-33 -135 -83 -135q-37 0 -33 68 q2 25 5 47q2 8 4 20h107zM625 413h-38l38 98v-98z" />
<glyph unicode="&#x2dc;" horiz-adv-x="443" d="M485 600q-36 -74 -77 -74q-13 0 -72 34q-12 7 -22 7q-29 0 -48 -43h-2q27 80 75 80q16 0 50 -20t46 -20q22 0 48 37z" />
<glyph unicode="&#x2000;" horiz-adv-x="741" />
<glyph unicode="&#x2001;" horiz-adv-x="1483" />
<glyph unicode="&#x2002;" horiz-adv-x="741" />
<glyph unicode="&#x2003;" horiz-adv-x="1483" />
<glyph unicode="&#x2004;" horiz-adv-x="494" />
<glyph unicode="&#x2005;" horiz-adv-x="370" />
<glyph unicode="&#x2006;" horiz-adv-x="247" />
<glyph unicode="&#x2007;" horiz-adv-x="247" />
<glyph unicode="&#x2008;" horiz-adv-x="185" />
<glyph unicode="&#x2009;" horiz-adv-x="296" />
<glyph unicode="&#x200a;" horiz-adv-x="82" />
<glyph unicode="&#x2010;" d="M396 291q0 -81 -61.5 -146.5t-141.5 -65.5q-59 0 -99 31q-64 50 -73 125h-13l13 33q9 81 65 99q-51 -30 -60 -87h201l-17 -45h-184q5 -43 36.5 -83t71.5 -55q24 -9 59 -9q70 0 129.5 66t59.5 137q0 77 -38 130q-42 60 -116 60q-39 0 -72 -23q-37 -26 -37 -63 q0 -42 41 -59q0 -2 -1 -3q-50 13 -50 56q0 47 34 75q31 26 79 26q77 0 127 -62q47 -59 47 -137z" />
<glyph unicode="&#x2011;" d="M396 291q0 -81 -61.5 -146.5t-141.5 -65.5q-59 0 -99 31q-64 50 -73 125h-13l13 33q9 81 65 99q-51 -30 -60 -87h201l-17 -45h-184q5 -43 36.5 -83t71.5 -55q24 -9 59 -9q70 0 129.5 66t59.5 137q0 77 -38 130q-42 60 -116 60q-39 0 -72 -23q-37 -26 -37 -63 q0 -42 41 -59q0 -2 -1 -3q-50 13 -50 56q0 47 34 75q31 26 79 26q77 0 127 -62q47 -59 47 -137z" />
<glyph unicode="&#x2012;" d="M396 291q0 -81 -61.5 -146.5t-141.5 -65.5q-59 0 -99 31q-64 50 -73 125h-13l13 33q9 81 65 99q-51 -30 -60 -87h201l-17 -45h-184q5 -43 36.5 -83t71.5 -55q24 -9 59 -9q70 0 129.5 66t59.5 137q0 77 -38 130q-42 60 -116 60q-39 0 -72 -23q-37 -26 -37 -63 q0 -42 41 -59q0 -2 -1 -3q-50 13 -50 56q0 47 34 75q31 26 79 26q77 0 127 -62q47 -59 47 -137z" />
<glyph unicode="&#x2013;" horiz-adv-x="430" d="M436 373q0 -91 -66 -142l-1 -4l-9 -1q-65 -7 -186 -5l-10 -2q-14 -1 -28 3q-47 2 -86 5q6 20 14 44q6 -1 14 -1q-30 46 -32 101q-50 -53 -45 -132t74 -124q64 -42 145 -37q39 3 76 28.5t53 61.5q3 8 11 8q12 0 12 -12q0 -35 -59 -72q-53 -33 -92 -36q-86 -6 -155 45.5 t-75 136.5q-6 89 55 147q3 78 42 129q42 55 117 67q13 2 29 2q81 0 141.5 -64t60.5 -146zM414 373q0 74 -53 136q-56 64 -129 64q-77 0 -124 -50.5t-51 -128.5q57 46 130 49q56 3 98 -19q50 -26 50 -79q0 -46 -43 -80q48 1 84 5q38 45 38 103zM332 345q0 50 -50 74 q-42 20 -94 15q-80 -7 -132 -53q0 -66 30 -112q59 -5 147 -5q23 33 23 72q0 15 -4 28q1 1 3 1q4 -14 4 -29q0 -39 -23 -72q26 0 51 1q45 33 45 80z" />
<glyph unicode="&#x2014;" horiz-adv-x="535" d="M633 170q0 -128 -126 -222q-91 -68 -215 -68q-141 0 -216 93q-55 69 -55 144q0 58 34 112h-45l18 44q5 0 25 1h34h6q55 45 124 45q61 0 115 -46h116q3 0 26 -2q14 -1 26 0l-19 -41q-16 -1 -36 -2h-18q-24 1 -17 1q-11 0 -37 -1q35 -46 54 -103q1 -2 -1 -3q-3 -1 -3 1 q-21 59 -59 105q-14 -1 -23 -1q-5 0 -32 2q-10 -1 -73 -1l-161 1q-37 -51 -37 -110q0 -71 52 -135q69 -86 203 -86q118 0 204 64q125 93 125 208q0 170 -250 170h-94q-51 0 -72 4q-48 9 -51 42q-1 10 5 25q3 7 11 18l33 33q-17 -15 -44 -51q-3 -8 0 -25q5 -32 51 -39 q12 -2 67 -2q16 0 47 1.5t47 1.5q261 0 261 -178zM314 273q-44 31 -92 31q-52 0 -100 -31h19q6 1 9 1h20q19 -1 30 -1h51h63z" />
<glyph unicode="&#x2018;" horiz-adv-x="256" d="M519 438q0 -75 -38 -137.5t-104 -95.5q-61 -30 -132 -30q-81 0 -147 41q-99 62 -99 189q0 122 102 189q39 26 82 38q19 11 57 29q31 11 67 11q57 0 101 -27q111 -69 111 -207zM514 438q0 135 -109 203q-43 27 -100 27q-32 0 -55 -9q-55 -23 -75 -77q13 2 16 2 q20 0 34 -12.5t14 -32.5q0 -19 -13.5 -32.5t-32.5 -13.5q-22 0 -35.5 15.5t-13.5 38.5q0 40 38 79q-97 -24 -144 -100q-34 -55 -34 -121q0 -125 96 -185q64 -40 145 -40q69 0 129 29q64 31 99 87q41 65 41 142z" />
<glyph unicode="&#x2019;" horiz-adv-x="243" d="M345 672q0 -66 -37 -115q-38 -52 -102 -63q60 15 96 63.5t36 111.5q0 80 -57 126q-52 43 -134 43q-79 0 -131 -43q-54 -46 -54 -124q0 -59 37.5 -106t94.5 -62q19 -5 35 -5q34 0 64 26q28 23 41 57q-12 -2 -15 -2q-19 0 -33 13t-14 32t13 32.5t32 13.5q21 0 34.5 -14.5 t13.5 -36.5q0 -50 -41.5 -86.5t-93.5 -43.5q-19 -2 -54 7q-60 16 -97 65t-37 111q0 82 61 133q58 47 142 47t140 -47q60 -51 60 -133z" />
<glyph unicode="&#x201a;" horiz-adv-x="88" d="M261 79q0 -78 -35.5 -151t-96.5 -124q-109 -91 -248 -91q-55 0 -107 15q-134 38 -217 151.5t-83 253.5q0 107 53 202q101 181 314 202q-196 -29 -299 -210q-52 -92 -52 -196q0 -135 80 -244t209 -145q50 -14 103 -14q146 0 255 103t109 248q0 129 -102 224t-232 95 q-74 0 -138 -37t-100 -101q-33 -60 -33 -125q0 -95 71 -161.5t165 -66.5t162 70q10 14 16 31q-13 -3 -16 -3q-21 0 -35 12.5t-14 32.5t13.5 33t33.5 13q46 0 46 -52q0 -42 -33 -77.5t-75 -48.5q-57 -17 -104 -17q-133 0 -203 119q-31 53 -31 115q0 67 34 127.5t91 96.5 q74 46 158 46q134 0 236 -95q105 -98 105 -231z" />
<glyph unicode="&#x201c;" horiz-adv-x="385" d="M686 525q0 -32 -7 -63q-43 -186 -218 -253q-58 -22 -120 -22q-101 0 -184.5 55.5t-119.5 149.5q-27 70 -27 142q0 87 45 170t118 131q102 68 204 68q107 0 149 -79l-5 -2q-47 74 -151 74q-84 0 -191 -70q-72 -47 -115.5 -127t-43.5 -165q0 -21 3 -42q9 -60 23 -97 q35 -91 116 -145t179 -54q60 0 117 22q166 64 208 247q7 31 7 60q0 94 -76 142q-46 29 -97 24q-148 -14 -179 -107q10 1 13 1q49 0 49 -44q0 -20 -13.5 -33t-33.5 -13q-21 0 -34.5 14t-13.5 35q0 64 74 110q63 39 137 45q81 6 134 -44.5t53 -129.5zM279 672 q-82 -24 -103 -88q10 1 13 1q50 0 50 -44q0 -19 -13.5 -32.5t-32.5 -13.5q-48 0 -48 54q0 39 31 73q29 31 69 43q10 3 34 9v-2z" />
<glyph unicode="&#x201d;" horiz-adv-x="372" d="M408 620q0 -42 -28 -74.5t-70 -45.5q-9 -3 -35 -9v3q78 22 104 87q-11 -1 -14 -1q-50 0 -50 44q0 19 13.5 32.5t32.5 13.5q47 0 47 -50zM304 800q0 -83 -58 -140q19 -15 19 -42q0 -50 -40 -83q-29 -24 -89 -48q-40 -16 -78 -16q-30 0 -79 13q-108 28 -164 118 q-45 72 -45 147t44 151q35 60 102 97t137 37q139 0 215 -122q36 -58 36 -112zM301 801q0 54 -35 110q-75 120 -212 120q-70 0 -135.5 -36.5t-100.5 -96.5q-41 -70 -41 -143q0 -93 57.5 -164.5t147.5 -95.5q44 -12 75 -12t74 13q14 4 41 14q19 9 33 24q23 25 23 39q0 7 -6 7 l-7 -2q-17 0 -29.5 12.5t-13.5 29.5q-8 -2 -17 -3l-1 3q9 1 17 3v1q0 18 13.5 32t31.5 14q16 0 27 -8q58 51 58 139z" />
<glyph unicode="&#x201e;" horiz-adv-x="294" d="M360 30q-14 -146 -128 -226q-84 -59 -180 -59q-38 0 -78 9q-40 -12 -82 -12q-38 0 -77 9q-113 26 -188.5 118.5t-75.5 207.5q0 78 38 156q20 41 48 69q77 77 199 97q-80 -20 -126 -53q-146 -102 -146 -270q0 -110 73 -200t181 -114q69 -15 131 -2q-102 28 -174 126 q-29 39 -46 81q-46 46 -46 118q0 75 53 138q30 78 117 139q57 40 134 49q-80 -21 -129 -55q-52 -37 -92 -105q71 56 164 56q35 0 70 -8q40 13 83 13q68 0 129.5 -32t100.5 -87q23 -32 37 -79t10 -84zM348 31q3 36 -10 80t-35 75q-38 55 -99.5 87t-128.5 32q-34 0 -67 -9 q95 -27 152 -108q32 -46 44 -106q19 -15 19 -42q0 -36 -24 -67q-25 -99 -123 -168q-40 -28 -79 -43q28 -5 55 -5q94 0 174 56q109 76 122 218zM193 3q-12 -2 -15 -2q-48 0 -48 45q0 19 13.5 32.5t32.5 13.5q7 0 14 -3q-13 53 -40 92q-59 84 -157 111q-67 -23 -111 -78 q-47 -58 -47 -126q0 -53 39 -102q36 -46 88 -66q66 24 89 83q-14 -2 -17 -2q-20 0 -34 12.5t-14 32.5q0 19 13.5 32.5t32.5 13.5q21 0 34 -15t13 -37q0 -78 -109 -123q30 -10 64 -10q51 0 94.5 23t63.5 67zM-15 293q-31 8 -62 8q-93 0 -162 -60q-43 -80 -43 -158 q0 -66 31 -130q55 -48 128 -48q38 0 79 13q-57 24 -97 81q-28 40 -28 89q0 67 46 125q43 55 108 80zM181 -46q-56 -50 -150 -50q-38 0 -67 11q-43 -16 -85 -16q-70 0 -125 45q13 -26 31 -51q73 -101 186 -126l3 -1q48 15 95 48q85 59 112 140zM-269 210q-45 -56 -45 -123 q0 -62 39 -109q-21 53 -21 107q0 62 27 125z" />
<glyph unicode="&#x2022;" horiz-adv-x="476" d="M716 309q0 -57 -39 -114q-83 -121 -231 -126q13 -6 27 -15q2 -2 -1 -3q-11 0 -38 18h-2q-113 0 -205 82q-95 84 -95 196q0 121 83.5 208t204.5 87q82 0 139 -37q67 -43 67 -121q0 -33 -11 -59q47 -7 74 -38t27 -78zM601 407h-10q-69 0 -124 -34q4 -18 4 -36q0 -10 -1 -19 q97 33 131 89zM695 309q0 41 -23.5 67t-64.5 30q-35 -60 -138 -93q-15 -82 -94 -107q0 -64 50 -118h7q146 0 228 119q35 51 35 102zM621 484q0 76 -65 117q-56 34 -136 34q-116 0 -197 -85.5t-81 -202.5q0 -101 85 -177q80 -72 184 -81q-52 52 -55 113q-11 -2 -22 -2 q-57 0 -97 40t-40 97t40 97t97 40q41 0 75.5 -22.5t50.5 -60.5q59 35 131 35q10 0 19 -1q11 27 11 59z" />
<glyph unicode="&#x2026;" horiz-adv-x="550" d="M455 45q0 -17 -14.5 -30.5t-31.5 -13.5q-18 0 -32.5 12.5t-14.5 29.5q0 18 6 28q13 22 27 22q37 0 51 -24q9 -15 9 -24zM271 47q0 -47 -43 -47q-18 0 -33 14.5t-15 32.5t11 32.5t29 14.5h3l5 -3h5q16 0 27 -13.5t11 -30.5zM92 45q-2 -3 -4 -8q-8 -36 -43 -36 q-19 0 -33 15.5t-14 34.5q0 25 26 38l2 -1q10 4 19 4q37 0 44 -39q3 -11 3 -8z" />
<glyph unicode="&#x202f;" horiz-adv-x="296" />
<glyph unicode="&#x2039;" horiz-adv-x="462" d="M509 779q0 -16 -12.5 -27.5t-28.5 -11.5q-18 0 -30 11.5t-12 29.5q0 40 39 40q19 0 31.5 -11.5t12.5 -30.5zM566 665q-42 -36 -50 -41v0q-1 -2 -6 -7q-43 -46 -82 -138q-17 -39 -38.5 -103t-64.5 -193q-34 -95 -111 -183q-107 -122 -287 -217q-191 -101 -339 -101 q-215 0 -340 152q-95 116 -95 258q0 148 66 274.5t188 206.5q75 49 140 69.5t153 20.5q132 0 218 -86l-5 -3q-83 83 -214 83q-87 0 -152.5 -21t-136.5 -71q-99 -70 -173 -217q-48 -96 -48 -219q0 -85 25 -143q22 -54 81 -121q125 -141 339 -141q102 0 244 52q97 35 144 70 q63 46 136 135q67 81 110 158q-110 -145 -252 -145q-50 0 -88 29.5t-38 78.5q0 37 26.5 68t63.5 31q21 0 37 -13.5t16 -34.5q0 -32 -24 -32q-16 0 -19 12q-1 4 2.5 12t3.5 11q0 24 -35 24q-27 0 -47.5 -25.5t-17.5 -52.5q12 -92 110 -92q102 0 176 111q25 38 94 196 q27 62 56 118q47 90 114 176q-46 -8 -91 -8q-26 0 -78 4.5t-78 4.5q-57 0 -99 -29q-48 -32 -48 -87q0 -23 15.5 -39t38.5 -16q39 0 39 35q0 3 -1 8.5t-1 8.5q0 17 25 17q14 0 24.5 -11.5t10.5 -25.5q0 -25 -21.5 -41t-47.5 -16q-36 0 -61 25.5t-25 61.5q0 46 39 88 q70 74 214 74q31 0 94 -3.5t94 -3.5q28 0 76 10z" />
<glyph unicode="&#x203a;" horiz-adv-x="259" d="M640 82q-38 -74 -73 -120q-68 -89 -163 -157q-116 -83 -213 -83q-38 0 -71 14q-117 49 -117 197q0 91 49 194q18 41 63 147q30 70 30 101q0 10 -5 10q-20 2 -95 -105l-3 1q57 85 113 126q26 19 42 19h4q7 27 7 49q0 32 -17 68q-48 102 -164 99q-140 -4 -253.5 -126 t-113.5 -262q0 -123 97 -157l-7 -4q-96 33 -96 164q0 156 151 292q125 112 252 115q60 2 105 -32.5t66 -92.5q12 -32 12 -62t-14 -77q-4 -8 -11 -28.5t-30 -76.5q-20 -48 -71 -179q-19 -52 -19 -61q0 -8 10 -8q5 0 19 12q31 27 55 62l5 -1q-25 -37 -65 -74q-48 -45 -75 -45 q-14 0 -19 12q-14 -41 -14 -81q0 -62 30.5 -113t85.5 -74q36 -15 73 -15q94 0 204 79q146 104 229 268z" />
<glyph unicode="&#x205f;" horiz-adv-x="370" />
<glyph unicode="&#x2122;" horiz-adv-x="846" d="M1289 660q0 -162 -102 -280q-107 -123 -267 -123q-46 0 -92 19v-6q-23 4 -77 2l-80 -2l1 4q38 1 54 39q6 14 11 27q-29 30 -49 67l-6 -9q-39 -60 -119 -180q-62 -92 -135 -136q-87 -53 -217 -53q-95 0 -172 68q-87 3 -153.5 54t-94.5 135q-12 36 -12 74q0 108 86 195 q79 79 190 103q65 14 118 5l6 -1q-219 39 -219 154q0 19 7 41q45 138 239 138q331 0 409 -333h38q-8 -164 -8 -297q19 22 39 51q-27 56 -27 114q0 64 32 123t85 96q-12 31 -12 66q0 81 64 142t146 61q140 0 231 -111q86 -104 86 -247zM1284 660q0 140 -85 243 q-90 110 -227 110q-79 0 -142 -59.5t-63 -138.5q0 -33 12 -63q45 30 89 35q14 2 30 2q40 1 43 -2q0 -21 -44 -20q-59 2 -63 0q-27 -9 -51 -25q27 -58 101 -76q25 -6 50 -4q11 1 24 9q-9 12 -9 28q0 18 12.5 32t30.5 14q19 0 33 -14t11 -32q-9 -45 -113 -46q-11 -3 -18 -10 q-9 -10 -52 -135q-19 -54 -68 -196q65 -45 135 -45q157 0 262 120q102 114 102 273zM863 662q-57 20 -84 77q-51 -36 -81 -92t-30 -117q0 -53 23 -103q6 8 21 30q36 52 140 204q5 0 11 1zM837 620q-17 -23 -58 -79q-23 -35 -84 -124q18 -36 46 -66q9 20 29 74zM821 280 q-18 8 -35 19q1 -16 35 -19zM283 641q0 8 -24 10h-31q27 -8 52 -20q3 6 3 10zM602 662q-74 324 -396 324q-188 0 -230 -132q-6 -19 -6 -39q0 -72 96 -114q63 -28 158 -39h94q28 0 82 2q89 3 153 -19q2 -2 0 -3q-32 12 -69 11q-9 -23 -25 -74h-5l-20 72q-7 1 -43 1 q7 0 -22 -1h-20q-2 -1 -20 -50q46 -33 74 -76q-2 -3 -5 -3q-26 42 -70 74q-90 -257 -90 -288q0 -29 51 -32l-1 -4l-166 -1l2 5q41 0 62 61q53 155 93 289q-31 15 -64 24l-17 -2q-20 -18 -38 -37q-8 -9 -31 -34q-2 1 -5 2q6 17 21 60l7 21q-50 4 -97 -7q-107 -25 -183 -102 q-82 -84 -82 -188q0 -34 12 -71q25 -78 85.5 -128t142.5 -59q-93 91 -93 215q0 25 14 79q1 2 3 2q3 -1 2 -3q-8 -31 -8 -78q0 -62 29.5 -119.5t79.5 -96.5q83 -1 164 44q3 1 4 -1t-1 -4q-78 -43 -157 -46q67 -49 144 -49q124 0 225.5 64.5t150.5 176.5l10 321l-121 -250 q-14 -29 -14 -58q0 -24 37 -25v-2l-1 -4q-25 5 -68 3t-69 -2l2 4q37 1 52 17q31 33 60 92q21 42 71 145q8 16 48 100q-12 24 -43 27l1 5h50z" />
<glyph unicode="&#xe000;" horiz-adv-x="780" d="M0 780h780v-780h-780v780z" />
</font>
</defs>
</svg>
