<?xml version="1.0" standalone="no"?>
<!DOCTYPE svg PUBLIC "-//W3C//DTD SVG 1.1//EN" "http://www.w3.org/Graphics/SVG/1.1/DTD/svg11.dtd" >
<svg xmlns="http://www.w3.org/2000/svg">
<metadata></metadata>
<defs>
<font id="josefin_sanssemibold" horiz-adv-x="960" >
<font-face units-per-em="2048" ascent="1536" descent="-512" />
<missing-glyph horiz-adv-x="614" />
<glyph horiz-adv-x="2048" />
<glyph horiz-adv-x="2048" />
<glyph unicode="&#xd;" horiz-adv-x="614" />
<glyph unicode=" "  horiz-adv-x="614" />
<glyph unicode="&#x09;" horiz-adv-x="614" />
<glyph unicode="&#xa0;" horiz-adv-x="614" />
<glyph unicode="!" horiz-adv-x="411" d="M119 111q0 39 26.5 62.5t59.5 23.5t59.5 -23.5t26.5 -62.5t-26.5 -63.5t-59.5 -24.5t-59.5 24.5t-26.5 63.5zM139 340v1196h129v-1196h-129z" />
<glyph unicode="&#x22;" horiz-adv-x="659" d="M129 967v508h129q-2 -129 -4 -254t-4 -254h-121zM401 967v508h129q-2 -129 -4 -254t-4 -254h-121z" />
<glyph unicode="#" horiz-adv-x="1169" d="M53 408q4 31 7 62.5t8 61.5h204q8 63 15.5 125t15.5 125h-203q4 31 6.5 61.5t6.5 63.5h204q12 104 24.5 204.5t25.5 205.5h129q-12 -104 -24.5 -204.5t-25.5 -205.5h248q12 104 24.5 204.5t24.5 205.5h129q-12 -104 -24 -204.5t-25 -205.5h230q-4 -33 -6.5 -63.5 t-6.5 -61.5h-231q-8 -63 -15.5 -124.5t-15.5 -125.5h230q-4 -31 -7.5 -62.5t-7.5 -61.5h-229q-12 -104 -24.5 -204t-24.5 -204h-129q12 104 24.5 203.5t24.5 204.5h-248q-12 -104 -24.5 -204t-24.5 -204h-129q12 104 24.5 203.5t24.5 204.5h-205zM401 532h248q8 63 15.5 125 t15.5 125h-248q-8 -63 -15 -124.5t-16 -125.5z" />
<glyph unicode="$" horiz-adv-x="1161" d="M115 201l82 82q49 -53 122.5 -105.5t176.5 -66.5v591q-10 4 -21.5 8.5t-21.5 10.5q-39 14 -88.5 38.5t-92.5 63.5t-72.5 96.5t-31.5 139.5q-2 61 14.5 124.5t55 117t102 90t156.5 47.5v127h129v-129q63 -10 131.5 -38.5t144.5 -94.5q-18 -23 -35.5 -47.5t-36.5 -47.5 q-29 27 -81 58.5t-123 44.5v-518q61 -25 126.5 -58t119 -80t87 -113.5t33.5 -158.5q0 -84 -28.5 -152.5t-77.5 -120t-117 -83t-143 -39.5v-127h-129v129q-70 8 -129.5 30.5t-108.5 52t-86 63.5t-57 65zM295 1063q0 -86 42 -131t114 -74q10 -6 21 -10t24 -8v473 q-51 -8 -89 -32t-63 -57.5t-37 -74.5t-12 -86zM625 115q49 8 92 30.5t75.5 56.5t52 79t19.5 100q0 61 -20.5 104t-54 76t-76.5 54.5t-88 39.5v-540z" />
<glyph unicode="%" horiz-adv-x="1486" d="M195 797q0 51 20.5 96t54 79t79.5 53t97 19t96.5 -19t80 -53t55 -79t20.5 -96q0 -53 -20.5 -98.5t-55 -79t-80 -53t-96.5 -19.5t-97 19.5t-79.5 53t-54 78.5t-20.5 99zM324 797q0 -53 34.5 -89t87.5 -36t88 35.5t35 89.5q0 51 -34.5 87t-88.5 36q-53 0 -87.5 -36 t-34.5 -87zM377 0q154 258 305.5 512t304.5 512h141q-154 -258 -305 -512t-305 -512h-141zM817 229q0 51 20.5 96.5t54.5 78t80 52t97 19.5t96 -19.5t80 -52t55.5 -77.5t20.5 -97q0 -53 -20.5 -98t-55.5 -79t-80 -53t-96 -19t-97 19t-80 53t-54.5 79t-20.5 98zM946 227 q0 -53 35 -88t88 -35t88 35t35 88t-35 88t-88 35t-88 -35t-35 -88z" />
<glyph unicode="&#x26;" horiz-adv-x="1433" d="M215 385q0 74 25.5 139.5t69.5 117.5t104.5 88t132.5 48q-35 59 -72 118.5t-74 119.5q-37 61 -52 126.5t-5 128t48 119t106 97.5q57 35 117.5 42t118 -4.5t107.5 -34t89 -46.5q-12 -25 -25.5 -50.5t-25.5 -50.5q-29 16 -66 34t-76 27t-79 6t-74 -26q-98 -61 -108.5 -153 t42.5 -182q92 -152 183.5 -299.5t183.5 -298.5q10 37 16 69.5t10 61.5v43q10 59 34 88.5t54.5 42t67.5 12.5h76h90v-125h-98q-31 0 -51.5 -9t-33 -32.5t-16.5 -64.5t-4 -107v-47q0 -63 -26 -123q37 -59 72.5 -116.5t72.5 -116.5q-27 -16 -51.5 -33t-48.5 -33 q-29 43 -54.5 87t-52.5 87q-57 -72 -140 -111.5t-181 -39.5q-84 0 -158 31.5t-129 86t-87 127t-32 156.5zM344 385q0 -59 20.5 -109.5t57.5 -88t88 -59.5t111 -22q86 0 149.5 41t97.5 107q-61 102 -123.5 202.5t-123.5 202.5q-123 -4 -200 -78.5t-77 -195.5z" />
<glyph unicode="'" horiz-adv-x="323" d="M100 967v508h133q-2 -129 -4 -254t-4 -254h-125z" />
<glyph unicode="(" horiz-adv-x="849" d="M256 596q0 154 28.5 293t76 258t107.5 216t126 165q27 -12 52.5 -23.5t53.5 -23.5q-59 -68 -115.5 -160t-101.5 -204.5t-71.5 -244t-26.5 -276.5t26.5 -276.5t71.5 -244t101.5 -204.5t115.5 -160q-29 -12 -54 -23.5t-52 -23.5q-66 68 -126 165t-107.5 216t-76 258 t-28.5 293z" />
<glyph unicode=")" horiz-adv-x="819" d="M174 -295q59 68 115.5 160t101.5 204.5t71.5 243.5t26.5 277q0 145 -26.5 276t-71.5 244t-101.5 205t-115.5 160q27 12 53.5 24t53.5 25q63 -68 124.5 -165t108.5 -216t75.5 -258t28.5 -293t-28.5 -293t-75.5 -258t-108.5 -216t-124.5 -165q-27 10 -53.5 21.5t-53.5 23.5 z" />
<glyph unicode="*" horiz-adv-x="686" d="M59 1092q41 23 79 44t79 44q-39 23 -78 47t-78 47q16 27 30.5 52.5t29.5 53.5q41 -23 80 -47t80 -47v189h131q0 -47 -1 -94.5t-1 -94.5q41 23 80.5 46.5t80.5 45.5q16 -29 30.5 -54.5t31.5 -51.5q-41 -23 -81 -47t-81 -47q39 -23 78 -45.5t80 -45.5q-16 -29 -32.5 -57.5 t-33.5 -56.5q-41 23 -79 47t-78 47q0 -45 -1.5 -89t-1.5 -89h-122v178q-39 -23 -78 -44.5t-78 -43.5q-33 59 -66 113z" />
<glyph unicode="+" horiz-adv-x="1112" d="M176 410v125h303v307h129v-307h305v-125h-305v-306h-129v306h-303z" />
<glyph unicode="," horiz-adv-x="409" d="M20 -246q39 106 77 211t79 211h135q-45 -106 -88 -210.5t-88 -211.5h-115z" />
<glyph unicode="-" horiz-adv-x="614" d="M109 324v125h376v-125h-376z" />
<glyph unicode="." horiz-adv-x="333" d="M88 86q0 39 26.5 63.5t59.5 24.5t59.5 -24.5t26.5 -63.5t-26.5 -62.5t-59.5 -23.5t-59.5 23.5t-26.5 62.5z" />
<glyph unicode="/" horiz-adv-x="743" d="M35 -39q143 389 284.5 773t284.5 773h129q-143 -389 -284.5 -773t-284.5 -773h-129z" />
<glyph unicode="0" horiz-adv-x="1261" d="M76 670q0 139 39 263t111.5 216t174 145.5t228.5 53.5t228 -55.5t172 -149.5t108 -218t37 -263q0 -152 -47.5 -277t-124 -214t-177 -138t-207.5 -49q-106 0 -204.5 51t-174 141t-119.5 216t-44 278zM205 670q0 -121 32.5 -223.5t90 -177t133.5 -117.5t160 -43 q82 0 158.5 40.5t135 114.5t94 176.5t35.5 223.5q0 96 -24.5 195t-76.5 180t-130 132.5t-184 51.5t-186.5 -49.5t-132.5 -129t-78.5 -179t-26.5 -195.5z" />
<glyph unicode="1" horiz-adv-x="544" d="M70 1206v125h295v-1331h-129v1206h-166z" />
<glyph unicode="2" horiz-adv-x="1048" d="M94 940q0 82 26.5 155.5t78 130t128 89.5t175.5 33q90 0 164.5 -33t128 -90.5t82 -133t28.5 -161.5q0 -106 -43 -209t-111.5 -203t-156.5 -197.5t-176 -195.5h569v-125h-878q129 127 248.5 248t213 234.5t149.5 220t56 202.5q0 88 -26.5 148.5t-67.5 98.5t-89 54.5 t-91 16.5q-84 0 -138.5 -30t-85 -73t-43 -92t-12.5 -88q0 -133 80 -219l-78 -78q-31 23 -55.5 57.5t-40.5 74.5t-25.5 83t-9.5 82z" />
<glyph unicode="3" horiz-adv-x="1054" d="M141 125q23 23 47.5 45.5t47.5 44.5q41 -47 98 -76.5t127 -29.5q63 0 120.5 24.5t100.5 67.5t67.5 99t24.5 120q0 63 -24.5 119.5t-67.5 97.5t-100.5 65.5t-120.5 24.5q-70 0 -131 -39q84 131 166 259t163 257h-448v127h668q-82 -125 -163 -249t-165 -246 q74 -16 138.5 -53.5t111.5 -91.5t73.5 -122.5t26.5 -148.5q0 -90 -35 -169t-94 -138.5t-139 -94t-170 -34.5q-96 0 -179 37.5t-143 103.5z" />
<glyph unicode="4" horiz-adv-x="1069" d="M76 375q188 244 374.5 486.5t374.5 486.5v-848h199v-125h-199v-375h-129v375h-620zM336 500h360v471q-92 -119 -181 -236t-179 -235z" />
<glyph unicode="5" horiz-adv-x="1112" d="M219 104q23 23 46.5 44.5t47.5 44.5q80 -84 205 -84q63 0 120.5 24.5t100.5 67.5t67.5 99t24.5 120q0 63 -24.5 118.5t-67.5 96.5t-100 65.5t-121 24.5q-72 0 -131 -23.5t-94 -72.5v702h588v-125h-459v-372q49 16 98 16q88 0 168 -34t140.5 -92t95 -136t34.5 -168 t-34.5 -169t-95 -138.5t-140.5 -94t-168 -34.5t-164.5 31.5t-136.5 88.5z" />
<glyph unicode="6" horiz-adv-x="1064" d="M100 401q0 147 62.5 275.5t161 239t219.5 207t235 180.5q20 -25 40 -50.5t40 -50.5q-174 -117 -283.5 -220t-168.5 -183q25 23 58.5 37t72.5 14q90 0 169.5 -34t139 -92t94.5 -137t35 -169t-35 -169t-94.5 -137.5t-139 -93t-169.5 -34.5q-88 0 -167 32.5t-137.5 89 t-94.5 133t-38 162.5zM231 418q0 -63 24 -119.5t64.5 -98.5t96 -66.5t119.5 -24.5q63 0 120.5 24.5t100.5 66.5t67.5 98t24.5 120q0 63 -24.5 119.5t-67.5 97.5t-100.5 65.5t-120.5 24.5t-119 -24.5t-96.5 -65.5t-64.5 -97.5t-24 -119.5z" />
<glyph unicode="7" d="M29 1204v127h837q-150 -336 -299 -665.5t-299 -665.5h-147q137 303 272 602t273 602h-637z" />
<glyph unicode="8" horiz-adv-x="1044" d="M84 420q0 127 66.5 227.5t173.5 151.5q-55 39 -88 99t-33 134q0 66 24.5 123t67.5 100t100.5 68t122.5 25q66 0 123 -26t100 -69t69 -100t26 -123q0 -72 -33 -132t-88 -99q109 -51 176 -151.5t67 -227.5q0 -90 -34.5 -169t-95 -138.5t-140.5 -94t-168 -34.5 q-90 0 -169 34.5t-138 94t-94 138.5t-35 169zM215 420q0 -63 23.5 -119.5t64.5 -99.5t96.5 -67.5t118.5 -24.5t120.5 24.5t100.5 67.5t67.5 99t24.5 120q0 61 -24.5 116.5t-65.5 96.5t-97 65.5t-120 26.5q-66 0 -122 -24.5t-98 -65.5t-65.5 -96.5t-23.5 -118.5zM334 1028 q0 -37 14 -69.5t40 -56t60.5 -37t73.5 -13.5q80 0 133.5 50t53.5 126q0 39 -14.5 75t-39 62.5t-59.5 42t-74 15.5t-73.5 -15.5t-60.5 -42t-40 -62.5t-14 -75z" />
<glyph unicode="9" horiz-adv-x="1075" d="M72 866q0 88 34.5 168t94 138.5t139.5 93t170 34.5t169 -34.5t138.5 -93t94 -138.5t34.5 -168q0 -143 -64.5 -269t-164 -235.5t-219 -205t-230.5 -174.5q-20 25 -40.5 50t-39.5 50q174 117 284 219t169 184q-51 -51 -131 -51q-90 0 -170 34t-139.5 92t-94 137t-34.5 169z M199 866q0 -63 24.5 -119.5t67.5 -97.5t99 -65.5t120 -24.5q63 0 118.5 24.5t97.5 65.5t65.5 97.5t23.5 119.5t-23.5 119.5t-65.5 98.5t-97.5 67t-118.5 25t-119.5 -25t-99.5 -67t-67.5 -98t-24.5 -120z" />
<glyph unicode=":" horiz-adv-x="358" d="M88 86q0 39 25.5 63.5t60.5 24.5q33 0 59.5 -24.5t26.5 -63.5t-26.5 -62.5t-59.5 -23.5q-35 0 -60.5 23.5t-25.5 62.5zM88 598q0 39 25.5 63.5t60.5 24.5q33 0 59.5 -24.5t26.5 -63.5t-26.5 -62.5t-59.5 -23.5q-35 0 -60.5 23.5t-25.5 62.5z" />
<glyph unicode=";" horiz-adv-x="411" d="M-10 -246q41 106 78.5 211t78.5 211h136q-45 -106 -88 -210.5t-89 -211.5h-116zM145 598q0 39 27 63.5t61 24.5q31 0 57.5 -24.5t26.5 -63.5t-26.5 -62.5t-57.5 -23.5q-35 0 -61.5 23.5t-26.5 62.5z" />
<glyph unicode="&#x3c;" horiz-adv-x="1392" d="M238 487q225 129 447 258t448 259v-173q-150 -86 -299.5 -172t-298.5 -172q150 -86 299 -172t299 -172v-172q-225 129 -447.5 258t-447.5 258z" />
<glyph unicode="=" horiz-adv-x="1449" d="M205 252v125h1036v-125h-1036zM205 649v125h1036v-125h-1036z" />
<glyph unicode="&#x3e;" horiz-adv-x="1331" d="M238 -29v172q150 86 299 172t299 172q-150 86 -299.5 172t-298.5 172v173q225 -129 447 -258.5t448 -258.5q-225 -129 -447.5 -258t-447.5 -258z" />
<glyph unicode="?" horiz-adv-x="925" d="M78 1198q16 49 46 102.5t77 97.5t115.5 72.5t160.5 28.5q84 0 158 -31.5t128 -86t85 -127t31 -154.5q0 -113 -54.5 -198t-146.5 -152q-31 -25 -64.5 -45.5t-61.5 -47t-45.5 -65.5t-17.5 -96v-160h-129v199q0 63 21.5 104t57.5 71.5t81 58.5t92 69q72 55 105 120.5 t33 141.5q0 59 -20.5 109.5t-56.5 87t-86 57t-110 20.5q-117 0 -185.5 -56.5t-101.5 -160.5q-29 10 -56.5 20.5t-55.5 20.5zM338 102q0 37 26.5 62.5t59.5 25.5t59.5 -25.5t26.5 -62.5q0 -39 -26.5 -62.5t-59.5 -23.5t-59.5 23.5t-26.5 62.5z" />
<glyph unicode="@" horiz-adv-x="2027" d="M152 387q0 176 66.5 329.5t182 268.5t270 181.5t330.5 66.5t330 -66.5t268.5 -181.5t181 -269.5t66.5 -330.5q-6 -111 -43 -185.5t-89 -118.5t-111.5 -62.5t-114.5 -18.5h-199v61v68q-8 -20 -32.5 -46t-62.5 -47.5t-88 -36.5t-112 -15q-86 0 -159.5 31.5t-128 86t-86 127 t-31.5 154.5t31.5 154.5t86 127t128 86t159.5 31.5q55 0 105.5 -16t89.5 -38.5t64.5 -49.5t35.5 -47q0 33 3 67.5t5 69.5h105v-643h90q45 0 85 14.5t70.5 45t49 79.5t20.5 121q0 150 -56 282t-153.5 230t-228.5 155.5t-279 57.5q-150 0 -280.5 -57.5t-229 -155.5 t-154.5 -230t-56 -282t56 -281t154.5 -229t229.5 -154.5t280 -56.5q123 0 232.5 37t202.5 102q20 -25 38.5 -47t38.5 -45q-102 -84 -239 -128t-273 -44q-176 0 -330.5 66.5t-270 181.5t-182 269.5t-66.5 330.5zM719 385q0 -59 20.5 -109.5t57.5 -87t88 -58t110 -21.5 q61 0 112.5 21.5t88.5 58t58.5 87t21.5 109.5q0 57 -21.5 108.5t-58.5 88t-88 58.5t-113 22q-59 0 -110 -22t-88 -58.5t-57.5 -88t-20.5 -108.5z" />
<glyph unicode="A" horiz-adv-x="1515" d="M125 0q160 377 317.5 749.5t317.5 749.5q160 -377 317.5 -749.5t317.5 -749.5h-129q-63 147 -125 295.5t-125 296.5h-514q-61 -147 -124 -296t-126 -296h-127zM555 713h408q-47 111 -92.5 220t-92.5 220q-4 16 -9 31.5t-9 32.5q-41 -129 -96.5 -254t-108.5 -250z" />
<glyph unicode="B" horiz-adv-x="1095" d="M135 0v1434h350q98 0 179 -20.5t139.5 -63.5t90.5 -112t32 -163q0 -127 -61.5 -223t-188.5 -131q59 -12 113.5 -41t96.5 -74t66.5 -104.5t24.5 -132.5q0 -92 -38 -161t-101.5 -115t-145.5 -69.5t-170 -23.5h-387zM262 121h250q70 0 131.5 16.5t107.5 49t72.5 82.5 t26.5 116q0 72 -31 124t-83 86t-118.5 49t-136.5 15h-219v-538zM262 782h246q133 0 211 77t78 200q0 135 -82 193.5t-213 58.5h-240v-529z" />
<glyph unicode="C" horiz-adv-x="1372" d="M127 715q0 152 57.5 286t156.5 233t232.5 157.5t284.5 58.5q104 0 197.5 -26.5t177.5 -75.5q-16 -27 -34.5 -52.5t-37.5 -52.5q-137 84 -303 84q-125 0 -234.5 -48t-191.5 -132t-130 -195.5t-48 -236.5q0 -127 47 -237.5t129 -193.5t191.5 -131.5t234.5 -48.5 q84 0 159.5 21.5t145.5 62.5l70 -102q-82 -47 -175 -74.5t-198 -27.5q-152 0 -285 57t-232 156.5t-156.5 232.5t-57.5 285z" />
<glyph unicode="D" horiz-adv-x="1335" d="M139 0v1434h318q147 0 278 -50.5t229.5 -144.5t156 -226t57.5 -298q0 -121 -42 -248t-136.5 -230.5t-245 -170t-367.5 -66.5h-248zM266 123h160q145 0 261 47t197 127t124 188.5t43 231.5q0 135 -47.5 245.5t-129 187.5t-192.5 119t-236 42h-180v-1188z" />
<glyph unicode="E" horiz-adv-x="1230" d="M158 0v1434h866v-123h-739v-529h659v-120h-659v-541h768v-121h-895z" />
<glyph unicode="F" horiz-adv-x="1202" d="M158 0v1434h866v-123h-739v-529h659v-120h-659v-662h-127z" />
<glyph unicode="G" horiz-adv-x="1406" d="M127 715q0 152 57.5 286t156.5 233t232.5 157.5t284.5 58.5q104 0 197.5 -26.5t177.5 -75.5q-16 -27 -34.5 -52.5t-37.5 -52.5q-137 84 -303 84q-125 0 -234.5 -48t-191.5 -132t-130 -195.5t-48 -236.5q0 -127 47 -237.5t129 -193.5t191.5 -131.5t234.5 -48.5 q133 0 248 56v231v45q0 29 -9.5 42.5t-41.5 13.5h-203v122h276q59 0 82 -25.5t23 -88.5v-414q-82 -47 -175 -74.5t-198 -27.5q-152 0 -285 57t-232 156.5t-156.5 232.5t-57.5 285z" />
<glyph unicode="H" horiz-adv-x="1433" d="M176 0v1434h127v-652h827v652h130q0 -360 -1.5 -717t-1.5 -717h-127v662h-827v-662h-127z" />
<glyph unicode="I" horiz-adv-x="538" d="M207 0v1434h129v-1434h-129z" />
<glyph unicode="J" horiz-adv-x="669" d="M35 -172q72 4 133 29.5t105 71.5t69 111.5t25 149.5v1244h127v-1250q0 -115 -36 -202.5t-97.5 -147t-145.5 -92.5t-180 -35v121z" />
<glyph unicode="K" horiz-adv-x="1228" d="M121 0v1434h127v-603q-2 -16 -3 -31.5t-1 -31.5q10 12 18 22.5t19 22.5l651 621h160q-154 -145 -303.5 -289t-303.5 -289q172 -215 340 -427t340 -429h-155q-154 195 -305.5 387.5t-305.5 386.5q-39 -37 -75.5 -72.5t-75.5 -70.5v-631h-127z" />
<glyph unicode="L" horiz-adv-x="1214" d="M158 0v1434h127v-1313h768v-121h-895z" />
<glyph unicode="M" horiz-adv-x="1918" d="M205 0v1499q188 -244 374.5 -486.5t374.5 -486.5q188 244 375 486.5t375 486.5v-1499h-127v938v131q0 20 1 37.5t3 36.5q-147 -211 -308 -414t-319 -410q-139 182 -276 361.5t-277 361.5l-43 56q-8 10 -15 22.5t-15 22.5q2 -18 3 -35.5t1 -38.5v-1069h-127z" />
<glyph unicode="N" horiz-adv-x="1665" d="M205 0v1499q274 -309 545.5 -614t545.5 -615q10 -14 19.5 -26.5t19.5 -26.5q-2 16 -3 32.5t-3 33.5v1151h127v-1500q-274 305 -545.5 605.5t-545.5 605.5q-10 14 -19.5 26.5t-19.5 26.5q2 -16 3 -32.5t3 -32.5v-1133h-127z" />
<glyph unicode="O" horiz-adv-x="1720" d="M127 715q0 152 57.5 286t156.5 233t232.5 157.5t284.5 58.5q152 0 286 -58.5t233.5 -157.5t157.5 -233.5t58 -285.5q0 -152 -58 -285t-157.5 -232.5t-233.5 -156.5t-286 -57t-285 57t-232 156.5t-156.5 232.5t-57.5 285zM254 715q0 -127 47 -237.5t129 -193.5 t192.5 -131.5t235.5 -48.5t235.5 48.5t193.5 131.5t131 193.5t48 237.5q0 125 -48 236.5t-131 195.5t-192.5 132t-234.5 48t-235.5 -48t-192.5 -132t-130 -195.5t-48 -236.5z" />
<glyph unicode="P" horiz-adv-x="974" d="M135 0v1434h322q68 0 147.5 -21.5t150 -68t118 -118t47.5 -173.5q0 -180 -111 -288t-322 -108h-225v-657h-127zM262 780h195q98 0 163.5 25.5t103.5 65.5t53.5 88.5t15.5 93.5q0 51 -26 98t-70 83t-105.5 57.5t-132.5 21.5h-197v-533z" />
<glyph unicode="Q" horiz-adv-x="1724" d="M127 715q0 152 57.5 286t156.5 233t232.5 157.5t284.5 58.5q152 0 286 -58.5t233.5 -157.5t157.5 -233.5t58 -285.5q0 -188 -89 -344t-234 -250h368v-121h-628q-78 -16 -152 -16q-152 0 -285 57t-232 156.5t-156.5 232.5t-57.5 285zM254 715q0 -127 47 -237.5t129 -193.5 t191.5 -131.5t234.5 -48.5t236.5 48.5t194.5 131.5t131 193.5t48 237.5q0 125 -48 236.5t-131 195.5t-193.5 132t-235.5 48t-234.5 -48t-191.5 -132t-130 -195.5t-48 -236.5z" />
<glyph unicode="R" horiz-adv-x="1048" d="M135 0v1434h322q68 0 147.5 -21.5t150 -68t118 -118t47.5 -173.5q0 -152 -78 -252.5t-226 -132.5q78 -166 157 -333t159 -335h-139q-78 166 -156 330t-156 329q-12 -2 -25.5 -2h-27.5h-166v-657h-127zM262 780h195q98 0 163.5 25.5t103.5 65.5t53.5 88.5t15.5 93.5 q0 51 -26 98t-70 83t-105.5 57.5t-132.5 21.5h-197v-533z" />
<glyph unicode="S" horiz-adv-x="1140" d="M115 201l82 82q29 -31 64.5 -62t79.5 -57.5t96 -43t114 -16.5q61 0 117.5 18.5t99.5 53.5t69.5 87t26.5 118q0 86 -41 142.5t-100 92t-127 57t-123 42.5q-37 14 -89 36.5t-99 61.5t-81 98.5t-36 147.5v13q0 62 18 124q20 68 65.5 122t120 89t183.5 35q80 0 164 -27.5 t182 -111.5q-18 -23 -35.5 -47.5t-36.5 -47.5q-18 16 -44.5 36t-61.5 36t-77 27.5t-91 11.5q-66 0 -115 -21.5t-80.5 -56.5t-48 -81t-16.5 -97q0 -55 19.5 -93t52 -64.5t76.5 -45t94 -35.5q66 -23 145.5 -54.5t148 -81.5t114.5 -123.5t46 -182.5q0 -92 -33.5 -166t-92 -126 t-136.5 -79.5t-166 -27.5q-80 0 -149.5 21.5t-128 53t-102.5 69.5t-68 73z" />
<glyph unicode="T" horiz-adv-x="1132" d="M0 1311v123h1133v-123h-502v-1311h-127v1311h-504z" />
<glyph unicode="U" horiz-adv-x="1335" d="M172 463v971h127v-965q0 -88 27.5 -155.5t77 -113.5t118 -71t150.5 -25q80 0 148.5 25t118.5 71t77.5 113.5t27.5 155.5v965h127v-971q0 -117 -37.5 -207t-105 -150.5t-159 -91t-197.5 -30.5q-109 0 -200 30.5t-157.5 91t-104.5 150.5t-38 207z" />
<glyph unicode="V" horiz-adv-x="1478" d="M111 1434h129q123 -291 243.5 -577t243.5 -576q4 -16 9 -32t9 -32q4 16 9.5 31.5t9.5 32.5q123 291 243.5 576.5t243.5 576.5h129q-160 -377 -317.5 -750t-317.5 -750q-160 377 -317.5 750t-316.5 750z" />
<glyph unicode="W" horiz-adv-x="2269" d="M111 1434h129q123 -291 242.5 -577t244.5 -576q4 -16 9 -32t9 -32q29 98 68 194.5t81 193.5t86 192.5t83 189.5q-47 113 -94 223.5t-95 223.5h127q123 -291 244 -577t246 -576q4 -16 9 -32t9 -32q4 16 9.5 31.5t9.5 32.5q123 291 243.5 576.5t243.5 576.5h129 q-160 -377 -317.5 -750t-317.5 -750l-362 854q-4 16 -10.5 32t-10.5 32q-35 -115 -81 -230.5t-97 -231.5t-103 -230.5t-100 -225.5q-160 377 -317.5 750t-316.5 750z" />
<glyph unicode="X" horiz-adv-x="1433" d="M190 0q121 184 238 366.5t238 366.5l-455 701h156q92 -141 181 -278.5t181 -276.5q8 -23 23 -48q6 10 12 22.5t12 25.5q90 139 179 276t180 279h155l-461 -713q119 -180 237 -359.5t234 -361.5h-157l-355 541q-12 20 -22 41.5t-25 42.5q-4 -12 -10 -24.5t-12 -25.5 q-94 -145 -186.5 -287.5t-184.5 -287.5h-158z" />
<glyph unicode="Y" horiz-adv-x="1306" d="M47 1434h156q106 -180 212.5 -355.5t211.5 -355.5q6 -14 11 -29.5t11 -29.5h2q6 14 12.5 29.5t12.5 29.5q106 180 210.5 355t211.5 356h155q-131 -223 -262 -443.5t-262 -443.5v-547h-156v549q-133 221 -263 441t-263 444z" />
<glyph unicode="Z" horiz-adv-x="1433" d="M166 0v123q233 299 462.5 594t465.5 594h-752q-63 0 -103 30.5t-40 90.5v73h129v-24q0 -29 13 -38t48 -9h862v-123q-233 -299 -463.5 -594t-463.5 -594h987v-123h-1145z" />
<glyph unicode="[" horiz-adv-x="692" d="M170 -305v1833h375v-125h-246v-1583h246v-125h-375z" />
<glyph unicode="\" horiz-adv-x="747" d="M10 1507h144q143 -389 284.5 -773t284.5 -773h-143q-143 389 -284.5 773t-285.5 773z" />
<glyph unicode="]" horiz-adv-x="700" d="M139 -180h246v1583h-246v125h375v-1833h-375v125z" />
<glyph unicode="^" horiz-adv-x="962" d="M229 981q61 92 123 185.5t123 185.5q61 -92 122.5 -185.5t123.5 -185.5h-94q-39 49 -77 98t-75 101q-39 -51 -76 -100.5t-75 -98.5h-95z" />
<glyph unicode="_" horiz-adv-x="1228" d="M205 0v125h819v-125h-819z" />
<glyph unicode="`" horiz-adv-x="409" d="M-82 1253h131q47 -68 92 -136t92 -136h-94q-55 68 -110.5 136.5t-110.5 135.5z" />
<glyph unicode="a" horiz-adv-x="1036" d="M100 383q0 82 32 154.5t86 128t129 88t161 32.5q57 0 107.5 -16t89 -40.5t64.5 -51.5t32 -47q0 33 3 67.5t5 69.5h104v-768h-112v80v51q-6 -20 -29.5 -46t-61.5 -48.5t-89.5 -37.5t-112.5 -15q-86 0 -161 31.5t-129 86t-86 127t-32 154.5zM229 385q0 -59 21.5 -109.5 t58.5 -87t88.5 -58t110.5 -21.5t110.5 21.5t88 58t58 87t21.5 109.5q0 57 -21.5 108.5t-58 88t-88 58.5t-110.5 22t-110.5 -22t-88.5 -58.5t-58.5 -88t-21.5 -108.5z" />
<glyph unicode="b" horiz-adv-x="1087" d="M168 0v1536h127v-823q-4 -23 -7 -41.5t-7 -38.5q6 20 31.5 47t64.5 50.5t89 39.5t107 16q86 0 161 -31.5t129.5 -87t86 -128t31.5 -154.5t-31.5 -154.5t-86 -128t-129.5 -87t-161 -31.5q-61 0 -112 15t-89 37.5t-61.5 48.5t-29.5 46v-51v-80h-113zM295 385 q0 -59 21.5 -109.5t58.5 -87t88 -58t110 -21.5q61 0 112.5 21.5t88.5 58t57.5 87t20.5 109.5q0 57 -20.5 108.5t-57.5 88t-88 58.5t-113 22q-59 0 -110 -22t-88 -58.5t-58.5 -88t-21.5 -108.5z" />
<glyph unicode="c" horiz-adv-x="800" d="M74 385q0 82 31.5 155.5t87 128t129 86t157.5 31.5q76 0 140.5 -23.5t117.5 -64.5q-20 -25 -40.5 -48t-39.5 -48q-37 29 -82 44.5t-96 15.5q-59 0 -110.5 -22t-88 -58.5t-58 -88t-21.5 -108.5q0 -59 21.5 -109.5t58 -87t88 -58t110.5 -21.5q53 0 97 15t81 44 q37 -47 78 -96q-53 -41 -117.5 -64.5t-138.5 -23.5q-84 0 -157.5 31.5t-129 86t-87 127t-31.5 156.5z" />
<glyph unicode="d" horiz-adv-x="1077" d="M104 385q0 82 32 154.5t86 128t129 87t161 31.5q57 0 107.5 -16t89.5 -39.5t64.5 -50.5t31.5 -47q-4 20 -7 38.5t-7 41.5v823h127v-1536h-113v80v51q-6 -20 -29.5 -46t-61.5 -48.5t-89.5 -37.5t-112.5 -15q-86 0 -161 31.5t-129 87t-86 128t-32 154.5zM233 385 q0 -59 20.5 -109.5t57.5 -87t88.5 -58t112.5 -21.5q59 0 110.5 21.5t88.5 58t58.5 87t21.5 109.5q0 57 -21.5 108.5t-58.5 88t-88.5 58.5t-110.5 22q-61 0 -112.5 -22t-88.5 -58.5t-57.5 -88t-20.5 -108.5z" />
<glyph unicode="e" horiz-adv-x="923" d="M74 385q0 82 31.5 155.5t87 128t129 86t157.5 31.5q63 0 119.5 -23.5t103 -65.5t81.5 -100t53 -126l-596 -227q35 -61 97 -98t142 -37q55 0 103.5 20.5t83.5 54.5q18 -23 37.5 -46t39.5 -46q-53 -51 -119.5 -79.5t-144.5 -28.5q-84 0 -157.5 31.5t-129 86t-87 127 t-31.5 156.5zM205 365q117 45 233.5 89t233.5 89q-31 53 -81.5 86t-111.5 33q-102 0 -177 -61.5t-91 -154.5q-4 -20 -5 -40.5t-1 -40.5z" />
<glyph unicode="f" horiz-adv-x="636" d="M45 653v125h131v281q0 115 36 203t97.5 148t145.5 92t180 36v-123q-70 -2 -130.5 -27.5t-104.5 -71.5t-69.5 -111.5t-25.5 -147.5v-279h246v-125h-246v-653h-129v653h-131z" />
<glyph unicode="g" horiz-adv-x="1060" d="M100 383q0 82 32 154.5t86 128t129 88t161 32.5q57 0 107.5 -16t89 -40.5t64.5 -51.5t32 -47q0 33 3 67.5t5 69.5h104v-803v-61q0 -92 -30.5 -168t-85 -131.5t-127 -86t-154.5 -30.5q-92 2 -177 37t-144 86q23 27 44 51.5t42 50.5q43 -41 104 -67.5t127 -26.5 q57 0 107.5 22.5t87 62.5t58 94.5t21.5 119.5v143q4 16 7.5 33t7.5 33q-10 -23 -36 -47.5t-63.5 -46t-87 -34.5t-106.5 -13q-86 0 -161 31.5t-129 86t-86 126t-32 153.5zM229 385q0 -59 21.5 -109.5t58.5 -87t88.5 -58t110.5 -21.5t110.5 21.5t88 58t58 87t21.5 109.5 q0 57 -21.5 108.5t-58 88t-88 58.5t-110.5 22t-110.5 -22t-88.5 -58.5t-58.5 -88t-21.5 -108.5z" />
<glyph unicode="h" horiz-adv-x="1048" d="M188 0v1536h129v-874l-6 -93q43 98 130 154.5t204 60.5q117 0 184.5 -63.5t71.5 -165.5v-555h-127v506q-4 59 -44 104t-122 49q-57 0 -110.5 -20.5t-93 -55t-63.5 -82.5t-24 -106v-395h-129z" />
<glyph unicode="i" horiz-adv-x="397" d="M115 1053q0 37 26.5 62.5t61.5 25.5q31 0 57.5 -25.5t26.5 -62.5q0 -39 -27 -62.5t-57 -23.5q-35 0 -61.5 23.5t-26.5 62.5zM135 0v768h129v-768h-129z" />
<glyph unicode="j" horiz-adv-x="460" d="M66 -276q51 47 80.5 114.5t29.5 159.5v772q33 0 63.5 -1t63.5 -1v-772q0 -123 -39.5 -215.5t-109.5 -151.5q-23 25 -44.5 48.5t-43.5 46.5zM158 1053q0 37 26.5 62.5t59.5 25.5t59.5 -25.5t26.5 -62.5q0 -39 -27 -62.5t-59 -23.5q-33 0 -59.5 23.5t-26.5 62.5z" />
<glyph unicode="k" horiz-adv-x="919" d="M139 0v1536h127v-1126q104 98 202 188t202 188l75 -75q-72 -68 -136 -130.5t-136 -129.5q82 -113 164 -225.5t164 -225.5h-148q-68 92 -136 183t-136 184q-29 -27 -57.5 -53.5t-57.5 -55.5v-258h-127z" />
<glyph unicode="l" horiz-adv-x="391" d="M135 0v1536h129v-1536h-129z" />
<glyph unicode="m" horiz-adv-x="1630" d="M188 0v768h115v-45q2 -41 4 -77t4 -77q41 98 129 155.5t205 59.5q111 0 177.5 -56t76.5 -148q45 94 132 148t200 56q117 0 184.5 -63.5t71.5 -165.5v-555h-127v506q-4 59 -44 104t-122 49q-57 0 -109.5 -19t-92.5 -54t-64.5 -83t-26.5 -104v-399h-127v506q-4 59 -44 104 t-122 49q-57 0 -110.5 -20.5t-93 -55t-63.5 -82.5t-24 -106v-395h-129z" />
<glyph unicode="n" horiz-adv-x="1013" d="M188 0v768h115v-45q2 -41 4 -77t4 -77q41 98 131 156.5t203 58.5q117 0 184.5 -63.5t71.5 -165.5v-555h-127v506q-4 59 -44 104t-122 49q-57 0 -110.5 -20.5t-93 -55t-63.5 -82.5t-24 -106v-395h-129z" />
<glyph unicode="o" horiz-adv-x="968" d="M74 385q0 82 31.5 155.5t87 128t129 86t157.5 31.5q86 0 161 -31.5t130 -86t87 -128t32 -155.5q0 -84 -32 -156.5t-87 -127t-130 -86t-161 -31.5q-84 0 -157.5 31.5t-129 86t-87 127t-31.5 156.5zM201 383q0 -57 21.5 -107.5t59 -87t88 -58t107.5 -21.5t107.5 21.5 t88.5 58t59.5 87t21.5 107.5t-21.5 108.5t-59.5 89t-88 59.5t-108 22q-57 0 -107.5 -22t-88 -59.5t-59 -89t-21.5 -108.5z" />
<glyph unicode="p" horiz-adv-x="1075" d="M137 -512v1280h107q0 -35 2 -69.5t4 -69.5q6 20 31.5 46.5t64.5 51.5t89 41t108 16q86 0 160.5 -31.5t129 -86t86 -127t31.5 -154.5q0 -84 -31.5 -156.5t-86 -128t-129 -87t-160.5 -31.5q-61 0 -112.5 16t-89.5 38.5t-61.5 47.5t-29.5 45q4 -16 8 -31.5t8 -31.5v-578 h-129zM264 385q0 -59 21.5 -109.5t58.5 -88t88 -59.5t111 -22q61 0 112.5 22t88 59.5t57 88t20.5 109.5q0 57 -20.5 107.5t-57 87t-88 58t-112.5 21.5q-59 0 -110.5 -21.5t-88.5 -58t-58.5 -87t-21.5 -107.5z" />
<glyph unicode="q" horiz-adv-x="1048" d="M102 385q0 82 32 154.5t87 127t129 86t160 31.5q57 0 107.5 -16t89 -41t64.5 -51.5t34 -46.5q0 35 2 69.5t2 69.5h109v-1280h-130v578q4 16 7.5 31.5t7.5 31.5q-6 -20 -29.5 -45t-61.5 -47.5t-89.5 -38.5t-112.5 -16q-86 0 -160 31.5t-129 87t-87 128t-32 156.5zM231 385 q0 -59 21.5 -109.5t58.5 -88t88.5 -59.5t110.5 -22t110.5 22t88 59.5t58 88t21.5 109.5q0 57 -21.5 107.5t-58 87t-88 58t-110.5 21.5t-110.5 -21.5t-88.5 -58t-58.5 -87t-21.5 -107.5z" />
<glyph unicode="r" horiz-adv-x="677" d="M188 0v768h115v-45q2 -41 4 -77t4 -77q25 51 62 91t79 68t86 42t80 14l-8 -125q-63 0 -117.5 -20.5t-93.5 -55t-60.5 -82.5t-21.5 -106v-395h-129z" />
<glyph unicode="s" horiz-adv-x="722" d="M117 80q20 23 38.5 46.5t39.5 45.5q41 -31 82.5 -47t91.5 -16q10 0 30.5 4t40 16t36 32.5t16.5 55.5v7q0 40 -23 62q-25 24 -63.5 39t-85 28.5t-86 36t-66.5 62.5t-27 109q0 59 22.5 101.5t57.5 69t75 38.5t77 12q20 0 49 -4t59.5 -14t58 -26.5t50.5 -41.5 q-16 -23 -34.5 -47t-37.5 -47q-16 18 -54 37.5t-85 19.5q-47 -1 -80 -25q-29 -22 -29 -64v-11q2 -35 30 -55.5t67 -36.5t83 -32.5t82.5 -43t63.5 -67.5t25 -105q0 -31 -12.5 -72t-41 -77.5t-78 -61t-124.5 -24.5q-68 0 -137.5 24.5t-110.5 71.5z" />
<glyph unicode="t" horiz-adv-x="600" d="M63 651v125h175v492h127v-492h219v-125h-219v-651h-127v651h-175z" />
<glyph unicode="u" horiz-adv-x="1083" d="M188 213v555h129v-506q4 -61 44 -105t122 -48q57 0 110.5 19t93.5 55t63.5 84t23.5 106v395h127v-780h-127v118l6 93q-41 -98 -132 -156.5t-202 -58.5q-117 0 -185 63.5t-73 165.5z" />
<glyph unicode="v" horiz-adv-x="1024" d="M111 768h129q76 -143 159.5 -293.5t143.5 -298.5q57 147 141 298t162 294h127q-109 -205 -215 -407.5t-215 -407.5q-111 205 -217.5 407.5t-214.5 407.5z" />
<glyph unicode="w" horiz-adv-x="1581" d="M113 768h127q72 -147 147.5 -294.5t134.5 -297.5q47 117 103.5 230.5t109.5 226.5q-16 35 -32.5 67.5t-32.5 67.5h127q72 -147 147.5 -294.5t134.5 -297.5q59 150 135 297.5t146 294.5h129q-104 -205 -204.5 -407.5t-205.5 -407.5q-70 139 -139.5 276.5t-138.5 276.5 q-70 -139 -139.5 -276.5t-139.5 -276.5q-104 205 -204.5 407.5t-204.5 407.5z" />
<glyph unicode="x" horiz-adv-x="917" d="M57 0q74 100 147.5 201.5t147.5 201.5q-66 92 -133 182.5t-133 182.5h158q55 -76 110.5 -150.5t110.5 -148.5q53 74 107.5 148.5t107.5 150.5h158q-74 -102 -148 -202.5t-145 -203.5q66 -92 133 -181t135 -181h-162q-55 74 -109.5 148.5t-109.5 150.5 q-53 -76 -108.5 -150.5t-108.5 -148.5h-158z" />
<glyph unicode="y" horiz-adv-x="1015" d="M66 768h129q82 -160 170 -323.5t153 -329.5q66 166 154 329.5t168 323.5h129q-160 -322 -320.5 -640t-320.5 -640h-131q66 129 128 255t128 255q-98 193 -193.5 385t-193.5 385z" />
<glyph unicode="z" horiz-adv-x="923" d="M86 0v125q141 131 261 259t261 261h-348q-63 0 -103 31t-40 90v74h129v-25q0 -29 13 -38t48 -9h479v-125q-141 -133 -260.5 -260t-261.5 -258h565v-125h-743z" />
<glyph unicode="{" horiz-adv-x="626" d="M61 543v131q49 2 81 29.5t50.5 68.5t24.5 89t6 89v336q0 94 18.5 144.5t49.5 72t70.5 23.5t82.5 2h115v-125h-98q-31 0 -51.5 -9.5t-32.5 -34t-17.5 -66.5t-5.5 -107v-277q0 -74 -12 -124t-32.5 -84.5t-44 -55t-46.5 -35.5q23 -12 46.5 -33.5t44 -56.5t32.5 -86t12 -121 v-276q0 -66 5.5 -108t17.5 -66.5t32.5 -33.5t51.5 -9h98v-125h-115q-45 0 -85 2t-70.5 25.5t-48 78t-17.5 158.5v307q0 41 -6 89t-24.5 89t-50.5 69t-81 30z" />
<glyph unicode="|" horiz-adv-x="522" d="M190 -475v1909h129v-1909h-129z" />
<glyph unicode="}" horiz-adv-x="655" d="M96 -180h99q31 0 51 9t32.5 33.5t17.5 66.5t5 108v299q0 63 14.5 110.5t35 80t44 52t41.5 31.5q-23 14 -46 35t-43.5 55.5t-33 85t-12.5 123.5v277q0 66 -5 107.5t-17.5 66t-33 34t-50.5 9.5h-99v125h115q43 0 83 -2t70.5 -23.5t49 -72t18.5 -144.5v-313q0 -41 5 -91.5 t21.5 -96.5t49.5 -77.5t86 -33.5v-131q-53 -2 -86 -34t-49.5 -78t-21.5 -97t-5 -90v-307q0 -94 -18.5 -144.5t-49 -72t-70.5 -23.5t-83 -2h-115v125z" />
<glyph unicode="~" horiz-adv-x="1001" d="M254 956q2 39 19.5 71t43 53.5t57.5 32.5t62 11q45 0 81 -19.5t71 -51.5q31 -35 55.5 -45.5t52.5 -10.5q14 0 33 4.5t36 15.5t30.5 30.5t17.5 50.5q16 -2 34.5 -3t37.5 -3q-2 -41 -19.5 -72t-43 -52.5t-56.5 -31.5t-61 -10q-47 0 -83 19t-71 50q-31 35 -54.5 45.5 t-52.5 10.5q-14 0 -33.5 -4.5t-37 -15.5t-30.5 -30.5t-15 -50.5z" />
<glyph unicode="&#xa1;" horiz-adv-x="409" d="M119 995q0 -39 26.5 -62.5t59.5 -23.5t59.5 23.5t26.5 62.5t-26.5 63.5t-59.5 24.5t-59.5 -24.5t-26.5 -63.5zM139 -430h129v1196h-129v-1196z" />
<glyph unicode="&#xa2;" horiz-adv-x="788" d="M74 385q0 70 23.5 134.5t65.5 116.5t100.5 88t125.5 50v123h129v-115q59 -4 116.5 -26.5t102.5 -57.5q-20 -25 -40.5 -48t-39.5 -48q-31 23 -65.5 37t-73.5 18v-546q78 10 139 57q37 -47 78 -96q-96 -76 -217 -86v-125h-129v135q-68 14 -126 50t-100 87t-65.5 115.5 t-23.5 136.5zM201 385q0 -92 52 -162.5t136 -95.5v514q-84 -25 -136 -94.5t-52 -161.5z" />
<glyph unicode="&#xa3;" horiz-adv-x="1175" d="M57 0v125h90q33 0 54.5 9t33 36t15.5 73t4 117v222h-133v125h133v317q0 141 110.5 207.5t303.5 66.5q137 0 216 -58t120 -140q-23 -14 -47.5 -27.5t-49.5 -28.5q-16 25 -32.5 47.5t-43 41t-65.5 30t-98 11.5q-150 0 -217.5 -41t-67.5 -138v-288h248v-125h-248v-256v-25 q0 -59 -6 -103t-39 -73h375h24q63 0 105.5 5t67 17.5t34.5 33t10 50.5v99h129v-156q0 -37 -7 -68.5t-31.5 -55t-72.5 -37t-130 -13.5h-785z" />
<glyph unicode="&#xa4;" horiz-adv-x="1024" d="M188 506l60 59q-25 37 -39 81t-14 93q0 47 14 88t37 78q-16 14 -28.5 27.5t-29.5 30.5l91 90l59 -58q37 23 79 37.5t89 14.5q92 0 170 -52l57 58l90 -90l-53 -56q23 -37 37 -80t14 -88q0 -94 -55 -172l59 -59l-90 -90q-16 16 -31.5 30.5t-31.5 30.5q-72 -49 -166 -49 t-166 47l-61 -61zM324 737q0 -76 54 -129t130 -53t130 53.5t54 128.5q0 78 -54 132.5t-130 54.5t-130 -54.5t-54 -132.5z" />
<glyph unicode="&#xa5;" horiz-adv-x="1306" d="M47 1434h156q106 -180 211.5 -355.5t212.5 -355.5q6 -14 11 -29.5t11 -29.5h2q6 14 12.5 29.5t12.5 29.5q106 180 210.5 355t211.5 356h155q-115 -195 -228.5 -386.5t-227.5 -383.5h192v-125h-260v-209h260v-125h-260v-205h-156v205h-266v125h266v209h-266v125h199 q-117 193 -230.5 384t-228.5 386z" />
<glyph unicode="&#xa6;" horiz-adv-x="440" d="M162 240h129v-717h-129v717zM162 717v717h129v-717h-129z" />
<glyph unicode="&#xa7;" horiz-adv-x="1024" d="M262 688q-8 51 1 101.5t35 95.5t69 76q74 49 170 36q-27 41 -49.5 82t-47.5 84q-37 61 -49 106.5t-8 78t22.5 57.5t45.5 43q31 27 72.5 48.5t76.5 43.5q33 -57 66 -106q-23 -12 -44.5 -24.5t-43.5 -25.5q-49 -31 -50.5 -72.5t52.5 -131.5q47 -78 91 -154t91 -154 q27 -45 35 -96t-2.5 -100t-38 -92t-70.5 -74q-76 -53 -170 -41q27 -41 51.5 -84t48.5 -84q37 -61 50.5 -107.5t9.5 -80t-22.5 -57t-45.5 -42.5q-33 -27 -72.5 -48t-76.5 -44q-16 27 -31.5 53.5t-32.5 55.5l86 49q27 14 39 32.5t10 44t-18 61.5t-49 89q-47 74 -76 123t-46 80 t-27.5 49.5t-16.5 32.5q-27 45 -35 96zM383 771.5q-6 -31.5 2 -64.5q10 -55 52 -89t100 -32q63 2 104 49t39 108q-2 33 -16.5 59.5t-36 47t-49 31t-58.5 8.5q-37 -2 -65.5 -18.5t-47 -42t-24.5 -57z" />
<glyph unicode="&#xa8;" horiz-adv-x="757" d="M121 1053q0 37 26.5 62.5t59.5 25.5t59.5 -25.5t26.5 -62.5q0 -39 -26.5 -62.5t-59.5 -23.5t-59.5 23.5t-26.5 62.5zM461 1053q0 37 25.5 62.5t60.5 25.5q33 0 59.5 -25.5t26.5 -62.5q0 -39 -26.5 -62.5t-59.5 -23.5q-35 0 -60.5 23.5t-25.5 62.5z" />
<glyph unicode="&#xa9;" horiz-adv-x="1624" d="M285 762q0 115 42 213t114.5 168.5t170 110.5t207.5 40q111 0 208 -40t170 -110.5t115 -168.5t42 -213t-42 -211t-115 -168t-170 -112t-208 -40t-208 40t-169.5 112t-114.5 168t-42 211zM352 762q0 -100 36 -186.5t99.5 -148.5t148.5 -98t183 -36t183 36t148.5 98 t99.5 148.5t36 186.5q0 102 -36 188t-99.5 149.5t-148 98.5t-183.5 35q-98 0 -183 -35t-148.5 -98.5t-99.5 -149.5t-36 -188zM502 768q0 70 25.5 130t70.5 105.5t105.5 71t127.5 25.5q92 0 170 -45q-8 -12 -15 -24.5t-17 -22.5q-61 37 -138 36q-55 0 -105 -21.5t-87 -59 t-58.5 -88t-21.5 -107.5t21.5 -107.5t58.5 -88t87 -59t105 -21.5q72 -1 138 38l32 -47q-37 -23 -79.5 -35t-90.5 -12q-68 0 -128 26.5t-105 72t-70.5 105.5t-25.5 128z" />
<glyph unicode="&#xaa;" horiz-adv-x="1198" d="M158 728q0 59 23 111.5t62 92.5t93 63.5t116 23.5q42 0 78 -11.5t64 -29.5t46.5 -37t23.5 -34q0 24 2 49l4 50h75v-554h-81v58v36q-5 -14 -21.5 -32.5t-44 -35t-65 -27.5t-81.5 -11q-62 0 -116 23t-93 62.5t-62 91.5t-23 111zM251 730q0 -43 15.5 -79.5t42.5 -62.5 t64 -41.5t79 -15.5q43 0 80 15.5t63.5 41.5t42 62.5t15.5 79.5q0 41 -15.5 78t-42 63.5t-63.5 42t-80 15.5q-42 0 -79 -15.5t-64 -42t-42.5 -63.5t-15.5 -78z" />
<glyph unicode="&#xab;" horiz-adv-x="1230" d="M240 489q88 84 175 165t175 165v-147q-47 -45 -91 -90t-89 -93q45 -47 89 -93t91 -93v-145zM590 489q88 84 175 165t175 165v-145q-47 -47 -91 -92t-89 -93q45 -47 89 -93t91 -93v-145z" />
<glyph unicode="&#xac;" horiz-adv-x="1144" d="M205 410v94h737v-201h-129v107h-608z" />
<glyph unicode="&#xad;" horiz-adv-x="614" d="M109 324v125h376v-125h-376z" />
<glyph unicode="&#xae;" horiz-adv-x="1640" d="M285 762q0 115 42 213t114.5 168.5t170 110.5t207.5 40q111 0 208 -40t170 -110.5t115 -168.5t42 -213t-42 -211t-115 -168t-170 -112t-208 -40t-208 40t-169.5 112t-114.5 168t-42 211zM352 762q0 -100 36 -186.5t99.5 -148.5t148.5 -98t183 -36t183 36t148.5 98 t99.5 148.5t36 186.5q0 102 -36 188t-99.5 149.5t-148 98.5t-183.5 35q-98 0 -183 -35t-148.5 -98.5t-99.5 -149.5t-36 -188zM664 430v678h153q31 0 70 -10.5t71.5 -32t55 -55t22.5 -82.5q0 -72 -36.5 -119t-108.5 -64q39 -78 76 -156.5t73 -158.5h-65q-35 78 -73 156 t-75 155h-24h-78v-311h-61zM725 799h92q47 0 78 12t48.5 31.5t24.5 42t7 43.5q0 49 -45 86t-113 37h-92v-252z" />
<glyph unicode="&#xaf;" horiz-adv-x="817" d="M174 987v84h471v-84h-471z" />
<glyph unicode="&#xb0;" horiz-adv-x="577" d="M88 1147q0 80 56.5 135t138.5 55q39 0 73.5 -14t60 -41t41 -61.5t15.5 -73.5q0 -41 -15.5 -75t-41 -60.5t-60 -41t-73.5 -14.5q-82 0 -138.5 55.5t-56.5 135.5zM174 1145q0 -45 32 -76t77 -31t76.5 31t31.5 76q0 47 -31.5 77.5t-76.5 30.5t-77 -30.5t-32 -77.5z" />
<glyph unicode="&#xb1;" horiz-adv-x="1073" d="M176 227v125h737v-125h-737zM176 737v125h303v307h129v-307h305v-125h-305v-305h-129v305h-303z" />
<glyph unicode="&#xb2;" horiz-adv-x="815" d="M124 843q0 41 13.5 77t38.5 64t63 44.5t87 16.5q44 0 81 -16.5t63.5 -45t40.5 -65.5t14 -80q0 -52 -21 -103t-55 -100.5t-77.5 -97.5t-87.5 -96h282v-62h-434q64 63 123 122.5t105 115.5t73.5 109t27.5 100q0 43 -13 73t-33 49t-44 27t-45 8q-42 0 -68.5 -15t-41.5 -36 t-21.5 -45t-6.5 -44q0 -65 40 -108l-39 -38q-15 11 -27 28t-20 37t-13 41t-5 40z" />
<glyph unicode="&#xb3;" horiz-adv-x="858" d="M120 445q11 11 23 22t23 22q21 -23 49 -37.5t62 -14.5q31 0 59.5 12t50 33t33.5 48.5t12 59.5q0 31 -12 58.5t-33.5 48t-50 32.5t-59.5 12q-34 0 -64 -19q41 64 81.5 127t80.5 127h-221v62h330q-41 -61 -81 -122t-81 -121q36 -8 68 -26.5t55 -45t36 -60.5t13 -73 q0 -44 -17 -83t-46 -68.5t-68.5 -46.5t-84.5 -17q-47 0 -88 18.5t-70 51.5z" />
<glyph unicode="&#xb4;" horiz-adv-x="526" d="M205 981q47 68 92 136.5t92 135.5h131q-55 -68 -110.5 -136t-110.5 -136h-94z" />
<glyph unicode="&#xb5;" horiz-adv-x="1116" d="M188 -412v1180h129v-506q4 -61 44 -105t122 -48q57 0 110.5 19t93.5 55t63.5 84t23.5 106v395h127v-780h-127v118l6 93q-43 -98 -131 -155.5t-203 -59.5q-84 0 -129 43v-439h-129z" />
<glyph unicode="&#xb6;" horiz-adv-x="1085" d="M78 1200q0 70 25.5 131.5t70.5 106.5t106.5 71.5t131.5 26.5h460v-1536h-127v1411h-206v-1411h-127v866q-70 0 -131.5 26t-106.5 71t-70.5 106t-25.5 131z" />
<glyph unicode="&#xb7;" horiz-adv-x="339" d="M88 575q0 39 26.5 63.5t59.5 24.5t59.5 -24.5t26.5 -63.5t-26.5 -62.5t-59.5 -23.5t-59.5 23.5t-26.5 62.5z" />
<glyph unicode="&#xb8;" horiz-adv-x="925" d="M229 -352l74 37q12 -35 42 -58.5t73 -23.5q53 0 83.5 34.5t30.5 88.5q0 45 -23.5 71.5t-51 46t-51 40t-23.5 57.5v59h82v-14q0 -29 8 -46.5t20.5 -28.5t28 -19.5t27.5 -16.5q45 -33 62.5 -73t17.5 -85q0 -92 -53.5 -152.5t-147.5 -60.5q-66 0 -121 36t-78 108z" />
<glyph unicode="&#xb9;" horiz-adv-x="544" d="M75 933v57h136v-612h-60v555h-76z" />
<glyph unicode="&#xba;" d="M149 730q0 59 23 112t63 92t93 62t113 23q63 0 117 -23t93.5 -62t62.5 -92t23 -112q0 -61 -23 -113t-62.5 -91.5t-93.5 -62.5t-117 -23q-60 0 -113 23t-93 62.5t-63 91.5t-23 113zM241 728q0 -41 15.5 -77.5t42.5 -62.5t63.5 -41.5t77.5 -15.5t77.5 15.5t64 41.5t43 62.5 t15.5 77.5t-15.5 78.5t-43 64.5t-63.5 42.5t-78 15.5q-41 0 -77.5 -15.5t-63.5 -42.5t-42.5 -64.5t-15.5 -78.5z" />
<glyph unicode="&#xbb;" horiz-adv-x="1230" d="M240 158l350 331q-88 84 -175 165t-175 165v-145q47 -47 91 -92t89 -93q-45 -47 -89 -93t-91 -93v-145zM590 158l350 331q-88 84 -175 165t-175 165v-147q47 -45 91 -90t89 -93q-45 -47 -89 -93t-91 -93v-145z" />
<glyph unicode="&#xbc;" horiz-adv-x="1982" d="M198 1196v88h209v-944h-92v856h-117zM549 -39q143 389 284.5 773t284.5 772h129q-143 -388 -284.5 -772t-284.5 -773h-129zM777 279q140 182 278.5 362.5t278.5 362.5v-632h148v-93h-148v-279h-96v279h-461zM971 372h267v351q-68 -89 -134 -176t-133 -175z" />
<glyph unicode="&#xbd;" horiz-adv-x="2189" d="M191 1196v89h209v-945h-91v856h-118zM549 -39q143 389 284.5 773t284.5 772h129q-143 -388 -284.5 -772t-284.5 -773h-129zM825 666q0 58 18.5 110.5t55 92.5t90.5 63t124 23q64 0 117 -23t90.5 -64t58 -94.5t20.5 -114.5q0 -75 -30.5 -148t-79 -144t-111 -140 t-124.5 -138h403v-89h-622q91 90 176 176t151 166t105.5 155.5t39.5 143.5q0 63 -18.5 106t-47.5 69.5t-63 38.5t-65 12q-59 0 -97.5 -21.5t-60 -52t-30.5 -65t-9 -62.5q0 -94 56 -155l-55 -55q-22 16 -39 40.5t-28.5 53t-18 59t-6.5 57.5z" />
<glyph unicode="&#xbe;" horiz-adv-x="2613" d="M251 422q18 17 37 34.5t36 34.5q32 -36 76 -59t98 -23q49 0 93.5 19t77.5 52.5t52 76.5t19 93q0 48 -19 92t-52 75.5t-77.5 50.5t-93.5 19q-54 0 -101 -30q65 101 128 200t126 199h-346v98h516q-63 -97 -126 -192.5t-127 -190.5q57 -12 106.5 -41t86 -71t57 -94.5 t20.5 -114.5q0 -70 -27 -131t-72.5 -107t-107.5 -72.5t-131 -26.5q-75 0 -139 29t-110 80zM922 -39q143 389 284.5 773t284.5 773h129q-143 -389 -284.5 -773t-284.5 -773h-129zM1082 279q139 182 278 362.5t279 362.5v-632h147v-93h-147v-279h-96v279h-461zM1275 372h268 v351q-69 -89 -135 -176t-133 -175z" />
<glyph unicode="&#xbf;" horiz-adv-x="899" d="M67 4q0 113 54.5 198t146.5 152q31 25 64.5 45.5t61.5 47t45.5 65.5t17.5 96v160h129v-199q0 -63 -21.5 -104t-57.5 -71.5t-81 -58.5t-92 -69q-72 -55 -105 -120.5t-33 -141.5q0 -59 20.5 -109.5t56.5 -87t86 -57t110 -20.5q117 0 185.5 56.5t101.5 160.5 q29 -10 56.5 -20.5t55.5 -20.5q-16 -49 -46 -102.5t-77 -97.5t-115.5 -72.5t-160.5 -28.5q-84 0 -158 31.5t-128 86t-85 127t-31 154.5zM436 1002q0 39 26.5 62.5t59.5 23.5t59.5 -23.5t26.5 -62.5q0 -37 -26.5 -62.5t-59.5 -25.5t-59.5 25.5t-26.5 62.5z" />
<glyph unicode="&#xc0;" horiz-adv-x="1515" d="M125 0q160 377 317.5 749.5t317.5 749.5q160 -377 317.5 -749.5t317.5 -749.5h-129q-63 147 -125 295.5t-125 296.5h-514q-61 -147 -124 -296t-126 -296h-127zM481 1808h131q47 -68 92 -136t92 -136h-94q-55 68 -110.5 136.5t-110.5 135.5zM555 713h408 q-47 111 -92.5 220t-92.5 220q-4 16 -9 31.5t-9 32.5q-41 -129 -96.5 -254t-108.5 -250z" />
<glyph unicode="&#xc1;" horiz-adv-x="1515" d="M125 0q160 377 317.5 749.5t317.5 749.5q160 -377 317.5 -749.5t317.5 -749.5h-129q-63 147 -125 295.5t-125 296.5h-514q-61 -147 -124 -296t-126 -296h-127zM555 713h408q-47 111 -92.5 220t-92.5 220q-4 16 -9 31.5t-9 32.5q-41 -129 -96.5 -254t-108.5 -250z M709 1536q47 68 92 136.5t92 135.5h131q-55 -68 -110.5 -136t-110.5 -136h-94z" />
<glyph unicode="&#xc2;" horiz-adv-x="1515" d="M125 0q160 377 317.5 749.5t317.5 749.5q160 -377 317.5 -749.5t317.5 -749.5h-129q-63 147 -125 295.5t-125 296.5h-514q-61 -147 -124 -296t-126 -296h-127zM514 1536q61 92 123 185.5t123 185.5q61 -92 122.5 -185.5t123.5 -185.5h-94q-39 49 -77 98t-75 101 q-39 -51 -76 -100.5t-75 -98.5h-95zM555 713h408q-47 111 -92.5 220t-92.5 220q-4 16 -9 31.5t-9 32.5q-41 -129 -96.5 -254t-108.5 -250z" />
<glyph unicode="&#xc3;" horiz-adv-x="1515" d="M125 0q160 377 317.5 749.5t317.5 749.5q160 -377 317.5 -749.5t317.5 -749.5h-129q-63 147 -125 295.5t-125 296.5h-514q-61 -147 -124 -296t-126 -296h-127zM440 1568q2 39 19.5 71t43 53.5t57.5 32.5t62 11q45 0 81 -19.5t71 -51.5q31 -35 55.5 -45.5t52.5 -10.5 q14 0 33 4.5t36 15.5t30.5 30.5t17.5 50.5q16 -2 34.5 -3t37.5 -3q-2 -41 -19.5 -72t-43 -52.5t-56.5 -31.5t-61 -10q-47 0 -83 19t-71 50q-31 35 -54.5 45.5t-52.5 10.5q-14 0 -33.5 -4.5t-37 -15.5t-30.5 -30.5t-15 -50.5zM555 713h408q-47 111 -92.5 220t-92.5 220 q-4 16 -9 31.5t-9 32.5q-41 -129 -96.5 -254t-108.5 -250z" />
<glyph unicode="&#xc4;" horiz-adv-x="1515" d="M125 0q160 377 317.5 749.5t317.5 749.5q160 -377 317.5 -749.5t317.5 -749.5h-129q-63 147 -125 295.5t-125 296.5h-514q-61 -147 -124 -296t-126 -296h-127zM506 1647q0 37 26.5 62.5t59.5 25.5t59.5 -25.5t26.5 -62.5q0 -39 -26.5 -62.5t-59.5 -23.5t-59.5 23.5 t-26.5 62.5zM555 713h408q-47 111 -92.5 220t-92.5 220q-4 16 -9 31.5t-9 32.5q-41 -129 -96.5 -254t-108.5 -250zM846 1647q0 37 25.5 62.5t60.5 25.5q33 0 59.5 -25.5t26.5 -62.5q0 -39 -26.5 -62.5t-59.5 -23.5q-35 0 -60.5 23.5t-25.5 62.5z" />
<glyph unicode="&#xc5;" horiz-adv-x="1515" d="M125 0q160 377 317.5 749.5t317.5 749.5q160 -377 317.5 -749.5t317.5 -749.5h-129q-63 147 -125 295.5t-125 296.5h-514q-61 -147 -124 -296t-126 -296h-127zM555 713h408q-47 111 -92.5 220t-92.5 220q-4 16 -9 31.5t-9 32.5q-41 -129 -96.5 -254t-108.5 -250z M596 1714q0 33 13.5 62.5t35 52t51 36t64.5 13.5q33 0 63.5 -13.5t52 -36t35 -52t13.5 -62.5q0 -68 -48.5 -116t-115.5 -48q-68 0 -116 48t-48 116zM684 1712q0 -31 22.5 -53.5t53.5 -22.5q33 0 55.5 22.5t22.5 53.5q0 33 -22.5 55.5t-55.5 22.5q-31 0 -53.5 -22.5 t-22.5 -55.5z" />
<glyph unicode="&#xc6;" horiz-adv-x="1630" d="M123 0q154 360 303 716.5t303 717.5h701v-123h-553v-529h473v-120h-473v-541h581v-121h-708v573h-256q-59 -145 -121 -287.5t-121 -285.5h-129zM545 694h205v500q-41 -127 -96.5 -251t-108.5 -249z" />
<glyph unicode="&#xc7;" horiz-adv-x="1372" d="M127 715q0 152 57.5 286t156.5 233t232.5 157.5t284.5 58.5q104 0 197.5 -26.5t177.5 -75.5q-16 -27 -34.5 -52.5t-37.5 -52.5q-137 84 -303 84q-125 0 -234.5 -48t-191.5 -132t-130 -195.5t-48 -236.5q0 -127 47 -237.5t129 -193.5t191.5 -131.5t234.5 -48.5 q84 0 159.5 21.5t145.5 62.5l70 -102q-78 -47 -166 -72.5t-186 -29.5q0 -29 8 -46.5t21.5 -27.5t27.5 -18.5t27 -16.5q45 -33 63 -73t18 -85q0 -92 -54 -152.5t-148 -60.5q-66 0 -120 36t-79 108q18 10 37.5 18t38.5 19q10 -35 39.5 -58.5t72.5 -23.5q53 0 84 34.5t31 88.5 q0 45 -23.5 71.5t-51 46t-51 40t-23.5 57.5v47q-141 10 -263 71.5t-212.5 158.5t-142.5 225t-52 272z" />
<glyph unicode="&#xc8;" horiz-adv-x="1230" d="M158 0v1434h866v-123h-739v-529h659v-120h-659v-541h768v-121h-895zM330 1808h131q47 -68 92 -136t92 -136h-94q-55 68 -110.5 136.5t-110.5 135.5z" />
<glyph unicode="&#xc9;" horiz-adv-x="1230" d="M158 0v1434h866v-123h-739v-529h659v-120h-659v-541h768v-121h-895zM547 1536q47 68 92 136.5t92 135.5h131q-55 -68 -110.5 -136t-110.5 -136h-94z" />
<glyph unicode="&#xca;" horiz-adv-x="1230" d="M158 0v1434h866v-123h-739v-529h659v-120h-659v-541h768v-121h-895zM368 1536q61 92 123 185.5t123 185.5q61 -92 122.5 -185.5t123.5 -185.5h-94q-39 49 -77 98t-75 101q-39 -51 -76 -100.5t-75 -98.5h-95z" />
<glyph unicode="&#xcb;" horiz-adv-x="1230" d="M158 0v1434h866v-123h-739v-529h659v-120h-659v-541h768v-121h-895zM342 1647q0 37 26.5 62.5t59.5 25.5t59.5 -25.5t26.5 -62.5q0 -39 -26.5 -62.5t-59.5 -23.5t-59.5 23.5t-26.5 62.5zM682 1647q0 37 25.5 62.5t60.5 25.5q33 0 59.5 -25.5t26.5 -62.5 q0 -39 -26.5 -62.5t-59.5 -23.5q-35 0 -60.5 23.5t-25.5 62.5z" />
<glyph unicode="&#xcc;" horiz-adv-x="483" d="M-8 1808h131q47 -68 92 -136t92 -136h-94q-55 68 -110.5 136.5t-110.5 135.5zM207 0v1434h129v-1434h-129z" />
<glyph unicode="&#xcd;" horiz-adv-x="483" d="M207 0v1434h129v-1434h-129zM236 1536q47 68 92 136.5t92 135.5h131q-55 -68 -110.5 -136t-110.5 -136h-94z" />
<glyph unicode="&#xce;" horiz-adv-x="555" d="M26 1536q61 92 123 185.5t123 185.5q61 -92 122.5 -185.5t123.5 -185.5h-94q-39 49 -77 98t-75 101q-39 -51 -76 -100.5t-75 -98.5h-95zM207 0v1434h129v-1434h-129z" />
<glyph unicode="&#xcf;" horiz-adv-x="483" d="M12 1647q0 37 26.5 62.5t59.5 25.5t59.5 -25.5t26.5 -62.5q0 -39 -26.5 -62.5t-59.5 -23.5t-59.5 23.5t-26.5 62.5zM207 0v1434h129v-1434h-129zM352 1647q0 37 25.5 62.5t60.5 25.5q33 0 59.5 -25.5t26.5 -62.5q0 -39 -26.5 -62.5t-59.5 -23.5q-35 0 -60.5 23.5 t-25.5 62.5z" />
<glyph unicode="&#xd0;" horiz-adv-x="1323" d="M45 655v125h94v654h301q158 0 299.5 -50.5t248 -143.5t169 -226t62.5 -297q0 -121 -46.5 -248t-147.5 -231.5t-264 -171t-396 -66.5h-226v655h-94zM266 121h170q139 0 259 42t208 119.5t138.5 188.5t50.5 246q0 137 -50.5 246.5t-137.5 187.5t-206.5 120t-261.5 42h-170 v-533h398v-125h-398v-534z" />
<glyph unicode="&#xd1;" horiz-adv-x="1665" d="M205 0v1499q274 -309 545.5 -614t545.5 -615q10 -14 19.5 -26.5t19.5 -26.5q-2 16 -3 32.5t-3 33.5v1151h127v-1500q-274 305 -545.5 605.5t-545.5 605.5q-10 14 -19.5 26.5t-19.5 26.5q2 -16 3 -32.5t3 -32.5v-1133h-127zM526 1554q2 39 19.5 71t43 53.5t57.5 32.5 t62 11q45 0 81 -19.5t71 -51.5q31 -35 55.5 -45.5t52.5 -10.5q14 0 33 4.5t36 15.5t30.5 30.5t17.5 50.5q16 -2 34.5 -3t37.5 -3q-2 -41 -19.5 -72t-43 -52.5t-56.5 -31.5t-61 -10q-47 0 -83 19t-71 50q-31 35 -54.5 45.5t-52.5 10.5q-14 0 -33.5 -4.5t-37 -15.5 t-30.5 -30.5t-15 -50.5z" />
<glyph unicode="&#xd2;" horiz-adv-x="1718" d="M125 715q0 152 57.5 286t156.5 233t232.5 157.5t284.5 58.5q152 0 286 -58.5t233.5 -157.5t157.5 -233.5t58 -285.5q0 -152 -58 -285t-157.5 -232.5t-233.5 -156.5t-286 -57t-285 57t-232 156.5t-156.5 232.5t-57.5 285zM252 715q0 -127 47 -237.5t129 -193.5 t192.5 -131.5t235.5 -48.5t235.5 48.5t193.5 131.5t131 193.5t48 237.5q0 125 -48 236.5t-131 195.5t-192.5 132t-234.5 48t-235.5 -48t-192.5 -132t-130 -195.5t-48 -236.5zM573 1808h131q47 -68 92 -136t92 -136h-94q-55 68 -110.5 136.5t-110.5 135.5z" />
<glyph unicode="&#xd3;" horiz-adv-x="1720" d="M125 715q0 152 57.5 286t156.5 233t232.5 157.5t284.5 58.5q152 0 286 -58.5t233.5 -157.5t157.5 -233.5t58 -285.5q0 -152 -58 -285t-157.5 -232.5t-233.5 -156.5t-286 -57t-285 57t-232 156.5t-156.5 232.5t-57.5 285zM252 715q0 -127 47 -237.5t129 -193.5 t192.5 -131.5t235.5 -48.5t235.5 48.5t193.5 131.5t131 193.5t48 237.5q0 125 -48 236.5t-131 195.5t-192.5 132t-234.5 48t-235.5 -48t-192.5 -132t-130 -195.5t-48 -236.5zM819 1536q47 68 92 136.5t92 135.5h131q-55 -68 -110.5 -136t-110.5 -136h-94z" />
<glyph unicode="&#xd4;" horiz-adv-x="1718" d="M125 715q0 152 57.5 286t156.5 233t232.5 157.5t284.5 58.5q152 0 286 -58.5t233.5 -157.5t157.5 -233.5t58 -285.5q0 -152 -58 -285t-157.5 -232.5t-233.5 -156.5t-286 -57t-285 57t-232 156.5t-156.5 232.5t-57.5 285zM252 715q0 -127 47 -237.5t129 -193.5 t192.5 -131.5t235.5 -48.5t235.5 48.5t193.5 131.5t131 193.5t48 237.5q0 125 -48 236.5t-131 195.5t-192.5 132t-234.5 48t-235.5 -48t-192.5 -132t-130 -195.5t-48 -236.5zM608 1536q61 92 123 185.5t123 185.5q61 -92 122.5 -185.5t123.5 -185.5h-94q-39 49 -77 98 t-75 101q-39 -51 -76 -100.5t-75 -98.5h-95z" />
<glyph unicode="&#xd5;" horiz-adv-x="1718" d="M125 715q0 152 57.5 286t156.5 233t232.5 157.5t284.5 58.5q152 0 286 -58.5t233.5 -157.5t157.5 -233.5t58 -285.5q0 -152 -58 -285t-157.5 -232.5t-233.5 -156.5t-286 -57t-285 57t-232 156.5t-156.5 232.5t-57.5 285zM252 715q0 -127 47 -237.5t129 -193.5 t192.5 -131.5t235.5 -48.5t235.5 48.5t193.5 131.5t131 193.5t48 237.5q0 125 -48 236.5t-131 195.5t-192.5 132t-234.5 48t-235.5 -48t-192.5 -132t-130 -195.5t-48 -236.5zM543 1626q2 39 19.5 71t43 53.5t57.5 32.5t62 11q45 0 81 -19.5t71 -51.5q31 -35 55.5 -45.5 t52.5 -10.5q14 0 33 4.5t36 15.5t30.5 30.5t17.5 50.5q16 -2 34.5 -3t37.5 -3q-2 -41 -19.5 -72t-43 -52.5t-56.5 -31.5t-61 -10q-47 0 -83 19t-71 50q-31 35 -54.5 45.5t-52.5 10.5q-14 0 -33.5 -4.5t-37 -15.5t-30.5 -30.5t-15 -50.5z" />
<glyph unicode="&#xd6;" horiz-adv-x="1718" d="M125 715q0 152 57.5 286t156.5 233t232.5 157.5t284.5 58.5q152 0 286 -58.5t233.5 -157.5t157.5 -233.5t58 -285.5q0 -152 -58 -285t-157.5 -232.5t-233.5 -156.5t-286 -57t-285 57t-232 156.5t-156.5 232.5t-57.5 285zM252 715q0 -127 47 -237.5t129 -193.5 t192.5 -131.5t235.5 -48.5t235.5 48.5t193.5 131.5t131 193.5t48 237.5q0 125 -48 236.5t-131 195.5t-192.5 132t-234.5 48t-235.5 -48t-192.5 -132t-130 -195.5t-48 -236.5zM602 1647q0 37 26.5 62.5t59.5 25.5t59.5 -25.5t26.5 -62.5q0 -39 -26.5 -62.5t-59.5 -23.5 t-59.5 23.5t-26.5 62.5zM942 1647q0 37 25.5 62.5t60.5 25.5q33 0 59.5 -25.5t26.5 -62.5q0 -39 -26.5 -62.5t-59.5 -23.5q-35 0 -60.5 23.5t-25.5 62.5z" />
<glyph unicode="&#xd7;" horiz-adv-x="1024" d="M238 90l215 215l-215 217l90 90l215 -217q55 55 109.5 108.5t107.5 108.5q23 -23 44 -45t44 -45l-215 -215l217 -217l-92 -90q-53 53 -108.5 107.5t-108.5 107.5l-106.5 -106.5l-106.5 -106.5q-23 23 -45.5 44.5t-44.5 43.5z" />
<glyph unicode="&#xd8;" horiz-adv-x="1720" d="M127 715q0 152 57.5 286t156.5 233t232.5 157.5t284.5 58.5q121 0 228.5 -36t197.5 -101q33 39 65.5 76.5t65.5 76.5q23 -20 44.5 -39.5t43.5 -37.5q-33 -39 -64.5 -76t-64.5 -76q102 -100 160.5 -234.5t58.5 -287.5q0 -152 -58 -285t-157.5 -232.5t-233.5 -156.5 t-286 -57q-123 0 -231.5 36.5t-198.5 102.5q-33 -37 -64.5 -76t-64.5 -76q-23 18 -45.5 38t-44.5 40q35 37 65.5 75t63.5 77q-98 98 -154.5 230t-56.5 284zM254 715q0 -123 44 -229.5t122 -188.5q199 231 392.5 459.5t389.5 460.5q-74 53 -161 81.5t-183 28.5 q-125 0 -234.5 -48t-191.5 -132t-130 -195.5t-48 -236.5zM508 219q76 -53 163 -84t185 -31q125 0 236.5 48.5t194.5 131.5t131 193.5t48 237.5q0 123 -48 232.5t-128 191.5q-197 -231 -390 -459.5t-392 -460.5z" />
<glyph unicode="&#xd9;" horiz-adv-x="1335" d="M174 463v971h127v-965q0 -88 27.5 -155.5t77 -113.5t118 -71t150.5 -25q80 0 148.5 25t118.5 71t77.5 113.5t27.5 155.5v965h127v-971q0 -117 -37.5 -207t-105 -150.5t-159 -91t-197.5 -30.5q-109 0 -200 30.5t-157.5 91t-104.5 150.5t-38 207zM410 1808h131 q47 -68 92 -136t92 -136h-94q-55 68 -110.5 136.5t-110.5 135.5z" />
<glyph unicode="&#xda;" horiz-adv-x="1335" d="M174 463v971h127v-965q0 -88 27.5 -155.5t77 -113.5t118 -71t150.5 -25q80 0 148.5 25t118.5 71t77.5 113.5t27.5 155.5v965h127v-971q0 -117 -37.5 -207t-105 -150.5t-159 -91t-197.5 -30.5q-109 0 -200 30.5t-157.5 91t-104.5 150.5t-38 207zM615 1536q47 68 92 136.5 t92 135.5h131q-55 -68 -110.5 -136t-110.5 -136h-94z" />
<glyph unicode="&#xdb;" horiz-adv-x="1335" d="M174 463v971h127v-965q0 -88 27.5 -155.5t77 -113.5t118 -71t150.5 -25q80 0 148.5 25t118.5 71t77.5 113.5t27.5 155.5v965h127v-971q0 -117 -37.5 -207t-105 -150.5t-159 -91t-197.5 -30.5q-109 0 -200 30.5t-157.5 91t-104.5 150.5t-38 207zM422 1569q61 92 123 185.5 t123 185.5q61 -92 122.5 -185.5t123.5 -185.5h-94q-39 49 -77 98t-75 101q-39 -51 -76 -100.5t-75 -98.5h-95z" />
<glyph unicode="&#xdc;" horiz-adv-x="1335" d="M174 463v971h127v-965q0 -88 27.5 -155.5t77 -113.5t118 -71t150.5 -25q80 0 148.5 25t118.5 71t77.5 113.5t27.5 155.5v965h127v-971q0 -117 -37.5 -207t-105 -150.5t-159 -91t-197.5 -30.5q-109 0 -200 30.5t-157.5 91t-104.5 150.5t-38 207zM420 1647q0 37 26.5 62.5 t59.5 25.5t59.5 -25.5t26.5 -62.5q0 -39 -26.5 -62.5t-59.5 -23.5t-59.5 23.5t-26.5 62.5zM760 1647q0 37 25.5 62.5t60.5 25.5q33 0 59.5 -25.5t26.5 -62.5q0 -39 -26.5 -62.5t-59.5 -23.5q-35 0 -60.5 23.5t-25.5 62.5z" />
<glyph unicode="&#xdd;" horiz-adv-x="1306" d="M47 1434h156q106 -180 212.5 -355.5t211.5 -355.5q6 -14 11 -29.5t11 -29.5h2q6 14 12.5 29.5t12.5 29.5q106 180 210.5 355t211.5 356h155q-131 -223 -262 -443.5t-262 -443.5v-547h-156v549q-133 221 -263 441t-263 444zM586 1536q47 68 92 136.5t92 135.5h131 q-55 -68 -110.5 -136t-110.5 -136h-94z" />
<glyph unicode="&#xde;" horiz-adv-x="1026" d="M205 0v1434h127v-338h194q68 0 148 -21.5t150.5 -67.5t117.5 -118t47 -174q0 -180 -110.5 -288t-321.5 -108h-225v-319h-127zM332 442h196q98 0 163 26t102.5 65.5t53 88t15.5 93.5q0 51 -25.5 98t-69.5 83t-105.5 57.5t-131.5 21.5h-198v-533z" />
<glyph unicode="&#xdf;" horiz-adv-x="1173" d="M33 707v124h131v37q0 113 33.5 201t91 149.5t132.5 94.5t157 33q66 0 123 -26t100 -69t67.5 -100t24.5 -123q0 -72 -33 -132t-86 -97q106 -51 175 -152.5t69 -228.5q0 -90 -35 -169t-95.5 -138.5t-140 -94t-169.5 -34.5q-99 0 -189 45q12 29 25.5 56.5t27.5 55.5 q61 -33 133 -33q63 0 121 25t101 68t68.5 99t25.5 120q0 63 -24.5 118.5t-67.5 97.5t-100.5 66.5t-120.5 24.5h-3q0 14 -1 29.5t-1 31.5v64q80 0 136.5 48t56.5 128q0 39 -14.5 74t-39 62.5t-59.5 43t-73 15.5q-61 -2 -113.5 -27t-91.5 -71t-61.5 -111.5t-22.5 -147.5v-864 h-127v707h-131z" />
<glyph unicode="&#xe0;" horiz-adv-x="1128" d="M100 383q0 82 32 154.5t86 128t129 88t161 32.5q57 0 107.5 -16t89 -40.5t64.5 -51.5t32 -47q0 33 3 67.5t5 69.5h104v-768h-112v80v51q-6 -20 -29.5 -46t-61.5 -48.5t-89.5 -37.5t-112.5 -15q-86 0 -161 31.5t-129 86t-86 127t-32 154.5zM229 385q0 -59 21.5 -109.5 t58.5 -87t88.5 -58t110.5 -21.5t110.5 21.5t88 58t58 87t21.5 109.5q0 57 -21.5 108.5t-58 88t-88 58.5t-110.5 22t-110.5 -22t-88.5 -58.5t-58.5 -88t-21.5 -108.5zM244 1253h131q47 -68 92 -136t92 -136h-94q-55 68 -110.5 136.5t-110.5 135.5z" />
<glyph unicode="&#xe1;" horiz-adv-x="1128" d="M100 383q0 82 32 154.5t86 128t129 88t161 32.5q57 0 107.5 -16t89 -40.5t64.5 -51.5t32 -47q0 33 3 67.5t5 69.5h104v-768h-112v80v51q-6 -20 -29.5 -46t-61.5 -48.5t-89.5 -37.5t-112.5 -15q-86 0 -161 31.5t-129 86t-86 127t-32 154.5zM229 385q0 -59 21.5 -109.5 t58.5 -87t88.5 -58t110.5 -21.5t110.5 21.5t88 58t58 87t21.5 109.5q0 57 -21.5 108.5t-58 88t-88 58.5t-110.5 22t-110.5 -22t-88.5 -58.5t-58.5 -88t-21.5 -108.5zM475 981q47 68 92 136.5t92 135.5h131q-55 -68 -110.5 -136t-110.5 -136h-94z" />
<glyph unicode="&#xe2;" horiz-adv-x="1128" d="M100 383q0 82 32 154.5t86 128t129 88t161 32.5q57 0 107.5 -16t89 -40.5t64.5 -51.5t32 -47q0 33 3 67.5t5 69.5h104v-768h-112v80v51q-6 -20 -29.5 -46t-61.5 -48.5t-89.5 -37.5t-112.5 -15q-86 0 -161 31.5t-129 86t-86 127t-32 154.5zM229 385q0 -59 21.5 -109.5 t58.5 -87t88.5 -58t110.5 -21.5t110.5 21.5t88 58t58 87t21.5 109.5q0 57 -21.5 108.5t-58 88t-88 58.5t-110.5 22t-110.5 -22t-88.5 -58.5t-58.5 -88t-21.5 -108.5zM288 981q61 92 123 185.5t123 185.5q61 -92 122.5 -185.5t123.5 -185.5h-94q-39 49 -77 98t-75 101 q-39 -51 -76 -100.5t-75 -98.5h-95z" />
<glyph unicode="&#xe3;" horiz-adv-x="1128" d="M100 383q0 82 32 154.5t86 128t129 88t161 32.5q57 0 107.5 -16t89 -40.5t64.5 -51.5t32 -47q0 33 3 67.5t5 69.5h104v-768h-112v80v51q-6 -20 -29.5 -46t-61.5 -48.5t-89.5 -37.5t-112.5 -15q-86 0 -161 31.5t-129 86t-86 127t-32 154.5zM229 385q0 -59 21.5 -109.5 t58.5 -87t88.5 -58t110.5 -21.5t110.5 21.5t88 58t58 87t21.5 109.5q0 57 -21.5 108.5t-58 88t-88 58.5t-110.5 22t-110.5 -22t-88.5 -58.5t-58.5 -88t-21.5 -108.5zM244 956q2 39 19.5 71t43 53.5t57.5 32.5t62 11q45 0 81 -19.5t71 -51.5q31 -35 55.5 -45.5t52.5 -10.5 q14 0 33 4.5t36 15.5t30.5 30.5t17.5 50.5q16 -2 34.5 -3t37.5 -3q-2 -41 -19.5 -72t-43 -52.5t-56.5 -31.5t-61 -10q-47 0 -83 19t-71 50q-31 35 -54.5 45.5t-52.5 10.5q-14 0 -33.5 -4.5t-37 -15.5t-30.5 -30.5t-15 -50.5z" />
<glyph unicode="&#xe4;" horiz-adv-x="1128" d="M100 383q0 82 32 154.5t86 128t129 88t161 32.5q57 0 107.5 -16t89 -40.5t64.5 -51.5t32 -47q0 33 3 67.5t5 69.5h104v-768h-112v80v51q-6 -20 -29.5 -46t-61.5 -48.5t-89.5 -37.5t-112.5 -15q-86 0 -161 31.5t-129 86t-86 127t-32 154.5zM229 385q0 -59 21.5 -109.5 t58.5 -87t88.5 -58t110.5 -21.5t110.5 21.5t88 58t58 87t21.5 109.5q0 57 -21.5 108.5t-58 88t-88 58.5t-110.5 22t-110.5 -22t-88.5 -58.5t-58.5 -88t-21.5 -108.5zM281 1053q0 37 26.5 62.5t59.5 25.5t59.5 -25.5t26.5 -62.5q0 -39 -26.5 -62.5t-59.5 -23.5t-59.5 23.5 t-26.5 62.5zM621 1053q0 37 25.5 62.5t60.5 25.5q33 0 59.5 -25.5t26.5 -62.5q0 -39 -26.5 -62.5t-59.5 -23.5q-35 0 -60.5 23.5t-25.5 62.5z" />
<glyph unicode="&#xe5;" horiz-adv-x="1128" d="M100 383q0 82 32 154.5t86 128t129 88t161 32.5q57 0 107.5 -16t89 -40.5t64.5 -51.5t32 -47q0 33 3 67.5t5 69.5h104v-768h-112v80v51q-6 -20 -29.5 -46t-61.5 -48.5t-89.5 -37.5t-112.5 -15q-86 0 -161 31.5t-129 86t-86 127t-32 154.5zM229 385q0 -59 21.5 -109.5 t58.5 -87t88.5 -58t110.5 -21.5t110.5 21.5t88 58t58 87t21.5 109.5q0 57 -21.5 108.5t-58 88t-88 58.5t-110.5 22t-110.5 -22t-88.5 -58.5t-58.5 -88t-21.5 -108.5zM348 1106q0 68 48 116t116 48t116 -48t48 -116t-48 -116t-116 -48t-116 48t-48 116zM436 1104 q0 -31 22.5 -53.5t53.5 -22.5q33 0 55.5 22.5t22.5 53.5q0 33 -22.5 55.5t-55.5 22.5q-31 0 -53.5 -22.5t-22.5 -55.5z" />
<glyph unicode="&#xe6;" horiz-adv-x="1288" d="M92 221q0 61 25.5 102.5t67.5 67t95.5 35.5t110.5 10h217v68q0 39 -7 68.5t-26.5 50t-57.5 30t-99 9.5q-27 0 -57.5 -5.5t-60.5 -14.5t-55.5 -19.5t-39.5 -22.5q-18 23 -35.5 42.5t-36.5 41.5q20 20 54 38.5t73 33t81 22.5t79 8q158 0 225 -41q86 41 182 41 q127 0 222.5 -88t134.5 -225q-111 -43 -223.5 -85t-223.5 -85v-20v-15q0 -43 -7 -75.5t-25 -59.5q55 -25 122 -24q53 0 101.5 21.5t83.5 55.5q20 -25 39.5 -48t40.5 -46q-53 -49 -120 -77.5t-145 -28.5q-102 0 -192 45q-78 -47 -217 -47q-74 0 -134.5 11t-102.5 38.5 t-65.5 73t-23.5 114.5zM221 215q0 -33 18.5 -53.5t46 -32.5t62.5 -16t70 -4q31 0 64.5 3t61 15t46 34.5t18.5 61.5v82h-137q-31 0 -74 -1t-82 -9t-66.5 -26.5t-27.5 -53.5zM711 639q16 -25 21 -59.5t5 -79.5v-64q72 29 141.5 54.5t141.5 54.5q-31 53 -82 85t-111 32 q-61 0 -116 -23z" />
<glyph unicode="&#xe7;" horiz-adv-x="800" d="M74 385q0 82 31.5 155.5t87 128t129 86t157.5 31.5q76 0 140.5 -23.5t117.5 -64.5q-20 -25 -40.5 -48t-39.5 -48q-37 29 -82 44.5t-96 15.5q-59 0 -110.5 -22t-88 -58.5t-58 -88t-21.5 -108.5q0 -59 21.5 -109.5t58 -87t88 -58t110.5 -21.5q53 0 97 15t81 44 q37 -47 78 -96q-106 -84 -252 -88q0 -29 9.5 -46.5t22.5 -27.5t27.5 -18.5t26.5 -16.5q45 -33 62.5 -73t17.5 -85q0 -78 -40 -133t-107 -71q-18 -4 -35.5 -5.5t-40.5 0.5q-57 4 -105.5 38t-70.5 102l74 37q12 -35 41.5 -58.5t72.5 -23.5q53 0 84 34.5t31 88.5 q0 45 -23.5 71.5t-51 46t-51.5 40t-24 57.5v53q-72 12 -131 47t-104 87t-69.5 117.5t-24.5 139.5z" />
<glyph unicode="&#xe8;" horiz-adv-x="923" d="M74 385q0 82 31.5 155.5t87 128t129 86t157.5 31.5q63 0 119.5 -23.5t103 -65.5t81.5 -100t53 -126l-596 -227q35 -61 97 -98t142 -37q55 0 103.5 20.5t83.5 54.5q18 -23 37.5 -46t39.5 -46q-53 -51 -119.5 -79.5t-144.5 -28.5q-84 0 -157.5 31.5t-129 86t-87 127 t-31.5 156.5zM160 1253h131q47 -68 92 -136t92 -136h-94q-55 68 -110.5 136.5t-110.5 135.5zM205 365q117 45 233.5 89t233.5 89q-31 53 -81.5 86t-111.5 33q-102 0 -177 -61.5t-91 -154.5q-4 -20 -5 -40.5t-1 -40.5z" />
<glyph unicode="&#xe9;" horiz-adv-x="923" d="M74 385q0 82 31.5 155.5t87 128t129 86t157.5 31.5q63 0 119.5 -23.5t103 -65.5t81.5 -100t53 -126l-596 -227q35 -61 97 -98t142 -37q55 0 103.5 20.5t83.5 54.5q18 -23 37.5 -46t39.5 -46q-53 -51 -119.5 -79.5t-144.5 -28.5q-84 0 -157.5 31.5t-129 86t-87 127 t-31.5 156.5zM205 365q117 45 233.5 89t233.5 89q-31 53 -81.5 86t-111.5 33q-102 0 -177 -61.5t-91 -154.5q-4 -20 -5 -40.5t-1 -40.5zM457 981q47 68 92 136.5t92 135.5h131q-55 -68 -110.5 -136t-110.5 -136h-94z" />
<glyph unicode="&#xea;" horiz-adv-x="923" d="M74 385q0 82 31.5 155.5t87 128t129 86t157.5 31.5q63 0 119.5 -23.5t103 -65.5t81.5 -100t53 -126l-596 -227q35 -61 97 -98t142 -37q55 0 103.5 20.5t83.5 54.5q18 -23 37.5 -46t39.5 -46q-53 -51 -119.5 -79.5t-144.5 -28.5q-84 0 -157.5 31.5t-129 86t-87 127 t-31.5 156.5zM205 365q117 45 233.5 89t233.5 89q-31 53 -81.5 86t-111.5 33q-102 0 -177 -61.5t-91 -154.5q-4 -20 -5 -40.5t-1 -40.5zM229 981q61 92 123 185.5t123 185.5q61 -92 122.5 -185.5t123.5 -185.5h-94q-39 49 -77 98t-75 101q-39 -51 -76 -100.5t-75 -98.5h-95z " />
<glyph unicode="&#xeb;" horiz-adv-x="923" d="M74 385q0 82 31.5 155.5t87 128t129 86t157.5 31.5q63 0 119.5 -23.5t103 -65.5t81.5 -100t53 -126l-596 -227q35 -61 97 -98t142 -37q55 0 103.5 20.5t83.5 54.5q18 -23 37.5 -46t39.5 -46q-53 -51 -119.5 -79.5t-144.5 -28.5q-84 0 -157.5 31.5t-129 86t-87 127 t-31.5 156.5zM205 365q117 45 233.5 89t233.5 89q-31 53 -81.5 86t-111.5 33q-102 0 -177 -61.5t-91 -154.5q-4 -20 -5 -40.5t-1 -40.5zM215 1053q0 37 26.5 62.5t59.5 25.5t59.5 -25.5t26.5 -62.5q0 -39 -26.5 -62.5t-59.5 -23.5t-59.5 23.5t-26.5 62.5zM555 1053 q0 37 25.5 62.5t60.5 25.5q33 0 59.5 -25.5t26.5 -62.5q0 -39 -26.5 -62.5t-59.5 -23.5q-35 0 -60.5 23.5t-25.5 62.5z" />
<glyph unicode="&#xec;" horiz-adv-x="356" d="M-84 1253h131q47 -68 92 -136t92 -136h-94q-55 68 -110.5 136.5t-110.5 135.5zM135 0v768h129v-768h-129z" />
<glyph unicode="&#xed;" horiz-adv-x="401" d="M131 0v768h129v-768h-129zM164 981q47 68 92 136.5t92 135.5h131q-55 -68 -110.5 -136t-110.5 -136h-94z" />
<glyph unicode="&#xee;" horiz-adv-x="489" d="M-8 981q61 92 123 185.5t123 185.5q61 -92 122.5 -185.5t122.5 -185.5h-94q-39 49 -77 98t-74 101q-39 -51 -76 -100.5t-76 -98.5h-94zM174 0v768h127v-768h-127z" />
<glyph unicode="&#xef;" horiz-adv-x="555" d="M33 1053q0 37 26.5 62.5t59.5 25.5t59.5 -25.5t26.5 -62.5q0 -39 -26.5 -62.5t-59.5 -23.5t-59.5 23.5t-26.5 62.5zM227 0v768h127v-768h-127zM373 1053q0 37 25.5 62.5t60.5 25.5q33 0 59.5 -25.5t26.5 -62.5q0 -39 -26.5 -62.5t-59.5 -23.5q-35 0 -60.5 23.5 t-25.5 62.5z" />
<glyph unicode="&#xf0;" horiz-adv-x="1009" d="M106 381q-2 82 29 155.5t85 129t128 88t158 34.5q53 2 103 -16t87 -49q-27 92 -80 198.5t-139 217.5q-29 -31 -56.5 -61.5t-55.5 -61.5q-23 23 -44.5 41t-44.5 41q33 35 65 67.5t62 67.5q-45 51 -92 98t-96 88q23 23 45.5 43.5t44.5 40.5q49 -37 96.5 -81t92.5 -91 q29 29 54 58.5t54 60.5q23 -20 44.5 -39.5t43.5 -38.5q-31 -35 -61.5 -66.5t-59.5 -66.5q70 -88 133.5 -191.5t111.5 -214t77 -221t29 -215.5q2 -84 -28 -156.5t-84 -128t-127 -89t-159 -35.5q-84 -2 -158.5 28.5t-131 84t-90 125t-36.5 155.5zM236 385q0 -59 22.5 -109.5 t60 -87t89 -57t110.5 -18.5q59 0 110.5 22.5t88.5 60t56.5 89t19.5 108.5q-2 59 -23.5 109.5t-59.5 87.5t-89.5 56.5t-110.5 19.5q-61 -2 -111.5 -23.5t-87.5 -59.5t-56 -89.5t-19 -108.5z" />
<glyph unicode="&#xf1;" horiz-adv-x="1071" d="M188 0v768h115v-45q2 -41 4 -77t4 -77q41 98 131 156.5t203 58.5q117 0 184.5 -63.5t71.5 -165.5v-555h-127v506q-4 59 -44 104t-122 49q-57 0 -110.5 -20.5t-93 -55t-63.5 -82.5t-24 -106v-395h-129zM266 940q2 39 19.5 71t43 53.5t57.5 32.5t62 11q45 0 81 -19.5 t71 -51.5q31 -35 55.5 -45.5t52.5 -10.5q14 0 33 4.5t36 15.5t30.5 30.5t17.5 50.5q16 -2 34.5 -3t37.5 -3q-2 -41 -19.5 -72t-43 -52.5t-56.5 -31.5t-61 -10q-47 0 -83 19t-71 50q-31 35 -54.5 45.5t-52.5 10.5q-14 0 -33.5 -4.5t-37 -15.5t-30.5 -30.5t-15 -50.5z" />
<glyph unicode="&#xf2;" d="M74 385q0 82 31.5 155.5t87 128t129 86t157.5 31.5q86 0 161 -31.5t130 -86t87 -128t32 -155.5q0 -84 -32 -156.5t-87 -127t-130 -86t-161 -31.5q-84 0 -157.5 31.5t-129 86t-87 127t-31.5 156.5zM174 1253h131q47 -68 92 -136t92 -136h-94q-55 68 -110.5 136.5 t-110.5 135.5zM201 383q0 -57 21.5 -107.5t59 -87t88 -58t107.5 -21.5t107.5 21.5t88.5 58t59.5 87t21.5 107.5t-21.5 108.5t-59.5 89t-88 59.5t-108 22q-57 0 -107.5 -22t-88 -59.5t-59 -89t-21.5 -108.5z" />
<glyph unicode="&#xf3;" d="M74 385q0 82 31.5 155.5t87 128t129 86t157.5 31.5q86 0 161 -31.5t130 -86t87 -128t32 -155.5q0 -84 -32 -156.5t-87 -127t-130 -86t-161 -31.5q-84 0 -157.5 31.5t-129 86t-87 127t-31.5 156.5zM201 383q0 -57 21.5 -107.5t59 -87t88 -58t107.5 -21.5t107.5 21.5 t88.5 58t59.5 87t21.5 107.5t-21.5 108.5t-59.5 89t-88 59.5t-108 22q-57 0 -107.5 -22t-88 -59.5t-59 -89t-21.5 -108.5zM473 981q47 68 92 136.5t92 135.5h131q-55 -68 -110.5 -136t-110.5 -136h-94z" />
<glyph unicode="&#xf4;" d="M74 385q0 82 31.5 155.5t87 128t129 86t157.5 31.5q86 0 161 -31.5t130 -86t87 -128t32 -155.5q0 -84 -32 -156.5t-87 -127t-130 -86t-161 -31.5q-84 0 -157.5 31.5t-129 86t-87 127t-31.5 156.5zM201 383q0 -57 21.5 -107.5t59 -87t88 -58t107.5 -21.5t107.5 21.5 t88.5 58t59.5 87t21.5 107.5t-21.5 108.5t-59.5 89t-88 59.5t-108 22q-57 0 -107.5 -22t-88 -59.5t-59 -89t-21.5 -108.5zM229 981q61 92 123 185.5t123 185.5q61 -92 122.5 -185.5t123.5 -185.5h-94q-39 49 -77 98t-75 101q-39 -51 -76 -100.5t-75 -98.5h-95z" />
<glyph unicode="&#xf5;" d="M74 385q0 82 31.5 155.5t87 128t129 86t157.5 31.5q86 0 161 -31.5t130 -86t87 -128t32 -155.5q0 -84 -32 -156.5t-87 -127t-130 -86t-161 -31.5q-84 0 -157.5 31.5t-129 86t-87 127t-31.5 156.5zM172 956q2 39 19.5 71t43 53.5t57.5 32.5t62 11q45 0 81 -19.5t71 -51.5 q31 -35 55.5 -45.5t52.5 -10.5q14 0 33 4.5t36 15.5t30.5 30.5t17.5 50.5q16 -2 34.5 -3t37.5 -3q-2 -41 -19.5 -72t-43 -52.5t-56.5 -31.5t-61 -10q-47 0 -83 19t-71 50q-31 35 -54.5 45.5t-52.5 10.5q-14 0 -33.5 -4.5t-37 -15.5t-30.5 -30.5t-15 -50.5zM201 383 q0 -57 21.5 -107.5t59 -87t88 -58t107.5 -21.5t107.5 21.5t88.5 58t59.5 87t21.5 107.5t-21.5 108.5t-59.5 89t-88 59.5t-108 22q-57 0 -107.5 -22t-88 -59.5t-59 -89t-21.5 -108.5z" />
<glyph unicode="&#xf6;" d="M74 385q0 82 31.5 155.5t87 128t129 86t157.5 31.5q86 0 161 -31.5t130 -86t87 -128t32 -155.5q0 -84 -32 -156.5t-87 -127t-130 -86t-161 -31.5q-84 0 -157.5 31.5t-129 86t-87 127t-31.5 156.5zM201 383q0 -57 21.5 -107.5t59 -87t88 -58t107.5 -21.5t107.5 21.5 t88.5 58t59.5 87t21.5 107.5t-21.5 108.5t-59.5 89t-88 59.5t-108 22q-57 0 -107.5 -22t-88 -59.5t-59 -89t-21.5 -108.5zM225 1053q0 37 26.5 62.5t59.5 25.5t59.5 -25.5t26.5 -62.5q0 -39 -26.5 -62.5t-59.5 -23.5t-59.5 23.5t-26.5 62.5zM565 1053q0 37 25.5 62.5 t60.5 25.5q33 0 59.5 -25.5t26.5 -62.5q0 -39 -26.5 -62.5t-59.5 -23.5q-35 0 -60.5 23.5t-25.5 62.5z" />
<glyph unicode="&#xf7;" horiz-adv-x="1026" d="M139 424v125h738v-125h-738zM428 231q0 39 25.5 63.5t60.5 24.5q33 0 59.5 -24.5t26.5 -63.5t-26.5 -62.5t-59.5 -23.5q-35 0 -60.5 23.5t-25.5 62.5zM428 743q0 39 25.5 63.5t60.5 24.5q33 0 59.5 -24.5t26.5 -63.5t-26.5 -62.5t-59.5 -23.5q-35 0 -60.5 23.5 t-25.5 62.5z" />
<glyph unicode="&#xf8;" d="M74 385q0 82 31.5 155.5t87 128t129 86t157.5 31.5q119 0 215 -61q16 23 35 43t37 43q16 -16 34.5 -31.5t35.5 -31.5l-68 -80q55 -53 87 -126t32 -157t-32 -156.5t-86 -127t-129 -86t-161 -31.5q-131 0 -233 73q-23 -25 -42.5 -50t-41.5 -50q-16 16 -36 29.5t-36 29.5 q23 27 43.5 51.5t42.5 49.5q-49 53 -75.5 121.5t-26.5 146.5zM201 385q0 -49 15 -92t42 -78q90 104 176 206.5t176 207.5q-61 33 -131 33q-59 0 -110.5 -22t-88 -58.5t-58 -88t-21.5 -108.5zM328 152q33 -20 70.5 -31.5t80.5 -11.5q59 0 110.5 21.5t88.5 58t58.5 87 t21.5 109.5q0 55 -19.5 103.5t-54.5 82.5q-90 -104 -178 -208.5t-178 -210.5z" />
<glyph unicode="&#xf9;" horiz-adv-x="1083" d="M188 213v555h129v-506q4 -61 44 -105t122 -48q57 0 110.5 19t93.5 55t63.5 84t23.5 106v395h127v-780h-127v118l6 93q-41 -98 -132 -156.5t-202 -58.5q-117 0 -185 63.5t-73 165.5zM289 1253h131q47 -68 92 -136t92 -136h-94q-55 68 -110.5 136.5t-110.5 135.5z" />
<glyph unicode="&#xfa;" horiz-adv-x="1083" d="M188 213v555h129v-506q4 -61 44 -105t122 -48q57 0 110.5 19t93.5 55t63.5 84t23.5 106v395h127v-780h-127v118l6 93q-41 -98 -132 -156.5t-202 -58.5q-117 0 -185 63.5t-73 165.5zM473 981q47 68 92 136.5t92 135.5h131q-55 -68 -110.5 -136t-110.5 -136h-94z" />
<glyph unicode="&#xfb;" horiz-adv-x="1083" d="M188 213v555h129v-506q4 -61 44 -105t122 -48q57 0 110.5 19t93.5 55t63.5 84t23.5 106v395h127v-780h-127v118l6 93q-41 -98 -132 -156.5t-202 -58.5q-117 0 -185 63.5t-73 165.5zM299 981q61 92 123 185.5t123 185.5q61 -92 122.5 -185.5t123.5 -185.5h-94 q-39 49 -77 98t-75 101q-39 -51 -76 -100.5t-75 -98.5h-95z" />
<glyph unicode="&#xfc;" horiz-adv-x="1083" d="M188 213v555h129v-506q4 -61 44 -105t122 -48q57 0 110.5 19t93.5 55t63.5 84t23.5 106v395h127v-780h-127v118l6 93q-41 -98 -132 -156.5t-202 -58.5q-117 0 -185 63.5t-73 165.5zM281 1053q0 37 26.5 62.5t59.5 25.5t59.5 -25.5t26.5 -62.5q0 -39 -26.5 -62.5 t-59.5 -23.5t-59.5 23.5t-26.5 62.5zM621 1053q0 37 25.5 62.5t60.5 25.5q33 0 59.5 -25.5t26.5 -62.5q0 -39 -26.5 -62.5t-59.5 -23.5q-35 0 -60.5 23.5t-25.5 62.5z" />
<glyph unicode="&#xfd;" horiz-adv-x="999" d="M66 768h129q82 -160 170 -323.5t153 -329.5q66 166 154 329.5t168 323.5h129q-160 -322 -320.5 -640t-320.5 -640h-131q66 129 128 255t128 255q-98 193 -193.5 385t-193.5 385zM494 981q47 68 92 136.5t92 135.5h131q-55 -68 -110.5 -136t-110.5 -136h-94z" />
<glyph unicode="&#xfe;" horiz-adv-x="1140" d="M137 -512v2048h127v-823q-4 -23 -7 -42.5t-7 -41.5q6 20 31.5 46.5t64.5 50.5t89 40t108 16q86 0 160.5 -31.5t129 -86t86 -127t31.5 -154.5t-31.5 -154.5t-86 -128t-129 -87t-160.5 -31.5q-61 0 -112.5 16t-89.5 38.5t-61.5 47.5t-29.5 45q4 -16 8 -31.5t8 -31.5v-578 h-129zM264 385q0 -59 21.5 -109.5t58.5 -88t88 -59.5t111 -22q61 0 112.5 22t88 59.5t57 88t20.5 109.5q0 57 -20.5 107.5t-57 87t-88 58t-112.5 21.5q-59 0 -110.5 -21.5t-88.5 -58t-58.5 -87t-21.5 -107.5z" />
<glyph unicode="&#xff;" horiz-adv-x="999" d="M66 768h129q82 -160 170 -323.5t153 -329.5q66 166 154 329.5t168 323.5h129q-160 -322 -320.5 -640t-320.5 -640h-131q66 129 128 255t128 255q-98 193 -193.5 385t-193.5 385zM266 1053q0 37 26.5 62.5t59.5 25.5t59.5 -25.5t26.5 -62.5q0 -39 -26.5 -62.5t-59.5 -23.5 t-59.5 23.5t-26.5 62.5zM606 1053q0 37 25.5 62.5t60.5 25.5q33 0 59.5 -25.5t26.5 -62.5q0 -39 -26.5 -62.5t-59.5 -23.5q-35 0 -60.5 23.5t-25.5 62.5z" />
<glyph unicode="&#x2000;" horiz-adv-x="970" />
<glyph unicode="&#x2001;" horiz-adv-x="1940" />
<glyph unicode="&#x2002;" horiz-adv-x="970" />
<glyph unicode="&#x2003;" horiz-adv-x="1940" />
<glyph unicode="&#x2004;" horiz-adv-x="646" />
<glyph unicode="&#x2005;" horiz-adv-x="485" />
<glyph unicode="&#x2006;" horiz-adv-x="323" />
<glyph unicode="&#x2007;" horiz-adv-x="323" />
<glyph unicode="&#x2008;" horiz-adv-x="242" />
<glyph unicode="&#x2009;" horiz-adv-x="388" />
<glyph unicode="&#x200a;" horiz-adv-x="107" />
<glyph unicode="&#x2010;" horiz-adv-x="614" d="M109 324v125h376v-125h-376z" />
<glyph unicode="&#x2011;" horiz-adv-x="614" d="M109 324v125h376v-125h-376z" />
<glyph unicode="&#x2012;" horiz-adv-x="614" d="M109 324v125h376v-125h-376z" />
<glyph unicode="&#x2013;" horiz-adv-x="1042" d="M205 358v125h616v-125h-616z" />
<glyph unicode="&#x2014;" horiz-adv-x="1433" d="M203 358v125h1028v-125h-1028z" />
<glyph unicode="&#x2018;" horiz-adv-x="335" d="M70 1456q20 -4 41.5 -7t44.5 -7q-14 -72 5 -132.5t62 -101.5q-16 -10 -31.5 -22t-31.5 -23q-57 55 -82 132t-8 161z" />
<glyph unicode="&#x2019;" horiz-adv-x="335" d="M86 1208q43 41 62.5 101.5t5.5 132.5q23 4 44 7t42 7q16 -84 -8.5 -161t-81.5 -132q-16 10 -32 22.5t-32 22.5z" />
<glyph unicode="&#x201a;" horiz-adv-x="299" d="M39 -59q43 41 62.5 101t4.5 132q23 4 44.5 7t42.5 7q16 -84 -9 -160.5t-82 -131.5q-16 10 -31.5 22t-31.5 23z" />
<glyph unicode="&#x201c;" horiz-adv-x="509" d="M63 1456q23 -4 43.5 -7t43.5 -7q-14 -72 5 -132.5t62 -101.5q-16 -10 -30.5 -22t-30.5 -23q-59 55 -84 132t-9 161zM276 1456q23 -4 43.5 -7t42.5 -7q-14 -72 5.5 -132.5t62.5 -101.5q-16 -10 -30.5 -22t-30.5 -23q-59 55 -84 132t-9 161z" />
<glyph unicode="&#x201d;" horiz-adv-x="507" d="M43 1208q43 41 62.5 101.5t5.5 132.5q23 4 43 7t43 7q16 -84 -9 -161t-84 -132q-16 10 -30.5 22.5t-30.5 22.5zM256 1208q43 41 62.5 101.5t5.5 132.5q23 4 43 7t43 7q16 -84 -9 -161t-84 -132q-16 10 -30.5 22.5t-30.5 22.5z" />
<glyph unicode="&#x201e;" horiz-adv-x="632" d="M39 -59q43 41 62.5 101t4.5 132q23 4 44.5 7t42.5 7q16 -84 -9 -160.5t-82 -131.5q-16 10 -31.5 22t-31.5 23zM252 -59q43 41 62.5 101t4.5 132q23 4 44.5 7t42.5 7q16 -84 -9 -160.5t-82 -131.5q-16 10 -31.5 22t-31.5 23z" />
<glyph unicode="&#x2022;" horiz-adv-x="980" d="M268 614q0 47 17.5 88t47 71t69.5 47.5t87 17.5t88 -17.5t71 -47.5t47.5 -70.5t17.5 -88.5q0 -47 -17.5 -87t-47.5 -69.5t-70.5 -47t-88.5 -17.5q-47 0 -87 17.5t-69.5 47t-47 69.5t-17.5 87z" />
<glyph unicode="&#x202f;" horiz-adv-x="388" />
<glyph unicode="&#x2039;" horiz-adv-x="802" d="M240 489q88 84 175 165t175 165v-147q-47 -45 -91 -90t-89 -93q45 -47 89 -93t91 -93v-145z" />
<glyph unicode="&#x203a;" horiz-adv-x="802" d="M239 158l350 331q-88 84 -175 165t-175 165v-147q47 -45 91 -90t89 -93q-45 -47 -89 -93t-91 -93v-145z" />
<glyph unicode="&#x205f;" horiz-adv-x="485" />
<glyph unicode="&#x25fc;" horiz-adv-x="768" d="M0 0v768h768v-768h-768z" />
</font>
</defs>
</svg>
