<?xml version="1.0" standalone="no"?>
<!DOCTYPE svg PUBLIC "-//W3C//DTD SVG 1.1//EN" "http://www.w3.org/Graphics/SVG/1.1/DTD/svg11.dtd" >
<svg xmlns="http://www.w3.org/2000/svg">
<metadata></metadata>
<defs>
<font id="condimentregular" horiz-adv-x="819" >
<font-face units-per-em="2048" ascent="1638" descent="-410" />
<missing-glyph horiz-adv-x="368" />
<glyph horiz-adv-x="2048" />
<glyph horiz-adv-x="2048" />
<glyph unicode="&#xd;" horiz-adv-x="2048" />
<glyph unicode=" "  horiz-adv-x="368" />
<glyph unicode="&#x09;" horiz-adv-x="368" />
<glyph unicode="&#xa0;" horiz-adv-x="368" />
<glyph unicode="!" horiz-adv-x="565" d="M37 78q0 63 61 102t123 39q40 0 65.5 -19.5t26.5 -52.5q0 -62 -61 -101.5t-121 -39.5q-41 0 -67.5 19.5t-26.5 52.5zM231 317q0 5 3.5 13t6.5 13l3 5q35 54 92.5 146.5t194.5 338t225 441.5q2 3 6 7t22 15t42 19t69.5 15t101.5 7h2q52 0 52 -28q0 -25 -128.5 -207.5 t-293 -414t-221.5 -333.5q-29 -53 -119 -53q-58 0 -58 16z" />
<glyph unicode="&#x22;" horiz-adv-x="630" d="M633 1073q0 45 49 203q4 8 4 12q19 63 61 102.5t107 39.5q34 0 52 -19t18 -51v-10q-4 -36 -61 -109t-124 -131.5t-96 -58.5q-10 0 -10 22zM934 1073q0 45 49 203q4 8 4 12q19 63 61 102.5t107 39.5q34 0 52 -19t18 -51v-10q-4 -36 -61 -109t-124 -131.5t-96 -58.5 q-10 0 -10 22z" />
<glyph unicode="#" horiz-adv-x="1142" d="M174 485q0 27 44 80t106 53h137q92 164 102 183q-77 0 -155 -4h-11q-30 0 -30 18q0 29 43.5 82t105.5 53h131q9 15 23 40t25 43.5t20 33.5q42 70 143 70q57 0 57 -23q0 -6 -3.5 -14t-7.5 -12l-3 -5q-21 -32 -84 -137q36 0 110.5 -1t110.5 -1l72 123q42 70 143 70 q58 0 58 -23q0 -6 -3.5 -14t-7.5 -12l-4 -5q-30 -45 -86 -139q80 0 158 4q6 2 14 2q27 0 27 -18q0 -29 -43.5 -82t-105.5 -53h-134l-104 -183q76 0 154 4q6 3 14 3q29 0 29 -21q0 -27 -44 -80t-106 -53h-129l-70 -121q-42 -70 -141 -70q-57 0 -57 23q0 6 3 14t6 13l3 4 q13 18 42 67t44 72q-74 2 -223 2l-72 -125q-42 -70 -141 -70q-58 0 -58 23q0 6 3 14t7 13l3 4q37 56 86 141q-80 0 -158 -4q-6 -2 -14 -2q-29 0 -29 20zM629 614h225l104 185q-76 2 -225 2z" />
<glyph unicode="$" horiz-adv-x="1032" d="M-33 33q0 26 45.5 120.5t108 199t135.5 186.5t119 82q10 2 20 2q37 0 37 -23q0 -4 -16.5 -32.5t-36.5 -66t-36.5 -96.5t-16.5 -116q0 -76 45 -123q66 115 189.5 332t137.5 241q-46 51 -67.5 75.5t-53.5 68.5t-45.5 82.5t-13.5 78.5q0 69 28 126t75.5 94.5t104 65.5 t119 42.5t115.5 21.5t99 7h14l23 37q35 55 106 55q49 0 49 -20q0 -4 -3 -10t-6 -11l-3 -4l-39 -62q17 -3 34 -8t26.5 -7.5t13.5 -2.5q12 0 18 4q64 33 129 33q68 0 68 -33q0 -31 -60.5 -137t-141 -203.5t-124.5 -97.5q-53 0 -53 22q0 3 14 28.5t28.5 73.5t14.5 107 q0 51 -47 86q-49 -83 -136.5 -235.5t-92.5 -161.5q45 -50 70 -81t58 -81.5t48.5 -102.5t15.5 -108q0 -135 -76 -246.5t-216.5 -177t-317.5 -65.5q-30 0 -70 4l-16 -29q-35 -55 -106 -55q-45 0 -45 22q0 12 8 23l39 63q-10 4 -22.5 9.5t-20 8.5t-11.5 3q-9 0 -18 -6 q-86 -39 -168 -39q-12 0 -26 1.5t-32 10.5t-18 25zM473 117q10 -2 35 -2q43 0 87.5 8.5t92.5 31t84.5 57t60 91t23.5 127.5q0 102 -82 217zM764 1083q0 -64 51 -135l191 334q-30 -2 -67 -13t-78.5 -32.5t-69 -61.5t-27.5 -92z" />
<glyph unicode="%" horiz-adv-x="1181" d="M55 10q0 9 13 25l63 59q1087 1112 1249 1284q45 49 123 49q56 0 56 -22q0 -10 -15 -25l-63 -59q-1055 -1077 -1250 -1286q-43 -47 -120 -47q-56 0 -56 22zM346 938q0 82 41.5 173t105.5 163.5t148.5 120t163.5 47.5q73 0 114.5 -38t41.5 -106q0 -77 -40 -166.5 t-102.5 -163.5t-148.5 -123.5t-170 -49.5q-72 0 -113 38t-41 105zM481 936q0 -74 58 -74q57 0 126.5 75.5t116.5 181t47 186.5q0 75 -57 75q-58 0 -127.5 -76t-116.5 -181.5t-47 -186.5zM668 129q0 110 68 228.5t176 197t214 78.5q73 0 114.5 -38t41.5 -106 q0 -77 -40 -166.5t-102.5 -163.5t-148.5 -123.5t-170 -49.5q-72 0 -112.5 38t-40.5 105zM803 127q0 -74 57 -74t126.5 75.5t117 181t47.5 186.5q0 75 -57 75q-58 0 -127.5 -76t-116.5 -181.5t-47 -186.5z" />
<glyph unicode="&#x26;" horiz-adv-x="1081" d="M117 244q0 99 39 191t98.5 159.5t137.5 125.5t149.5 93.5t140.5 58.5q3 0 7 1.5t11 10.5t7 23q0 126 12 168q10 49 42.5 101.5t86.5 103t139.5 83t186.5 32.5q61 0 106.5 -12t67.5 -27.5t35 -36t15.5 -32t2.5 -21.5q0 -39 -14.5 -76t-33 -65.5t-54.5 -60t-60.5 -50 t-72 -45.5t-67 -37t-65.5 -33q-5 -3 -14 -8.5t-31.5 -24.5t-40 -40t-31.5 -54.5t-14 -69.5q0 -99 8 -192q0 -3 0.5 -7.5t4.5 -15.5t10.5 -20t21.5 -16t35 -7q16 0 39.5 6.5t26.5 6.5q18 0 18 -25q0 -38 -12.5 -69t-29.5 -50t-34.5 -34.5t-30 -30t-12.5 -27.5 q0 -47 22.5 -127.5t33.5 -89.5q4 -4 4 -10q0 -13 -11.5 -26t-23.5 -13q-62 0 -107.5 12t-66.5 28.5t-33.5 33.5t-13.5 29l-2 12q-7 12 -23 12l-18 -4q-17 -9 -45 -22.5t-104 -35.5t-138 -22q-52 0 -102 12.5t-97.5 39t-76.5 76.5t-29 118zM354 334q0 -15 1 -29t12 -44 t30 -50.5t59.5 -37.5t96.5 -17q71 0 126.5 36.5t55.5 65.5v2q-27 218 -30 418q0 39 -37 39q-36 0 -89.5 -34.5t-103.5 -87.5t-85.5 -124.5t-35.5 -136.5zM922 1055q0 -18 10 -33.5t35 -15.5q60 0 139.5 75.5t79.5 135.5q0 36 -19 48.5t-57 12.5q-70 0 -129 -72.5t-59 -150.5 z" />
<glyph unicode="'" horiz-adv-x="323" d="M633 1073q0 45 49 203q4 8 4 12q19 63 61 102.5t107 39.5q34 0 52 -19t18 -51v-10q-4 -36 -61 -109t-124 -131.5t-96 -58.5q-10 0 -10 22z" />
<glyph unicode="(" horiz-adv-x="524" d="M135 117q0 150 46 318.5t121.5 320t174 292t200 242t202.5 162.5t180 61q74 0 74 -20q0 -9 -17 -20q-89 -63 -155 -119.5t-145 -144t-158.5 -211t-165.5 -289.5q-222 -432 -222 -738q0 -8 1 -28t1 -33q0 -12 -8 -19t-16 -9l-8 -1q-25 0 -43.5 8t-30 26.5t-18 36.5 t-9.5 50.5t-3.5 53.5t-0.5 61z" />
<glyph unicode=")" horiz-adv-x="546" d="M-190 -98q0 9 16 20q89 63 155 119.5t145.5 144t159 210.5t163.5 288q221 430 221 737q0 8 -1 29.5t-1 34.5q0 12 8.5 19t17.5 8l8 1q25 0 43.5 -8t30 -26.5t18 -36t9.5 -50t3.5 -53.5t0.5 -61q0 -147 -46.5 -314t-121.5 -319t-173.5 -293t-200 -244t-202.5 -165 t-180 -62q-73 1 -73 21z" />
<glyph unicode="*" horiz-adv-x="481" d="M440 1157q0 7 2 17.5t13.5 26.5t29.5 20q12 3 34 6.5t36.5 6.5t30 8t23 12t7.5 16q0 19 -21.5 36.5t-43 34t-21.5 33.5q0 20 25.5 36.5t46.5 16.5q10 0 21.5 -14.5t20.5 -32.5t23.5 -32.5t30.5 -14.5q18 0 31 22t20 48t26.5 48t49.5 22q56 0 56 -23q0 -15 -33 -62.5 t-33 -72.5q0 -12 19 -12q16 0 68.5 14t72.5 14q24 0 24 -18q0 -72 -34 -72h-15q-129 0 -129 -45q0 -21 20 -43t40 -40t20 -30t-21.5 -29.5t-48.5 -17.5q-13 0 -29.5 25t-35.5 50.5t-39 25.5q-13 0 -24 -21t-18.5 -45.5t-23 -45.5t-36.5 -21q-26 0 -41.5 7t-17.5 14l-3 7 q0 17 32 60.5t32 68.5q0 15 -17 15q-18 0 -74 -24t-73 -24q-23 0 -23 29z" />
<glyph unicode="+" horiz-adv-x="1101" d="M274 682q0 27 44 80t106 53q70 0 180.5 -1t149.5 -1q99 181 161 287q41 69 142 69q59 0 59 -22q0 -6 -3.5 -14t-6.5 -13l-4 -4q-77 -121 -180 -305q21 0 70 -1t79 -1q59 0 110 2t78 4t29 2q29 0 29 -20q0 -27 -44 -80t-106 -53q-101 0 -205 1t-120 1h-4 q-54 -101 -162 -287q-22 -37 -62.5 -53.5t-81.5 -16.5q-57 0 -57 23q0 6 3.5 13.5t7.5 12.5l3 4q68 106 183 306h-111q-75 0 -156 -3t-102 -3q-29 0 -29 20z" />
<glyph unicode="," horiz-adv-x="432" d="M39 -131l4 10q90 52 90 98q0 8 -4 13.5t-8 5.5q-62 14 -62 72q0 48 53.5 94.5t123.5 46.5q46 0 72 -20.5t26 -55.5q0 -75 -47 -141.5t-107 -101.5t-108 -35q-33 0 -33 14z" />
<glyph unicode="-" horiz-adv-x="929" d="M133 305q0 27 43 77t105 50h620q29 0 29 -18q0 -29 -42.5 -78t-105.5 -49q-93 0 -297.5 -1t-324.5 -1q-27 0 -27 20z" />
<glyph unicode="." horiz-adv-x="403" d="M29 68q0 49 53.5 95t124.5 46q42 0 70 -19.5t28 -52.5q0 -54 -53 -98.5t-129 -44.5q-40 0 -67 20.5t-27 53.5z" />
<glyph unicode="/" horiz-adv-x="778" d="M-98 -82q0 12 14 29q28 22 658 667t800 826q51 53 172 53q62 0 62 -25q0 -8 -15 -26q-85 -87 -631.5 -641t-824.5 -854q-22 -23 -65.5 -36t-68 -15t-42.5 -2q-59 0 -59 24z" />
<glyph unicode="0" horiz-adv-x="1148" d="M152 305q0 65 18 147.5t51.5 173t83.5 184.5t111.5 182.5t139 166.5t161.5 136.5t183.5 92t201.5 33.5q152 0 235.5 -84.5t83.5 -238.5q0 -78 -23 -176t-68.5 -204t-107.5 -211t-145 -199.5t-175.5 -167.5t-204.5 -115.5t-226 -42.5q-153 0 -236 84.5t-83 238.5zM381 281 q0 -179 139 -179q79 0 174.5 68.5t183 181.5t161 246.5t117.5 276.5t44 258q0 180 -137 180q-68 0 -147.5 -50.5t-153.5 -132.5t-144.5 -191t-122 -222t-83 -228.5t-31.5 -207.5z" />
<glyph unicode="1" horiz-adv-x="534" d="M-16 39q0 5 2.5 10.5t5.5 8.5l2 3q63 47 231 313t361 632q18 44 18 69q0 32 -23.5 47.5t-52 16.5t-52 5.5t-23.5 16.5q0 45 98.5 105.5t225 103.5t206.5 43q61 0 61 -33q0 -11 -6.5 -24t-13.5 -20l-6 -7q-47 -60 -201.5 -313t-306 -527.5t-168.5 -351.5q-10 -46 -10 -59 q0 -3 1 -10t1 -15q0 -32 -38 -47.5t-130 -15.5q-182 0 -182 49z" />
<glyph unicode="2" horiz-adv-x="1099" d="M14 23q0 8 2 14q24 83 79.5 169t129 160.5t162 149.5t180.5 141t182.5 129.5t169.5 120.5t140 108.5t96 99.5t35 87q0 26 -12.5 44.5t-31.5 25.5t-32 9.5t-22 2.5q-68 0 -137 -23t-118.5 -55t-89 -64.5t-59.5 -55.5l-20 -23q-23 -18 -39 -26t-23 -9.5t-18 -1.5 q-15 0 -26 6t-11 15v2q1 15 58.5 109t132 187.5t110.5 96.5q95 0 154 -47q82 32 258 32q5 0 12.5 -1t30 -6t43 -12t45.5 -21t43 -31.5t30.5 -44.5t12.5 -60q0 -72 -58 -153.5t-150.5 -158.5t-204.5 -157.5t-223.5 -159t-204 -152t-150.5 -149t-58 -139.5q0 -61 115 -61 q53 0 109 17t102.5 44.5t90 60.5t76.5 65.5t58 60t38 44.5l13 17q35 35 78 35q31 0 31 -21q-3 -29 -61.5 -137.5t-134 -210.5t-113.5 -102q-109 0 -191 4t-154 4q-114 0 -241.5 -4t-147.5 -4q-48 0 -67 6t-19 23z" />
<glyph unicode="3" horiz-adv-x="1042" d="M43 78v4q2 21 35.5 94t80.5 155.5t107 147t105 64.5q30 -1 30 -17q0 -4 -2 -6q-26 -51 -50.5 -128.5t-24.5 -143.5q0 -65 31.5 -104.5t101.5 -39.5q67 0 141 40.5t135 105t101 153t40 177.5q0 41 -22 73t-53.5 49t-74.5 28t-78 14.5t-71 3.5q-24 0 -24 20q0 37 35.5 73 t68.5 36q107 0 198.5 21t151 53t102.5 73t62.5 80t22.5 74q0 57 -35 83.5t-88 26.5q-61 0 -120 -17.5t-99.5 -42.5t-72.5 -50t-47 -42l-15 -18q-25 -33 -72 -33q-33 0 -33 19v4q1 14 46 90.5t106 152.5t94 79h14q34 0 74 -12.5t62 -31.5q4 4 14.5 9.5t63 14.5t128.5 9 q101 0 158 -63t57 -133q0 -69 -25.5 -127.5t-65.5 -96.5t-89 -69t-98.5 -50.5t-90 -34.5t-66.5 -28t-27 -24v-2q0 -12 10.5 -22t26.5 -17.5t34.5 -22t34.5 -34t26.5 -55.5t10.5 -83q0 -120 -61.5 -228.5t-157.5 -182t-213.5 -117t-229.5 -43.5q-105 0 -181.5 5.5 t-118.5 13.5t-66 21t-30.5 24.5t-6.5 27.5z" />
<glyph unicode="4" horiz-adv-x="1062" d="M186 449q0 45 57.5 125.5t148 172.5t202.5 192t221.5 186t204.5 153t151 96q77 41 218 41q54 0 80.5 -4.5t33 -11t6.5 -19.5q0 -8 -6.5 -21t-12.5 -21l-7 -9q-43 -56 -199 -319t-289 -506q98 3 111 6h2q8 0 11 -1t6 -7t3 -19q0 -27 -35 -71.5t-89 -44.5h-84 q-88 -160 -115 -230q-2 -5 -33 -90q-13 -36 -40.5 -46.5t-106.5 -10.5q-142 0 -142 43q0 7 6 18t22.5 35t38 55t60.5 91t82 130h-49q-208 0 -332.5 18.5t-124.5 68.5zM489 578q0 -64 287 -76q131 220 318 571q6 15 6 29q0 26 -25 26q-48 0 -148 -69.5t-196 -160.5t-169 -184 t-73 -136z" />
<glyph unicode="5" horiz-adv-x="974" d="M43 80q0 21 33.5 94.5t81.5 156t108 147.5t105 65q30 -1 30 -17q0 -1 -8 -18.5t-19.5 -45t-23.5 -61t-20 -74t-8 -75.5q0 -135 131 -135q87 0 180.5 89t154 218.5t60.5 241.5q0 149 -213 149q-44 0 -92.5 -6.5t-75.5 -13.5l-27 -7q-24 0 -24 21v6q1 17 84 158.5 t177 279.5t118 138q26 16 182 16q96 0 219 -8q61 33 178 33q25 0 25 -27q0 -41 -51 -120t-86 -99q-19 -12 -70 -12q-28 0 -115.5 8t-144.5 8q-52 0 -99 -23.5t-77.5 -57t-54 -67.5t-33.5 -58l-11 -23q0 -18 7.5 -24.5t23.5 -6.5q11 0 56.5 7t78.5 7q22 0 49.5 -4.5t66 -20 t69.5 -39.5t53 -68t22 -101q0 -79 -31.5 -174.5t-94.5 -192.5t-146 -177t-198.5 -130.5t-239.5 -50.5q-330 0 -330 94z" />
<glyph unicode="6" horiz-adv-x="1032" d="M172 279q0 68 19 153t54 178t87 189.5t115.5 187.5t143.5 170.5t166.5 139t188.5 94t205 34.5q104 0 149 -26q9 -4 19 -4q4 0 24 6.5t51 13t60 6.5q57 0 57 -26q0 -49 -98 -201t-164 -193q-20 -10 -35 -10q-40 0 -40 25q0 1 9 24.5t18 66.5t9 93q0 44 -31 71t-85 27 q-59 0 -137 -46t-140.5 -108t-106.5 -125.5t-44 -98.5q0 -29 28 -29l57 10q57 10 109 10q23 0 49 -4.5t64.5 -22t68 -45.5t51 -81.5t21.5 -124.5q0 -110 -51 -228t-135.5 -214t-204.5 -158t-246 -62q-143 0 -224 87.5t-81 220.5zM399 287q0 -26 3 -49t14 -60t40.5 -59.5 t75.5 -22.5q57 0 121 40.5t117.5 106t89 158.5t35.5 189q0 46 -14.5 87.5t-52.5 73t-95 31.5q-83 0 -138 -32t-79 -72q-45 -74 -81 -187t-36 -204z" />
<glyph unicode="7" horiz-adv-x="612" d="M49 23q0 74 50.5 174t131.5 201.5t178.5 209t195 206t178.5 181.5t131.5 146.5t50.5 91.5q0 26 -34.5 39.5t-56.5 13.5q-61 0 -127 -23t-116.5 -56t-92 -65.5t-63.5 -55.5l-22 -23q-40 -37 -78 -37q-29 0 -29 23q1 15 59.5 111t134 191.5t111.5 98.5q88 0 137 -43 q83 12 226 12q303 0 303 -69q0 -42 -49.5 -108t-130.5 -144.5t-180.5 -170.5t-204 -199t-196 -215.5t-161 -234.5t-94.5 -243q1 -5 -2.5 -13.5t-45.5 -22t-120 -13.5q-22 0 -38.5 4t-25 9t-13.5 10.5t-6 9.5z" />
<glyph unicode="8" horiz-adv-x="1128" d="M143 283q0 80 24.5 148t64.5 117t100.5 92t122.5 72.5t141 57.5q61 22 61 59q0 15 -12 31q-53 60 -53 148q0 60 40.5 129.5t111 132t181.5 104t236 41.5q27 0 54.5 -2.5t67.5 -10t73 -24t63.5 -41.5t48 -66t17.5 -93q0 -55 -20 -103.5t-53 -84.5t-81.5 -68t-98 -54.5 t-110.5 -42.5q-47 -16 -47 -45q0 -20 21 -41q82 -90 82 -192q0 -168 -91 -296.5t-238 -193.5t-323 -65q-96 0 -170.5 26.5t-113 62t-62.5 80t-30.5 73.5t-6.5 49zM373 303q0 -89 48.5 -137.5t135.5 -48.5q158 0 265.5 100t107.5 256q0 70 -51.5 151t-110.5 81 q-32 0 -79.5 -15t-103 -48.5t-102.5 -79t-78.5 -114t-31.5 -145.5zM827 1098q0 -55 23 -98.5t70 -90.5q12 -18 41 -18q14 0 32 6q133 46 205 104.5t72 145.5q0 71 -48 110t-126 39q-61 0 -111 -18t-78 -43.5t-47.5 -55t-26 -50t-6.5 -31.5z" />
<glyph unicode="9" horiz-adv-x="1128" d="M-27 4q0 34 55.5 132t127.5 185t110 87h10q37 0 37 -25q0 -2 -9.5 -25.5t-19.5 -66t-10 -92.5q0 -44 32 -71.5t87 -27.5q69 0 148 47t138.5 111.5t99.5 130t40 103.5q0 30 -31 30q-17 0 -36 -8q-66 -10 -123 -10q-23 0 -49 4.5t-64.5 22t-68 45.5t-51 81.5t-21.5 124.5 q0 110 51 225t134.5 208t203 152.5t246.5 59.5q142 0 223.5 -87.5t81.5 -219.5q0 -92 -31 -210.5t-87 -247t-143.5 -251.5t-192 -220.5t-242 -157.5t-283.5 -60q-103 0 -150 27q-8 4 -18 4q-4 0 -23.5 -7t-49.5 -13.5t-62 -6.5q-60 0 -60 27zM594 827q0 -47 14.5 -89 t52.5 -73.5t95 -31.5q154 0 217 104q119 202 119 389q0 177 -138 177q-58 0 -121.5 -38t-116.5 -100.5t-87.5 -152.5t-34.5 -185z" />
<glyph unicode=":" horiz-adv-x="468" d="M39 68q0 49 53.5 95t124.5 46q42 0 70 -19.5t28 -52.5q0 -54 -53 -98.5t-129 -44.5q-40 0 -67 20.5t-27 53.5zM346 602q0 49 53 95t123 46q43 0 71 -19t28 -52q0 -54 -53.5 -99t-129.5 -45q-39 0 -65.5 20.5t-26.5 53.5z" />
<glyph unicode=";" horiz-adv-x="487" d="M39 -131l4 10q90 52 90 98q0 8 -4 13.5t-8 5.5q-62 14 -62 72q0 48 53.5 94.5t123.5 46.5q46 0 72 -20.5t26 -55.5q0 -75 -47 -141.5t-107 -101.5t-108 -35q-33 0 -33 14zM365 602q0 49 53 95t123 46q43 0 70.5 -19t27.5 -52q0 -54 -53 -99t-129 -45q-39 0 -65.5 20.5 t-26.5 53.5z" />
<glyph unicode="&#x3c;" horiz-adv-x="1134" d="M190 487q0 25 25.5 61t87.5 68q116 59 514.5 193.5t497.5 134.5q26 0 26 -18q0 -46 -33 -88.5t-75 -53.5q-635 -158 -635 -231q0 -19 66 -44t146 -46t146 -49t66 -52q0 -36 -29 -77t-61 -41q-6 0 -12 2t-8 4l-3 2q-157 64 -293.5 107.5t-209.5 59.5t-126.5 26.5 t-71.5 17.5t-18 24z" />
<glyph unicode="=" horiz-adv-x="1294" d="M274 485q0 27 44 80t106 53q65 0 278.5 -2t323.5 -2q62 0 152 2t112 2q29 0 29 -18q0 -27 -44 -80t-106 -53q-65 0 -279 2t-323 2q-62 0 -152 -3t-112 -3q-29 0 -29 20zM467 815q0 29 43.5 82t105.5 53q70 0 301.5 -3t344.5 -3q51 0 126.5 3t94.5 3q26 0 26 -18 q0 -29 -43.5 -82t-105.5 -53q-65 0 -278.5 2t-323.5 2q-61 0 -149.5 -2t-110.5 -2q-31 0 -31 18z" />
<glyph unicode="&#x3e;" horiz-adv-x="1157" d="M121 287q0 41 33.5 84t74.5 53q34 8 95 23.5t100 25t96 24t94.5 25.5t83 25t74.5 25.5t55 24t38 25t12 23.5q0 25 -68.5 53t-151 49t-151 48.5t-68.5 50.5q0 37 28.5 78t61.5 41q6 0 12.5 -2.5t9.5 -4.5l3 -2q156 -63 293.5 -109.5t210 -66t126.5 -34.5t71.5 -25 t17.5 -27q0 -25 -26.5 -61.5t-88.5 -67.5q-107 -55 -508.5 -177t-501.5 -122q-26 0 -26 21z" />
<glyph unicode="?" horiz-adv-x="796" d="M37 78q1 -33 26.5 -52.5t65.5 -19.5q61 0 122.5 39.5t61.5 101.5q-1 33 -27.5 52.5t-66.5 19.5q-59 0 -120.5 -39.5t-61.5 -99.5v-2zM227 381q33 83 88.5 152.5t117.5 117t130 90t129 80t110 77.5t78 93t29 117q0 26 -13.5 45t-36 28t-43.5 13t-42 4q-64 0 -134 -35 t-108 -69l-38 -35q-49 -45 -95 -45q-16 0 -24 3.5t-9 6.5t-1 10q0 8 45.5 81t104.5 146.5t87 73.5q22 0 61 -19.5t50 -19.5q6 0 22 4q2 1 5.5 3.5t19 8t36 10t58.5 8t84 3.5q29 0 57.5 -4.5t61 -17.5t56.5 -33.5t40 -56.5t16 -82q0 -84 -34 -151.5t-90.5 -113.5t-126 -85.5 t-146 -78t-144.5 -79.5t-126 -101.5t-88 -134.5q-18 -47 -123 -47q-36 0 -50 6.5t-14 26.5z" />
<glyph unicode="@" horiz-adv-x="1908" d="M98 96q0 134 43.5 265.5t120 243.5t183 208t229 163.5t262 105.5t278.5 38q150 0 274 -33.5t207.5 -89.5t141 -130.5t83.5 -156t26 -167.5q0 -138 -35.5 -258.5t-96 -206t-137 -152t-161.5 -106.5t-166 -60t-154 -20q-127 0 -184.5 52.5t-57.5 135.5q0 36 14.5 79 t14.5 48q0 15 -25 15q-16 0 -50 -23t-88.5 -46.5t-119.5 -23.5q-43 0 -73.5 19.5t-43.5 48.5t-17.5 50.5t-4.5 37.5q0 40 15.5 90.5t60 115t110.5 116t181.5 88t259.5 37.5q35 0 35 36q0 12 -5.5 24t-20 26t-48 23t-82.5 9q-43 0 -96.5 -15t-57.5 -15q-20 0 -20 20 q0 17 18.5 39t53 44.5t94.5 38t131 15.5q256 0 256 -170q0 -67 -29.5 -145t-71 -149t-83.5 -140t-71.5 -138t-29.5 -122q0 -42 25.5 -70t85.5 -28q57 0 119.5 26t124.5 81t111.5 131t80.5 184.5t31 232.5q0 92 -37.5 176.5t-106.5 150.5t-175.5 105t-235.5 39 q-128 0 -243.5 -32.5t-202.5 -87t-159.5 -127t-122 -151.5t-84 -161t-50 -155t-15.5 -134q0 -94 24 -166t65 -117.5t101.5 -74t127.5 -40t149 -11.5q43 0 43 -19q0 -16 -13 -36.5t-40 -42.5t-78.5 -37t-118.5 -15q-119 0 -211.5 42.5t-147.5 116t-82.5 163.5t-27.5 192z M780 215q0 -68 64 -68q54 0 114 35t103.5 81.5t72.5 92t29 68.5q0 16 -29 25.5t-51 9.5q-62 0 -115 -19.5t-86.5 -48.5t-57.5 -63.5t-34 -63.5t-10 -49z" />
<glyph unicode="A" horiz-adv-x="1185" d="M-35 -51q0 23 128.5 198.5t303.5 387.5q-34 -3 -78.5 -8t-71 -8t-28.5 -3q-7 0 -11.5 5t-5.5 9l-1 5q0 35 49.5 80t91.5 61q17 8 184 12l29 33q621 719 864 719q20 2 47 2q24 0 46 -3t45 -9.5t37 -21t14 -34.5q0 -12 -26.5 -65.5t-92 -185t-127.5 -265.5 q-121 -266 -240.5 -557.5t-144.5 -400.5q0 -2 -1 -5t-9 -7.5t-23 -4.5q-52 0 -111 46t-59 81q0 42 31.5 110.5t69 129.5t69 126.5t31.5 102.5q0 72 -279 72q-41 0 -127 -4l-77 -103q-66 -89 -134 -207.5t-97 -177t-44 -92.5q-13 -29 -62.5 -40t-95.5 -11q-94 0 -94 33z M684 688l223 -4q63 0 126 57.5t104 133.5t66.5 143.5t25.5 95.5q0 13 -10 21t-25 8q-61 0 -202.5 -130t-307.5 -325z" />
<glyph unicode="B" horiz-adv-x="1163" d="M-53 -57q0 22 142.5 267.5t315.5 547.5t226 422q47 104 47 186v16q0 56 317 56q93 0 141.5 -1.5t120.5 -7.5t109.5 -21.5t78 -41t57 -67t16.5 -99.5q0 -92 -68.5 -174t-165.5 -133q-41 -22 -85 -38.5t-73.5 -24t-54.5 -15t-37 -17t-12 -24.5q0 -11 19.5 -24t47.5 -31 t56 -43t47.5 -68.5t19.5 -97.5q0 -74 -31 -151t-94 -149t-150 -129t-209.5 -91.5t-260.5 -34.5q-76 0 -122 6.5t-67.5 13.5t-37.5 7q-12 0 -23 -3t-15 -7l-5 -3q-65 -59 -177 -59q-24 0 -37.5 1.5t-24.5 9t-11 22.5zM342 158q0 -30 33.5 -53t101.5 -23q89 0 170 33t138 84.5 t100 112t63.5 116.5t20.5 98q0 48 -15 83.5t-35.5 54t-49 29.5t-48 13.5t-39.5 2.5h-20q-27 0 -27 18q0 44 32.5 91.5t72.5 47.5q82 0 162 31.5t137.5 81t93 112t35.5 121.5q0 109 -144 109q-63 0 -101 -12.5t-65 -44.5q-83 -101 -232 -350.5t-266.5 -478.5t-117.5 -277z " />
<glyph unicode="C" horiz-adv-x="1013" d="M141 295q0 62 20 143t56.5 172.5t91.5 187.5t120.5 187.5t148 172t170.5 141t191 96t206 35.5q42 0 78.5 -9t58 -17.5t25.5 -8.5q2 0 50 20.5t99 20.5q13 0 28 -1.5t34.5 -11t19.5 -26.5q0 -27 -49.5 -112t-117.5 -177t-147 -164t-130 -72q-9 -2 -21 -2q-39 0 -39 23 q0 5 18 32.5t39.5 63t39.5 92t18 111.5q0 10 -2.5 22.5t-10.5 33t-29.5 33.5t-53.5 13q-66 0 -153.5 -66.5t-170 -174t-153.5 -231.5t-114.5 -252t-43.5 -222q0 -188 172 -188q204 0 397 264q9 16 23 16h3.5t8 -2.5t9.5 -6.5t7.5 -13.5t3.5 -22.5q0 -32 -25.5 -85t-76 -115 t-116.5 -116.5t-157.5 -91t-187.5 -36.5q-66 0 -119 14t-87.5 36t-60 54t-39 61.5t-21 66t-9.5 61t-2 51.5z" />
<glyph unicode="D" horiz-adv-x="1224" d="M-57 -63q0 28 142 273.5t315.5 547t226.5 422.5q47 104 47 186v16q0 60 342 60q508 0 508 -346q0 -76 -21 -172.5t-65.5 -205.5t-106.5 -217t-150.5 -207t-191.5 -175t-236.5 -121t-277.5 -45q-54 0 -94.5 3.5t-57.5 7t-38.5 9t-28.5 7.5q-6 2 -20 2q-12 0 -23 -3t-15 -7 l-5 -3q-72 -59 -189 -59q-61 0 -61 27zM338 158q0 -39 44.5 -60.5t129.5 -21.5q104 0 209 61t190 158.5t160 217t125.5 237.5t79.5 219.5t29 163.5q0 98 -51 143t-169 45q-82 0 -131 -57q-82 -103 -231 -352t-267 -477.5t-118 -276.5z" />
<glyph unicode="E" horiz-adv-x="1128" d="M-55 -57q0 22 142.5 267t316 546.5t227.5 421.5q45 103 45 182v22q0 35 436 35q144 0 250 -4q3 4 12 10t49.5 15.5t96.5 9.5q10 0 20.5 -1.5t21.5 -8.5t11 -17q0 -46 -93.5 -188.5t-162.5 -194.5q-23 -18 -60 -18q-32 0 -32 14q0 8 6 17q33 63 33 143q0 46 -25 72.5 t-56 33.5t-75 7q-95 0 -143 -43q-59 -55 -112.5 -143.5t-79 -152t-25.5 -79.5q0 -18 5 -30t19.5 -20t29.5 -12.5t47.5 -6.5t59.5 -2.5t78 -0.5q37 0 73 1.5t57 3t22 1.5q20 0 20 -14q0 -17 -21 -52.5t-44 -49.5q-48 -31 -140 -31q-35 0 -92.5 3t-81.5 3q-65 0 -111.5 -17.5 t-86.5 -66.5q-23 -29 -67 -94.5t-94 -167.5t-50 -160q0 -24 13 -40t37 -23.5t46.5 -10t52.5 -2.5q31 0 66.5 3.5t99.5 21.5t122.5 47.5t125.5 89t117 139.5q15 19 43 19q41 0 41 -33q0 -48 -65.5 -174t-117.5 -190q-13 -15 -32 -23.5t-32.5 -10.5t-39.5 -3q-76 -4 -338 -4 q-72 0 -126 0.5t-80 1.5t-40.5 2t-19.5 1.5t-6 0.5q-22 0 -41 -19q-67 -59 -193 -59q-59 0 -59 27v6z" />
<glyph unicode="F" horiz-adv-x="851" d="M-80 -57q0 22 142.5 267t315.5 546.5t226 421.5q47 104 47 184v20q0 35 436 35q144 0 250 -4q3 4 12 10t48.5 15.5t95.5 9.5q18 0 36.5 -6t18.5 -21q0 -48 -100 -197t-166 -192q-1 0 -6.5 -3.5t-9.5 -5t-13 -3.5t-20 -2q-33 0 -33 16q0 2 10 23t19.5 58t9.5 79 q0 113 -158 113q-95 0 -143 -43q-59 -55 -112.5 -143.5t-79 -152t-25.5 -79.5q0 -31 18 -47q27 -25 224 -25q38 0 73.5 1.5t56 3t21.5 1.5q19 0 19 -14q0 -6 -3 -12q-29 -70 -68.5 -95.5t-133.5 -25.5q-35 0 -93 3t-83 3q-64 0 -111.5 -17.5t-85.5 -66.5 q-70 -89 -134.5 -200.5t-102 -191t-77.5 -148t-71 -91.5q-34 -26 -73.5 -39.5t-60.5 -15.5t-54 -2q-62 0 -62 27v6z" />
<glyph unicode="G" horiz-adv-x="1052" d="M106 236q0 70 27 169t79.5 211.5t122.5 227t161.5 220t191.5 187t219 130.5t236 49q89 0 143 -31q9 -4 19 -4q11 0 20 6q51 35 129 35q82 0 82 -39q0 -49 -102.5 -194.5t-190.5 -203.5q-40 -24 -72 -24q-19 0 -26.5 1t-13 7.5t-5.5 20.5q0 5 13.5 33t27 69.5t13.5 79.5 q0 23 -3.5 39t-14 33.5t-34 26.5t-59.5 9q-62 0 -141 -53t-155 -137.5t-150.5 -194.5t-130.5 -221t-90.5 -219.5t-34.5 -187.5q0 -134 110 -134q66 0 148.5 54t146.5 125.5t108 142.5t44 106q0 25 -15.5 40.5t-62.5 24.5t-131 9q-25 0 -25 19q0 15 15.5 39t37.5 45 q28 24 64 28q147 11 276 11q197 0 197 -29q0 -9 -5.5 -24.5t-17 -39t-24 -47.5t-33.5 -59.5t-37.5 -64t-43.5 -72t-45 -73t-47 -77t-46 -74.5q-33 -54 -68 -121t-51.5 -94.5t-27.5 -27.5q-29 0 -50 26.5t-28 53.5l-6 26q-6 23 -27 23q-26 0 -45 -15q-191 -151 -359 -151 q-213 0 -213 285z" />
<glyph unicode="H" horiz-adv-x="1124" d="M-20 -57q0 18 54.5 109.5t175 286.5t208.5 343l-125 -6q-31 0 -31 16q0 35 44 69.5t89 51.5q11 4 103 8q76 128 194 359q45 99 45 176v26q0 6 4 12.5t18.5 14t37 13.5t64 10t95.5 4q111 0 111 -41q0 -7 -4 -15.5t-8 -13.5l-4 -4q-80 -111 -332 -539l254 -2q35 0 70 14.5 t63.5 36t60 59t54 70t51.5 83.5t47 85t46 88.5t42 81.5q0 3 2 8.5t15 19.5t34.5 24.5t67 19t106.5 8.5q62 0 62 -26q0 -11 -13 -31q-6 -10 -103.5 -161.5t-195.5 -311.5t-207 -349t-178 -344t-69 -227q-1 -4 -4 -10t-16.5 -15.5t-30.5 -9.5q-113 0 -156 18.5t-43 55.5 q0 42 42.5 128.5t93.5 169t93.5 166t42.5 120.5q0 31 -13.5 50t-59 32.5t-125.5 13.5q-76 0 -113 -2q-69 -113 -159 -289t-152 -288t-99 -142q-44 -34 -85 -45.5t-101 -11.5q-14 0 -23.5 1t-19.5 4t-15 10t-5 18z" />
<glyph unicode="I" horiz-adv-x="505" d="M-55 10q0 5 3 11.5t6 10.5l3 3q69 41 278 379.5t424 765.5q46 92 46 170v32q0 6 4 12.5t18.5 14t37 13.5t64 10t95.5 4q110 0 110 -41q0 -7 -4 -15.5t-8 -13.5l-4 -4q-61 -79 -202 -313.5t-253 -440.5q-26 -47 -64 -118.5t-101.5 -209.5t-63.5 -178q0 -41 5 -61.5 t5 -30.5q0 -47 -199 -47q-200 0 -200 47z" />
<glyph unicode="J" horiz-adv-x="1032" d="M-18 10q0 24 44 111t105.5 187.5t137 193t130.5 121.5q22 14 62 14q39 0 39 -23q0 -5 -26.5 -49.5t-58.5 -100.5t-58.5 -129t-26.5 -128q0 -43 25.5 -74t70.5 -31q156 0 324 269q227 364 450 809q45 92 45 176v26q0 6 4 12.5t18.5 14t37 13.5t64 10t95.5 4q111 0 111 -41 q0 -7 -4 -15.5t-8 -13.5l-4 -4q-55 -71 -223.5 -356t-231.5 -398q-33 -63 -89 -171q-45 -87 -66 -126t-57 -99t-57.5 -83.5t-59.5 -59t-72 -47t-85 -27t-108.5 -19t-134.5 -3.5q-21 0 -67.5 9t-76.5 26q-8 4 -18 4q-11 0 -20 -6q-55 -35 -132 -35q-13 0 -27 1.5t-33 11 t-19 26.5z" />
<glyph unicode="K" horiz-adv-x="1052" d="M-41 -55q0 18 59 117t185.5 303.5t220.5 365.5l-141 -6q-16 0 -21 16q0 35 37 67t80 48q19 6 123 10q99 177 170 314q45 105 45 184v18q0 6 4 12.5t18.5 14t37 13.5t63 10t94.5 4q110 0 110 -41q0 -7 -4 -15.5t-8 -13.5l-4 -4q-75 -103 -307 -498q36 1 65 8t79 35 t106.5 79t143 143.5t194.5 224.5q2 3 5.5 8.5t22 19t43.5 23.5t73 18.5t108 8.5q133 0 133 -37q0 -11 -112.5 -93t-248 -177t-248 -188t-112.5 -124q0 -19 20.5 -38.5t45 -34.5t45 -40t20.5 -55q0 -13 -41 -128t-82 -259t-41 -227q0 -9 1 -22t1 -21q0 -33 -98 -33 q-174 0 -174 70q0 52 52 181.5t104.5 256.5t52.5 174q0 102 -160 102h-70l-96 -170q-65 -115 -141 -268t-119 -227.5t-84 -106.5q-73 -57 -189 -57q-27 0 -41.5 6t-17 12t-2.5 17z" />
<glyph unicode="L" horiz-adv-x="1071" d="M-55 -57q0 22 142.5 267t315.5 546.5t226 421.5q47 103 47 178v26q0 6 4 12.5t18.5 14t37 13.5t64 10t95.5 4q111 0 111 -41q0 -7 -4 -15.5t-8 -13.5l-5 -4q-63 -101 -197 -336t-237 -424q-1 -1 -29.5 -51.5t-40.5 -72.5t-37.5 -74t-38 -84.5t-23.5 -73.5t-11 -70 q0 -76 135 -76h14q29 0 61.5 3.5t92.5 21.5t115 47.5t120 89t115 139.5q8 19 41 19q43 0 43 -33q0 -49 -65.5 -175.5t-118.5 -188.5q-28 -37 -103 -37q-76 -4 -327 -4q-68 0 -118 0.5t-74 1.5t-38.5 2t-20.5 1.5t-9 0.5q-14 0 -24.5 -4.5t-14.5 -9.5l-4 -5q-70 -59 -189 -59 q-61 0 -61 27v6z" />
<glyph unicode="M" horiz-adv-x="1472" d="M-63 -39q0 15 42.5 87t117.5 191.5t161 259t190 323t187 349.5q47 94 47 177v24q0 7 6 15.5t25 21t47.5 22t79.5 16.5t116 7q7 0 18 -0.5t39 -3.5t50 -9t39.5 -18.5t17.5 -29.5q0 -26 -40.5 -155.5t-81 -271t-40.5 -196.5q0 -35 17 -35q41 0 133.5 82t188.5 187 t214 227.5t189 179.5l8 7q9 8 14.5 11t23.5 9.5t40 10t61.5 6.5t89.5 3q97 0 97 -41q0 -8 -2 -14q0 -3 -76 -122t-184.5 -296.5t-217 -367t-184.5 -361t-76 -250.5q-2 -4 -6 -10t-19 -15.5t-32 -9.5q-114 0 -158.5 18t-44.5 54q0 163 412 797q3 5 12.5 19t15 22.5t12.5 20.5 t10 21.5t3 16.5q0 21 -31 21q-50 0 -190 -135.5t-283 -312.5t-207 -294q-27 -49 -100 -49q-50 0 -70 17.5t-20 70.5q0 75 40 223.5t80 286t40 184.5q0 33 -17 33q-25 0 -62 -42t-61 -84l-24 -42q-131 -213 -238 -427t-157 -313.5t-88 -125.5q-38 -27 -95 -27q-79 0 -79 31v6 z" />
<glyph unicode="N" horiz-adv-x="1120" d="M-63 -39q0 27 104.5 195.5t281 463t302.5 549.5q47 94 47 170v33q0 7 3 15t18 20.5t39.5 21.5t72.5 16t113 7q14 0 32.5 -1.5t50.5 -6.5t53 -18t21 -33q0 -24 -42 -207.5t-84 -389.5t-42 -286q0 -51 17 -51q25 0 51.5 26t40.5 52l14 26q104 170 192.5 340t131.5 266 t82 168t69 93q51 30 144 30q73 0 73 -24v-4q0 -10 -43 -76t-119 -179t-163 -248t-192.5 -314t-190.5 -345q-58 -135 -58 -213q0 -18 -5 -28t-26 -21.5t-71.5 -16.5t-132.5 -5q-5 0 -13.5 0.5t-30.5 3.5t-39 9t-30.5 18.5t-13.5 29.5q0 91 66.5 457.5t66.5 386.5q0 55 -22 55 q-21 0 -57.5 -42.5t-62.5 -85.5l-26 -42q-104 -170 -188.5 -334t-122 -252.5t-72.5 -153.5t-65 -85q-38 -27 -93 -27q-81 0 -81 31v6z" />
<glyph unicode="O" horiz-adv-x="1232" d="M162 319q0 80 24 180.5t71 209t111 216t151 204t184 170.5t216 117.5t242 43.5q173 0 271 -94t98 -262q0 -80 -24 -180.5t-71 -209.5t-111.5 -216.5t-151 -204t-184 -171t-216.5 -118t-242 -43.5q-172 0 -270 95t-98 263zM414 311q0 -225 164 -225q102 0 229 106.5 t232 261t177 339t72 329.5q0 226 -164 226q-69 0 -151 -49.5t-159 -130.5t-150.5 -189t-128.5 -221.5t-88 -231.5t-33 -215z" />
<glyph unicode="P" horiz-adv-x="1081" d="M-57 -61q0 22 142.5 267.5t315.5 547.5t226 422q47 105 47 182v20q0 14 34 28t140.5 27t267.5 13q133 0 224.5 -19t142.5 -57t72.5 -87t21.5 -116q0 -35 -6 -76.5t-26 -100.5t-51.5 -113.5t-89 -110t-131.5 -96.5t-186 -66.5t-247 -25.5q-70 0 -121.5 -5t-91 -18 t-66 -26.5t-51.5 -41.5t-41 -51.5t-41 -66.5q-52 -86 -103.5 -199t-64.5 -156q-10 -30 -40 -52t-65.5 -32t-70 -16t-57.5 -7l-23 -1q-61 0 -61 26v7zM643 752q0 -28 28.5 -36.5t116.5 -8.5q95 0 176 20.5t137 53.5t101 76.5t72 87t45 88t24.5 76.5t6.5 54q0 46 -15 78.5 t-35 49t-54.5 26t-59.5 11t-64 1.5q-108 0 -172 -69q-50 -57 -178.5 -270.5t-128.5 -237.5z" />
<glyph unicode="Q" horiz-adv-x="1232" d="M166 319q0 80 24 180.5t71 209t111 216t151 204t184 170.5t216 117.5t242 43.5q173 0 271 -94t98 -262q0 -131 -61 -302.5t-175 -341t-251 -272.5q-82 -63 -82 -100q0 -10 8 -36t8 -52q0 -69 -48 -145t-106 -76l-4 3q-6 8 -10 38q-13 92 -45 126t-66 34l-26 -5 q-55 -14 -141 -14q-172 0 -270.5 95t-98.5 263zM418 311q0 -22 2 -44.5t12 -57t26.5 -60t48.5 -44.5t75 -19q44 0 84.5 10.5t40.5 36.5q0 20 -11.5 38.5t-22.5 45.5t-11 68q0 66 34.5 137.5t74.5 113.5t63 42q7 0 11.5 -5t5.5 -11l1 -5q0 -5 1 -13.5t3.5 -34t6.5 -48 t10.5 -50.5t15 -48t21 -34t26.5 -14q32 0 92 81.5t118.5 199t102 265t43.5 261.5q0 226 -164 226q-102 0 -229 -106.5t-232 -261.5t-177 -339.5t-72 -329.5z" />
<glyph unicode="R" horiz-adv-x="1107" d="M-53 -20q0 22 141 261.5t312.5 534t224.5 414.5q47 105 47 182v21q0 55 311 55q73 0 122.5 -1.5t112 -8t104 -18t84.5 -32.5t68.5 -50.5t41.5 -73.5t16 -101q0 -94 -69.5 -182t-166.5 -139q-61 -32 -139.5 -50.5t-117 -31t-38.5 -39.5q0 -13 19 -31t41.5 -34.5t41.5 -44 t19 -58.5q0 -30 -21 -90t-46.5 -120t-46.5 -139t-21 -143q0 -10 2 -31t2 -30q0 -20 -24 -26.5t-74 -6.5q-172 0 -172 68q0 52 45.5 167t91 226.5t45.5 157.5q0 33 -13.5 56t-35.5 33.5t-42 14.5t-42 4l-33 -2q-24 0 -24 19q0 40 30 79t74 39q122 0 235.5 53t179.5 133 t66 159q0 89 -53.5 123t-152.5 34q-43 0 -82 -17.5t-58 -39.5q-120 -151 -387.5 -633.5t-300.5 -593.5q-20 -51 -96.5 -75.5t-157.5 -24.5q-63 0 -63 28v5z" />
<glyph unicode="S" horiz-adv-x="1081" d="M-27 12q0 30 57.5 146.5t145.5 248.5t156 185q46 33 86 33q39 0 39 -23q0 -3 -27.5 -49t-55.5 -122t-28 -152q0 -17 3.5 -37t16 -47t32 -48t56 -36t83.5 -15q45 0 91 9t95.5 33t87.5 59.5t63 94.5t25 132t-36.5 145.5t-88 132t-103 116.5t-88 121t-36.5 124 q0 72 29 131.5t78 98.5t108 68t124.5 45t120.5 23t103 7q69 0 120 -9t75.5 -17.5t29.5 -8.5q10 0 19 6q61 35 131 35q74 0 74 -35q0 -33 -63 -143.5t-147 -212t-130 -101.5q-56 0 -56 25q0 3 15 29t30 75.5t15 110.5q0 14 -6 31.5t-21.5 39.5t-50.5 36t-84 14 q-22 0 -51.5 -5.5t-66.5 -20.5t-67.5 -37t-51.5 -59.5t-21 -82.5q0 -53 34.5 -110t83.5 -111t98 -113t83.5 -135.5t34.5 -157.5q0 -106 -47 -200t-129.5 -162t-202 -108t-258.5 -40q-156 0 -234 45q-8 4 -18 4q-12 0 -21 -6q-5 -2 -27.5 -9t-30.5 -9.5t-27 -7.5t-30.5 -7 t-27.5 -4t-31 -2q-13 0 -27.5 1.5t-33.5 11t-19 26.5z" />
<glyph unicode="T" horiz-adv-x="784" d="M43 -16q0 15 43.5 87.5t120 193.5t164 261.5t194 325.5t191.5 352q18 36 18 53q0 27 -35 27q-16 0 -40.5 -9t-65.5 -32.5t-103.5 -78.5t-134.5 -134q-1 -2 -3 -4.5t-10 -9.5t-18.5 -12.5t-30 -10t-42.5 -4.5q-19 1 -19 19q0 4 7 22q3 5 8 14.5t21 39t32 57.5t39 66.5 t44 71.5t44 66.5t42.5 57t37 38.5t28.5 15q12 0 31 -1t62 -11.5t67 -28.5q143 4 293 4q93 0 211 -4q103 45 205 45q15 0 22 -12.5t7 -26.5q0 -40 -80 -185t-133 -220q-33 -49 -80 -49q-41 0 -41 28l2 19q26 101 26 170q0 106 -57 106q-25 0 -49.5 -18t-36.5 -36l-12 -17 q-47 -76 -346 -586q-71 -122 -147.5 -279.5t-124 -246.5t-87.5 -121q-53 -43 -139 -43q-125 0 -125 34v7z" />
<glyph unicode="U" horiz-adv-x="1030" d="M102 215q0 64 55.5 187t126.5 242.5t168.5 286.5t151.5 273q62 123 62 197q0 21 12 33t59 20t137 8q111 0 111 -43q0 -8 -3.5 -16.5t-7.5 -13.5l-3 -5q-55 -77 -184.5 -286.5t-262.5 -460t-133 -328.5q0 -162 148 -162q53 0 99 14t74.5 31t56.5 47.5t39.5 47t29.5 45.5 q82 125 213.5 392t234.5 475t139 237q22 18 54.5 27t53.5 10.5t58 1.5q92 0 92 -25q0 -16 -30 -51q-40 -50 -110 -155.5t-162 -256.5t-157.5 -259t-160.5 -268.5t-107 -180.5q-196 -330 -512 -330q-148 0 -245 69.5t-97 196.5z" />
<glyph unicode="V" horiz-adv-x="860" d="M80 14l6 23q66 192 182.5 585.5t159.5 581.5q21 129 21 160q0 13 -2.5 26.5t-2.5 16.5q0 16 12.5 26.5t57.5 18.5t123 8q66 0 91.5 -18.5t25.5 -42.5q0 -39 -151.5 -494t-151.5 -493q0 -54 41 -54q8 0 14.5 0.5t14 4.5t11.5 6t13 10.5t13 12.5t17.5 18t20.5 22 q81 81 346 437t354 530q9 18 12.5 24t13.5 16.5t26 18.5q27 13 82.5 20t97.5 8l41 1q106 0 106 -35q0 -15 -18 -33q-118 -114 -361.5 -380t-479 -544t-294.5 -380q-23 -39 -41.5 -60.5t-56 -45.5t-97.5 -34t-149 -10q-98 0 -98 49z" />
<glyph unicode="W" horiz-adv-x="1529" d="M70 14l6 23q72 210 191.5 598t162.5 569q19 111 19 156q0 14 -1.5 28t-1.5 17q0 16 11 26.5t55.5 19.5t124.5 9q67 0 93 -18t26 -41q0 -11 -4 -15q-15 -79 -162.5 -508.5t-147.5 -465.5q0 -54 41 -54q7 0 13 1t11 2.5t11 5.5t10 6.5t12 10t12.5 12.5t16 16.5l19.5 19.5 q57 57 249.5 324.5t309.5 462.5q1 3 3.5 8.5t19 18.5t41.5 23t76 18.5t118 8.5q55 0 55 -34q0 -8 -3.5 -18t-6.5 -16l-4 -5q-61 -124 -165.5 -440t-104.5 -371q0 -54 41 -54q8 0 14 1t13 4t11.5 5.5t13 10.5t13.5 13t17.5 18t21.5 22q75 75 332.5 433t347.5 534l4 8t3.5 8 t3.5 7t4.5 7l4.5 6t6 6.5t6.5 5.5t8.5 5.5t10 5.5q27 13 82.5 20t97.5 8l41 1q107 0 107 -35q0 -14 -19 -33q-201 -191 -589.5 -646t-526.5 -658q-23 -34 -34.5 -49t-39.5 -39t-59 -34.5t-84.5 -19t-124.5 -8.5q-100 0 -100 49l6 23q13 37 46 130.5t55 156.5t47.5 139 t39 124t13.5 64q0 35 -31 35q-16 0 -34.5 -12t-28.5 -24l-11 -13q-74 -88 -150.5 -188.5t-119.5 -160t-123 -173.5q-24 -35 -34.5 -48.5t-39.5 -38.5t-59.5 -35t-84 -19t-124.5 -9q-100 0 -100 49z" />
<glyph unicode="X" horiz-adv-x="1099" d="M-104 -27q0 27 248.5 250t555.5 482q8 6 20 18t33 51t23 80q8 152 8 225q0 211 -34 312q-1 2 -6 13t-5 17q0 11 11 18t45.5 12t95.5 5q74 0 104.5 -23.5t30.5 -91.5q0 -59 -14 -264v-6t2.5 -13.5t6 -16.5t11.5 -13t19 -6q22 0 47 22q270 238 332 318q1 2 5.5 8l6 8t5 7 t6 7t6.5 6t7.5 6.5t8.5 5.5t10.5 5.5t11.5 5.5q30 13 81.5 20t87.5 8l36 1q100 0 100 -33q0 -18 -28 -35q-259 -146 -687 -495q-4 -2 -10 -6t-22 -19t-28.5 -32t-24 -46.5t-13.5 -62.5q-14 -257 -14 -412q0 -183 18 -241q1 -6 10 -23.5t9 -26.5q0 -22 -39.5 -36t-76 -17.5 t-65.5 -3.5q-60 0 -76 24t-16 115q0 45 17 357q0 5 1 20t1 25q0 20 -10 30.5t-23 10.5q-14 0 -31 -8.5t-27 -16.5l-10 -8q-117 -101 -245 -237.5t-209 -243.5q-2 -3 -6 -8.5t-22.5 -19.5t-42 -24.5t-67 -19t-96.5 -8.5q-73 0 -73 24z" />
<glyph unicode="Y" horiz-adv-x="727" d="M35 -18q0 15 68 127.5t147 249.5t98 200q45 147 45 494q0 59 -1 127.5t-1 89.5q0 84 -12 114q-12 20 -12 37q0 41 174 41q39 0 68.5 -6.5t44 -15t23 -20.5t10 -19t1.5 -15q0 -51 -33.5 -246t-38.5 -276v-7t2.5 -15.5t6.5 -20t12.5 -15.5t19.5 -7q27 0 56 26 q126 111 281.5 280.5t215.5 248.5q3 4 10.5 13.5t10.5 13t9.5 10.5t12.5 11t15 9.5t20 9.5q36 15 88 23t86 9l35 1q117 0 117 -37q0 -21 -35 -41q-132 -75 -452 -343.5t-468 -426.5q-41 -44 -100 -143.5t-107 -193.5t-100.5 -179t-85.5 -108q-46 -41 -116 -41 q-115 0 -115 34v7z" />
<glyph unicode="Z" horiz-adv-x="1185" d="M-33 59q0 61 92.5 169t231 225t300.5 246t301 234.5t232.5 187.5t94.5 108v2q0 55 -103 55q-121 0 -233.5 -59t-241.5 -164q-22 -18 -37.5 -26t-22.5 -9.5t-18 -1.5q-28 0 -28 23q2 22 100.5 173t161.5 205q28 25 65 25q87 0 142 -45q135 12 305 12q319 0 319 -80 q0 -41 -67 -115.5t-174.5 -162.5t-237.5 -188.5t-260 -202t-237.5 -193.5t-174.5 -172.5t-67 -130.5q0 -26 31.5 -41.5t56.5 -18.5t41 -3q84 0 178.5 38.5t170.5 94t139.5 111t98.5 93.5l35 39q43 35 74 35h4q33 0 33 -20q-2 -28 -79 -162t-170 -262.5t-130 -132.5h-23 q-48 0 -100.5 11.5t-83.5 35.5q-197 -19 -252 -19q-273 0 -370 16.5t-97 69.5z" />
<glyph unicode="[" horiz-adv-x="548" d="M100 84q0 17 5 37.5t17 47t22.5 47.5t31 54.5t31 51.5t35 55.5t32.5 50.5q82 128 166.5 276.5t180.5 326.5t153 278q5 9 14 25t44.5 56t77.5 71t114.5 56t153.5 25q20 -6 20 -18q0 -15 -33 -31l-12 -6q-28 -15 -44.5 -25.5t-49 -40t-71.5 -83.5t-85 -134l-532 -928 q-50 -86 -75.5 -132.5t-52 -110t-26.5 -99.5v-18q0 -44 -2.5 -58t-13.5 -14q-32 0 -66.5 79.5t-34.5 160.5z" />
<glyph unicode="\" horiz-adv-x="731" d="M268 1450q0 43 64 43h22q99 0 101 -53q4 -70 101 -714.5t132 -786.5q2 -5 2 -11q0 -9 -4 -17.5t-19.5 -17t-41.5 -8.5h-21q-95 0 -102 54q-8 74 -66 449t-112 714l-54 338q-2 4 -2 10z" />
<glyph unicode="]" horiz-adv-x="632" d="M-127 -137q0 15 33 31l12 6q23 12 34.5 18.5t38 27.5t49 47.5t56.5 75t72 113.5l532 928q50 86 75.5 132.5t52 110t26.5 99.5v18q0 44 2.5 58t13.5 14q32 0 66.5 -79t34.5 -160q0 -17 -5 -37.5t-17.5 -47.5t-22 -47t-30.5 -55t-31 -51.5t-35.5 -56.5t-32.5 -50 q-82 -128 -166 -276t-180.5 -326.5t-153.5 -277.5q-5 -10 -14 -25.5t-44 -56t-77 -71t-114.5 -56t-153.5 -25.5q-21 7 -21 19z" />
<glyph unicode="^" horiz-adv-x="571" d="M133 297q0 6 21 28t56.5 58.5t59.5 67.5q4 4 14.5 18t20.5 21.5t23 7.5q38 0 67 -29q11 -8 23 -8q9 0 18 6q56 33 99 33q20 -3 20 -23q0 -8 -6 -26q-6 -20 -41 -158q0 -27 -19 -27t-41.5 24.5t-41.5 59.5q-6 12 -19 12q-8 0 -20 -8q-42 -28 -96.5 -50.5t-82.5 -22.5 q-55 0 -55 16z" />
<glyph unicode="_" horiz-adv-x="1101" d="M8 -96q0 14 8.5 33.5t37.5 40t73 20.5q64 0 278 -2t324 -2q63 0 152 2t110 2q29 0 29 -18q0 -11 -5.5 -25.5t-17.5 -31t-37 -27.5t-59 -11q-173 9 -416 9q-107 0 -265.5 -5.5t-184.5 -5.5q-27 0 -27 21z" />
<glyph unicode="`" d="M614 1053q0 33 43.5 57.5t69.5 24.5q9 0 15.5 -5t10 -10.5t10.5 -20t11 -22.5q20 -36 51 -80.5t50 -70.5t18 -31q0 -12 -21 -12h-14q-48 8 -146 72.5t-98 97.5z" />
<glyph unicode="a" d="M33 41q0 56 24.5 131.5t69 159.5t115 165t154.5 146t196.5 105t232.5 40q13 0 36.5 -4.5t60 -16.5t61.5 -42t25 -72q0 -61 -35 -61q-14 0 -30 9.5t-33 21t-61 21t-106 9.5q-106 0 -212.5 -70.5t-172 -172.5t-65.5 -193q0 -18 11 -34.5t32 -16.5q61 0 157 85t189 245 q1 2 3 5.5t11.5 12.5t23 15.5t40 12t59.5 5.5q3 0 8 -0.5t18.5 -3t23.5 -6t18 -9.5t8 -14q0 -2 -4 -10q-9 -14 -25 -38t-57 -92.5t-74 -130.5t-63.5 -136.5t-38.5 -126.5q-1 -11 -7.5 -18t-13.5 -7q-40 0 -64 22t-30 45.5t-6 49.5q0 6 2 21.5t2 21.5q0 16 -12 16 q-14 0 -41 -22t-62 -53.5t-77 -63.5t-97 -54t-110 -22q-84 0 -84 125z" />
<glyph unicode="b" horiz-adv-x="886" d="M-72 -92l2 8q996 1720 1014 1759q49 90 230 90q61 0 61 -32q0 -14 -38.5 -70.5t-107.5 -151t-149 -209t-177.5 -273.5t-178.5 -314q-4 -8 -4 -21q0 -18 16 -18q14 0 41.5 17t57.5 38t80 38t104 17q120 0 120 -149q0 -52 -22 -122t-61.5 -146.5t-98.5 -150.5t-126.5 -133 t-153 -95.5t-172.5 -36.5q-54 0 -104 17.5t-58 17.5q-13 0 -24 -10t-29 -37q-43 -66 -154 -66q-26 0 -42.5 6t-21 13t-4.5 14zM305 184q1 -5 3 -12.5t11 -27t22.5 -34.5t39 -27.5t57.5 -12.5q76 0 160.5 91.5t137 207.5t52.5 194q0 55 -45 55q-52 0 -130 -57t-144.5 -131.5 t-115 -146t-48.5 -99.5z" />
<glyph unicode="c" horiz-adv-x="696" d="M61 133q0 58 27 136.5t80 162t122 154.5t163.5 116.5t193.5 45.5q5 0 17 -1.5t18 -1.5q36 0 55 35l2.5 5t10.5 10.5t22 13.5t38.5 11t57.5 5q4 0 10.5 -0.5t22.5 -3t28.5 -7t23 -13.5t10.5 -21q0 -4 -19 -24.5t-50.5 -53.5t-66 -74t-71 -97.5t-60.5 -112.5 q-5 -12 -24 -12q-34 0 -51 25.5t-17 60.5q0 24 7 46.5t7 32.5q0 15 -11 27t-32 12q-61 0 -119.5 -42t-97.5 -102.5t-62.5 -126t-23.5 -114.5q0 -149 146 -149q44 0 82.5 10t54.5 20l16 11q14 12 29 12q12 0 17.5 -8.5t5.5 -14.5q0 -21 -23 -52.5t-63.5 -64t-107 -55 t-142.5 -22.5q-66 0 -113 21t-70 56t-33 70t-10 74z" />
<glyph unicode="d" horiz-adv-x="831" d="M41 76q0 72 34.5 164.5t93.5 183.5t147 171.5t184 121.5q89 39 213 39q46 0 83 -13.5t42 -13.5q15 0 20 8q43 56 176.5 283.5t243 421.5t119.5 213q15 29 40.5 48.5t59 27.5t62 11t65.5 3q55 0 55 -33q0 -9 -34 -56.5t-98 -134t-139.5 -194t-174 -262.5t-186.5 -313 q-40 -63 -100.5 -163t-176 -311t-145.5 -307q-4 -12 -10.5 -18t-11.5 -6h-5q-98 0 -98 110l4 41q0 9 -4 14t-8 6l-3 1q-8 0 -15.5 -3.5t-11.5 -7.5l-3 -4q-61 -59 -113.5 -97t-92 -52t-59.5 -17.5t-44 -3.5q-42 0 -75.5 32.5t-33.5 109.5zM276 209q0 -62 43 -62q58 0 166 97 t190.5 204t82.5 142q0 20 -24.5 38.5t-76.5 18.5q-60 0 -130 -48.5t-124 -117t-90.5 -144t-36.5 -128.5z" />
<glyph unicode="e" horiz-adv-x="708" d="M61 139q0 59 20 131t56.5 148t94.5 147.5t127.5 127.5t161.5 90t192 34q14 0 29.5 -2.5t35.5 -11.5t35 -23.5t26 -41t11 -62.5q0 -90 -49 -172.5t-121.5 -137t-149.5 -89t-139 -39.5q-72 -6 -98.5 -29t-26.5 -90q0 -43 12.5 -73.5t31 -44.5t36.5 -22.5t30.5 -16 t12.5 -17.5q0 -29 -30.5 -45.5t-67.5 -16.5q-119 0 -174.5 71t-55.5 185zM313 367q0 -3 1 -6.5t9.5 -10t24.5 -6.5q50 0 119.5 36t126.5 104t57 141q0 63 -57 63q-53 0 -120 -54.5t-114 -131t-47 -135.5z" />
<glyph unicode="f" horiz-adv-x="790" d="M-416 -1016q0 123 213 562.5t547 996.5q4 8 4 16q0 19 -23 34t-81 15q-8 0 -13.5 6t-5.5 15q0 34 74 82q21 14 70 14h32q47 0 56 16q109 195 222.5 370.5t225.5 319.5t212 229t167 85q39 0 61.5 -22t22.5 -83q0 -101 -60 -231t-144.5 -237.5t-179.5 -182t-161 -74.5 q-22 0 -22 13q0 9 9.5 20.5t16.5 16.5q77 52 154.5 152.5t122.5 191.5t45 133q0 22 -16 22q-52 0 -169 -149t-211 -315t-94 -216q0 -27 15.5 -37t50.5 -10q17 0 95 6.5t141 6.5q22 -3 22 -23v-2q0 -5 -2 -12t-8.5 -18t-23 -21.5t-40.5 -16.5q-5 -1 -14.5 -3t-37 -8 t-52 -12.5t-55 -17t-52 -21t-36.5 -24.5t-15 -28q0 -18 18 -33.5t39.5 -29t39.5 -51t18 -93.5q0 -87 -58 -231t-150 -303t-212.5 -323t-240.5 -294t-238 -212.5t-201 -82.5q-26 0 -43 8t-24 23.5t-9 29t-2 33.5zM-78 -692v-2q0 -41 31 -41q24 0 78 48.5t121 127.5t139 186 t131 217t97 227.5t38 211.5q0 72 -21 123t-69 51q-22 0 -45 -35q-200 -345 -350 -675t-150 -439z" />
<glyph unicode="g" horiz-adv-x="872" d="M-502 -1145q0 89 39 200.5t102 218t145 210t165.5 180.5t165.5 124.5t143 47.5h6q25 0 25 -14t-25 -27q-57 -29 -144 -118.5t-169 -201t-140.5 -238t-58.5 -216.5v-2q0 -8 1.5 -17t10.5 -20.5t25 -11.5q68 0 201 175t254.5 390t214 396t92.5 200q0 31 -16 31 q-13 0 -40 -21t-62 -51t-77 -60.5t-98 -51.5t-111 -21q-84 0 -84 125q0 79 33.5 176.5t102 198t160.5 183.5t222.5 136t274.5 53q19 0 45.5 -4.5t66.5 -16.5t66.5 -41.5t26.5 -72.5q0 -17 -8 -39t-27 -22q-9 0 -26.5 10t-39 21.5t-70.5 21.5t-114 10q-83 0 -168 -44.5 t-146.5 -111.5t-100.5 -146.5t-39 -147.5q0 -51 43 -51q65 0 180 93t231 275q1 3 5 8t30 13t70 8q25 0 51 -8t26 -23q0 -6 -2 -10q-11 -24 -31 -65t-83.5 -167t-129 -248.5t-161 -289t-186.5 -309.5t-199 -289t-204.5 -249t-196 -167.5t-181.5 -64.5q-39 0 -62.5 38.5 t-23.5 114.5z" />
<glyph unicode="h" horiz-adv-x="958" d="M-70 -137q0 5 7 16q32 51 129 234.5t203.5 386t250 441.5t275 425.5t271 312t245.5 125.5q55 0 75.5 -29.5t20.5 -82.5q0 -91 -40.5 -195.5t-104 -196.5t-139 -174.5t-147.5 -139.5t-128 -83q-36 -16 -80 -16q-37 0 -37 18q0 4 3 9.5t6 8.5l3 3q107 75 196 169.5 t138.5 175t76 142t26.5 90.5q0 24 -6.5 33.5t-28.5 9.5q-56 0 -172 -148t-225.5 -334t-193 -353.5t-83.5 -206.5q0 -23 16 -23q14 0 41 21q11 10 30 27.5t73.5 61.5t104.5 78t111.5 61.5t106.5 27.5q43 0 65.5 -25t22.5 -71q0 -84 -40.5 -192.5t-99 -203.5t-101 -156 t-68.5 -92q-31 -37 -76 -56t-84 -19q-30 0 -30 16q0 4 2 10t4 9l2 4q97 141 171.5 291.5t74.5 218.5q0 13 -7.5 20.5t-15.5 8.5l-8 1q-52 0 -128.5 -54.5t-151 -134t-145.5 -168t-119 -158t-66 -103.5q-24 -44 -55.5 -55t-98.5 -11q-72 0 -72 25z" />
<glyph unicode="i" horiz-adv-x="421" d="M49 18q0 30 66.5 157t135 271.5t71.5 215.5q1 15 10 28t18 19l8 6q7 4 21.5 10.5t65.5 17.5t108 11q25 0 52.5 -9t27.5 -26q0 -8 -6 -14q-79 -99 -228 -355t-225 -416q-11 -38 -27 -38q-30 0 -64 35t-34 87zM502 940v2q0 61 60.5 100t119.5 39q41 0 67 -19t27 -52 q0 -62 -59.5 -102t-120.5 -40q-40 0 -66.5 19.5t-27.5 52.5z" />
<glyph unicode="j" horiz-adv-x="477" d="M-973 -1153q1 102 42 219.5t106 224t148.5 206t168.5 172t168 116t145 43.5q25 0 25 -14q0 -6 -7 -13t-13 -11l-7 -3q-45 -23 -112 -84.5t-137 -148t-131.5 -180.5t-100.5 -191t-39 -170q0 -51 35 -51q200 0 776 1161q23 42 57 109t93 212t63 218q1 15 10 28t18 19l9 6 q7 4 22 10.5t66 17.5t109 11q24 0 52 -10t28 -27q0 -2 -5 -12q-48 -69 -124.5 -203.5t-156.5 -284.5t-181 -328.5t-199.5 -344t-211 -322.5t-216.5 -273t-213.5 -186t-204.5 -70q-82 0 -82 154zM492 942q0 62 61 100.5t121 38.5q41 0 66.5 -19t25.5 -52q0 -62 -59.5 -102 t-122.5 -40q-42 0 -67 19.5t-25 54.5z" />
<glyph unicode="k" horiz-adv-x="921" d="M41 106q0 34 14 66q59 121 125 247t159 292t184.5 312.5t197.5 293.5t202 252.5t194.5 171t178.5 65.5q97 0 97 -114q0 -94 -42.5 -201t-109 -200t-144.5 -175.5t-151 -138.5t-127 -78q-28 -12 -63 -12q-39 0 -39 20q0 4 3 8.5t6 7.5l3 3q107 75 195.5 169t138 175 t76 142.5t26.5 90.5q0 23 -7 33t-28 10q-46 0 -129 -89t-169.5 -220.5t-166.5 -268.5t-131 -246t-51 -140q0 -10 7 -18.5t18 -8.5q18 0 41 20q10 9 28.5 23.5t73.5 51.5t108.5 65.5t126 52t134.5 23.5q46 0 73 -24.5t27 -70.5q0 -64 -39 -122.5t-95.5 -100.5t-112.5 -78 t-97 -67.5t-43 -55.5q-4 -58 -4 -90q0 -61 6.5 -127.5t15.5 -118t18 -94t15.5 -67t6.5 -25.5q0 -6 -5.5 -10t-10.5 -5l-5 -1q-49 0 -96 62t-77.5 150t-49.5 179t-19 154q0 5 6.5 15t16.5 13q29 9 75 33t100.5 60.5t93 86t38.5 97.5q0 10 -7.5 19t-21.5 9q-65 0 -166.5 -67.5 t-198.5 -165t-181.5 -203t-126.5 -184.5q-10 -19 -27 -19q-30 0 -59 41t-29 92z" />
<glyph unicode="l" horiz-adv-x="391" d="M51 -92q0 70 35 180t84.5 222t135 269t152 272.5t172 285t159.5 254t147 229.5q35 56 108.5 90.5t139.5 34.5q53 0 55 -33q0 -10 -12 -22q-43 -40 -134 -159t-208.5 -289t-240 -378t-225 -412t-168 -405t-65.5 -344q0 -31 -18 -31q-34 0 -59 25.5t-36.5 65t-16.5 75.5 t-5 70z" />
<glyph unicode="m" horiz-adv-x="1437" d="M-10 -37q0 31 100.5 228t221 391.5t163.5 210.5q35 20 94 20q62 0 62 -20q0 -19 -71 -125t-71 -140q7 -14 23 -14q12 0 23 8q8 8 22 20.5t57 45t85.5 57.5t101 45.5t110.5 20.5q80 0 80 -70q0 -50 -35 -119q-6 -12 -6 -20q0 -7 5.5 -12t11.5 -5q16 0 32 19q11 11 30.5 29 t76 64.5t108.5 82.5t116 65t110 29q14 0 23 -0.5t25 -5t26 -13t18 -26.5t8 -43q0 -30 -13.5 -72.5t-31 -81.5t-50 -97t-54 -94t-61 -100t-54.5 -89q-35 -58 -70.5 -126.5t-52 -98t-25.5 -29.5q-34 0 -52.5 42t-18.5 70q0 57 34.5 137t76 144.5t76 126.5t34.5 88q0 31 -29 31 q-48 0 -116 -47.5t-131.5 -115.5t-120 -136.5t-91.5 -115.5l-34 -48q-35 -49 -103 -49q-78 0 -78 26q0 36 49.5 119.5t99.5 170.5t50 132q0 17 -9.5 26t-19.5 9q-65 0 -145 -52.5t-148.5 -127.5t-127.5 -150t-93 -128l-34 -52q-44 -61 -156 -61q-51 0 -51 26z" />
<glyph unicode="n" horiz-adv-x="980" d="M-4 33q0 31 96.5 201.5t212 338t158.5 183.5q35 20 94 20q49 0 49 -20q0 -22 -49 -94t-49 -93q4 -16 20 -16q10 0 21 8q133 104 253.5 170t229.5 66q76 0 76 -88q0 -40 -53.5 -167.5t-129.5 -268.5t-172 -251t-169 -110q-58 0 -58 27l4 12q39 58 98 153.5t130 233.5 t71 190q0 16 -8 25.5t-16 10.5l-8 1q-62 0 -155 -59t-182 -143.5t-160.5 -163t-109.5 -131.5q-45 -62 -141 -62q-53 0 -53 27z" />
<glyph unicode="o" horiz-adv-x="872" d="M70 195q0 97 52 206t137 201.5t208.5 153.5t253.5 61q18 0 45 -6t60.5 -19.5t57 -43t23.5 -68.5q0 -32 -12 -57t-12 -33q0 -25 51 -25q26 0 47 10.5t25 10.5q16 0 16 -35q0 -49 -40.5 -105.5t-100.5 -83.5q-4 -9 -11.5 -24t-34.5 -59.5t-58 -84.5t-81.5 -89t-105 -84.5 t-128.5 -59.5t-153 -24q-19 0 -41 3t-60 18t-66.5 40.5t-50 76.5t-21.5 120zM274 190q0 -9 3.5 -24t13.5 -38.5t35.5 -39.5t62.5 -16q45 0 85.5 18.5t68.5 47.5t49 64t31 67t10 57q0 16 -25 16q-14 0 -33 -4.5t-31 -9.5l-12 -4q-14 -7 -16 -7q-12 0 -12 19q0 33 16.5 73 t40.5 64q19 21 50 36.5t52.5 23.5t37.5 34t16 70q0 23 -9.5 38.5t-23.5 21.5t-23.5 8t-17.5 2q-67 0 -136.5 -56.5t-119 -137t-81.5 -169.5t-32 -154z" />
<glyph unicode="p" horiz-adv-x="835" d="M-618 -1073q0 56 133.5 305t301.5 531.5t360 610.5t272 480q1 3 3.5 9t15 21t30 26t50 20.5t73.5 9.5q43 0 43 -27q0 -13 -56.5 -98t-56.5 -110q0 -17 16 -17q11 0 38 15.5t57.5 34.5t80 34.5t99.5 15.5q41 0 73.5 -32.5t32.5 -108.5q0 -124 -59.5 -253t-157.5 -233 t-238 -170.5t-288 -66.5q-93 0 -107 -18q-70 -90 -287.5 -507.5t-277.5 -588.5q-9 -24 -33 -24q-36 0 -77 45t-41 96zM223 129q0 -29 30.5 -49.5t70.5 -20.5q64 0 139 52.5t133.5 127.5t97.5 158.5t39 143.5q0 28 -12.5 45.5t-30.5 17.5q-50 0 -108 -33t-108 -84t-97 -110.5 t-80.5 -112.5t-53.5 -90.5t-20 -44.5z" />
<glyph unicode="q" horiz-adv-x="866" d="M-215 -1174q0 44 60 154.5t132.5 220t132.5 208.5t60 122q0 26 -15 49.5t-29 33.5l-15 11q-9 6 -9 15q0 32 77 98t169 119q25 14 68.5 82.5t74.5 130.5l31 61q2 4 2 12q0 17 -16 17q-14 0 -40 -18t-58.5 -43.5t-71 -51t-88.5 -43.5t-100 -18q-45 0 -64.5 36.5t-19.5 88.5 q0 56 16 121t49 134t79 135.5t111 126t140 104.5t170 71t198 26q30 0 66.5 -7t75 -22t64.5 -44t26 -66q0 -9 -2 -20.5t-10 -24t-21 -12.5q-9 0 -22.5 10t-32 21.5t-76 21.5t-145.5 10q-83 0 -165.5 -42t-142 -106t-96.5 -141t-37 -145q0 -51 43 -51q29 0 70.5 18t94 56.5 t116 110.5t123.5 167q2 3 7 8t29.5 13t59.5 8q33 0 66.5 -8t33.5 -27q0 -11 -60 -96.5t-152 -228.5t-150 -267q-8 -14 -8 -26q0 -23 28 -23q8 0 27.5 2t34.5 2q102 0 102 -57q0 -15 -26 -28.5t-71.5 -32.5t-96.5 -46t-111 -81t-106 -126q-59 -93 -214 -388.5t-208 -448.5 q-8 -25 -35 -25q-38 0 -80.5 44t-42.5 95z" />
<glyph unicode="r" horiz-adv-x="821" d="M-20 -41q0 32 96.5 220t213 373.5t159.5 201.5q45 22 104 22q22 0 37.5 -6.5t15.5 -17.5q0 -22 -47 -91t-47 -90q0 -14 14 -14q8 0 16 4t17.5 12t11.5 9q88 67 222 139q2 1 14 15.5t26.5 29.5t44.5 28t66 13q103 0 103 -37q-5 -10 -21 -33q-18 -25 -48 -68.5t-102.5 -165 t-121.5 -229.5q-7 -14 -19 -14q-38 0 -59 40t-21 81q0 18 6.5 39t12.5 33l6 12q0 27 -21 27q-60 0 -133 -53t-140 -136.5t-117.5 -159t-90.5 -147.5q-36 -62 -143 -62q-55 0 -55 25z" />
<glyph unicode="s" horiz-adv-x="708" d="M-102 -96q0 8 5.5 13t10.5 6l6 1q90 0 199.5 41t189.5 109t80 135q0 29 -14.5 56t-36.5 46t-47 41t-47 41t-36.5 46t-14.5 57q0 75 67.5 139.5t175.5 101.5t226 37q33 0 49 -2q3 0 12 13.5t22 29.5t45.5 29.5t77.5 13.5q105 0 105 -31q0 -6 -2 -10q-34 -29 -117 -141 t-123 -211q-8 -19 -24 -19q-38 0 -65.5 31.5t-27.5 73.5q0 19 10.5 52.5t10.5 39.5q0 27 -33 27q-37 0 -80.5 -14t-82 -49.5t-38.5 -84.5q0 -32 21 -62t51.5 -55.5t60.5 -52t51 -62.5t21 -77q0 -91 -84.5 -176.5t-219 -138t-273.5 -52.5q-37 0 -64.5 6t-39.5 14.5t-19 17 t-8 14.5v6z" />
<glyph unicode="t" horiz-adv-x="430" d="M-27 -35q0 46 104.5 228t230.5 376.5t230.5 366.5t104.5 199q0 26 -24 33.5t-87 7.5h-67q-27 0 -27 24q0 25 27 55q19 21 52 36.5t73.5 32.5t89.5 45.5t114 92t132 156.5q23 31 58.5 48t59.5 19.5t58 2.5q43 0 43 -27q0 -17 -92 -150.5t-92 -167.5q0 -32 61 -32 q24 -2 94 -2q27 0 61.5 2t39.5 2q20 0 20 -10q0 -6 -4 -18t-17 -30.5t-33 -34t-57 -27t-84 -11.5q-45 0 -77 -5t-51 -10.5t-36 -20.5t-24 -25t-22 -35t-25 -39q-30 -42 -113 -174.5t-196 -323.5t-212.5 -395t-131.5 -328q-6 -21 -29 -21q-41 0 -96.5 54t-55.5 106z" />
<glyph unicode="u" horiz-adv-x="909" d="M61 68q0 79 72.5 256t179 337.5t185.5 180.5q27 8 69 8q47 0 47 -25q0 -8 -45.5 -76.5t-100.5 -151t-100.5 -180.5t-45.5 -159q0 -57 47 -57q88 0 202.5 114t300.5 363q52 74 164 74q62 0 62 -25q0 -7 -6 -16q-36 -56 -91 -144t-161 -279.5t-135 -287.5q-4 -12 -10.5 -18 t-11.5 -6l-5 -1q-42 0 -62 37.5t-20 93.5q0 18 4 47t4 31q0 6 -3.5 10t-6.5 4l-4 1q-8 0 -16 -3.5t-12 -7.5l-3 -4q-134 -129 -217 -177t-174 -48q-40 0 -73.5 25t-33.5 84z" />
<glyph unicode="v" horiz-adv-x="802" d="M86 2q0 79 22 178t53 184.5t62.5 159.5t53.5 117l22 43l5 11q32 48 118 53h16q35 0 35 -17q0 -4 -4 -12q-33 -60 -87 -230.5t-54 -263.5q0 -75 41 -75q61 0 145.5 86.5t143.5 195t59 172.5q-6 2 -15 7t-23.5 24t-14.5 43q0 48 39 99.5t63 51.5q1 0 31.5 -9t79.5 -9 q55 0 96.5 11.5t63 23.5t26.5 12q16 0 16 -20q-1 -6 -3.5 -16.5t-13.5 -39.5t-26.5 -53.5t-44.5 -51t-65 -40.5q-17 -9 -17 -19q0 -53 -30 -106q-58 -113 -192.5 -254.5t-285 -244.5t-239.5 -103q-41 0 -58.5 30t-17.5 62z" />
<glyph unicode="w" horiz-adv-x="1253" d="M94 -6q0 88 24.5 199.5t60 208t71 180t60.5 132.5l24 48l12 16q48 47 137 47q35 0 35 -16q0 -4 -4 -12q-34 -60 -93 -242t-59 -272q0 -60 31 -60t76 37.5t87 90.5t79.5 106.5t60.5 90.5l23 38l14 16q51 47 141 47q35 0 35 -16q0 -4 -4 -12q-29 -53 -68.5 -179.5 t-39.5 -205.5q0 -80 47 -80q44 0 99.5 50.5t100.5 119.5t76 142t31 116q-6 2 -15 7t-23.5 23.5t-14.5 42.5q0 48 39.5 100t62.5 52q1 0 31.5 -9t79.5 -9q54 0 95.5 11.5t62.5 23.5t26 12q18 0 18 -21q0 -6 -1.5 -15.5t-11 -37t-24 -52t-45 -52t-71.5 -44.5q-17 -8 -17 -18 q0 -53 -30 -106q-39 -75 -117.5 -169.5t-167.5 -176.5t-183 -138.5t-157 -56.5q-58 0 -79 36.5t-21 96.5q0 18 2 49t2 43q0 35 -14 35q-18 0 -52.5 -32t-76 -77.5t-87.5 -90.5t-97.5 -77t-94.5 -32q-41 0 -58.5 30t-17.5 62z" />
<glyph unicode="x" horiz-adv-x="831" d="M-135 -51q0 31 183 193t298 251q60 46 60 103q0 75 -9 126t-19 68.5t-19 30t-9 20.5q0 30 64.5 55t105.5 25q27 0 38.5 -1.5t21.5 -9t14 -24.5q3 -15 4 -67t8 -85.5t27 -33.5q70 0 235 180q0 2 5 8t20.5 16t38.5 19.5t64.5 16t93.5 6.5q81 0 81 -29q0 -13 -58 -49.5 t-141 -85t-166.5 -103.5t-141.5 -119.5t-58 -119.5q0 -110 12 -204.5t24 -133.5l13 -39q0 -14 -10.5 -21.5t-21.5 -7.5q-60 0 -100 7t-57.5 19.5t-23.5 24t-6 25.5v27q0 246 -39 246q-42 0 -116 -77.5t-127 -155.5l-54 -77q-18 -23 -56.5 -36t-60 -15t-38.5 -2q-37 0 -57 7 t-22 15z" />
<glyph unicode="y" horiz-adv-x="878" d="M-510 -1130q0 89 39 200.5t102 218t145 209.5t165.5 180t165.5 124.5t143 47.5q31 0 31 -16q0 -12 -25 -24q-57 -29 -144 -119t-169 -201.5t-140.5 -238t-58.5 -216.5q0 -51 37 -51q44 0 117.5 77t151 191.5t162.5 259.5t150 266t117 226q74 147 74 174q0 31 -16 31 q-10 0 -20.5 -5.5t-15.5 -10.5l-5 -5q-227 -196 -357 -196q-92 0 -92 102q0 96 109.5 304t222.5 321q25 25 67.5 40t73.5 15q62 0 62 -20q0 -9 -66 -95.5t-132.5 -197t-66.5 -178.5q0 -28 10 -39t33 -11q76 0 234.5 148t277.5 346q7 14 19.5 27.5t51.5 30t93 16.5 q62 0 62 -25q0 -7 -6 -16q-199 -329 -430 -756q-97 -180 -195.5 -345.5t-221 -342.5t-233.5 -305.5t-227 -211.5t-209 -83q-39 0 -62.5 39t-23.5 115z" />
<glyph unicode="z" horiz-adv-x="745" d="M-532 -1130q0 106 54.5 242.5t141.5 263t187 235t201.5 174t174.5 65.5q31 0 31 -16q0 -12 -25 -24q-57 -29 -144 -119t-169 -201.5t-140.5 -238t-58.5 -216.5q0 -51 37 -51q57 0 160.5 97.5t202 232.5t171.5 290.5t73 258.5q0 94 -48.5 148.5t-140.5 54.5 q-44 0 -80.5 -6t-57.5 -11.5t-26 -5.5q-7 0 -9.5 6t-2.5 25q0 4 1.5 11t8 25.5t16 34.5t28.5 33.5t44 26.5q12 4 33 11.5t81 32t115 49.5t122 62t115 72.5t81 77.5t33 80q0 72 -160 72q-70 0 -134 -17.5t-65 -17.5q-14 0 -14 20q0 32 48.5 67.5t137.5 61t189 25.5 q25 0 60.5 -5t84 -17.5t81 -42t32.5 -70.5q0 -57 -57 -121t-138 -117.5t-162.5 -101t-138.5 -85t-57 -55.5q0 -15 17.5 -28t43 -27t51 -34.5t43 -60.5t17.5 -95q0 -78 -50.5 -201.5t-132.5 -258t-190 -272.5t-217 -246.5t-219.5 -177.5t-193.5 -69q-39 0 -62.5 39t-23.5 115 z" />
<glyph unicode="{" horiz-adv-x="548" d="M100 84q0 44 39.5 122.5t87.5 149t87.5 139t39.5 95.5q0 20 -3.5 37.5t-7.5 29t-11.5 23.5t-11.5 17t-12 13l-7 9q-10 13 -10 22q0 24 45 33q6 1 17 3t42.5 15t61 32.5t67 59t66.5 91.5q110 205 184 334q5 9 14 25t44.5 56t77.5 71t114.5 56t153.5 25q20 -6 20 -18 q0 -15 -33 -31l-12 -6q-33 -16 -54 -31t-61.5 -56.5t-92 -124t-116.5 -206.5q-33 -64 -53 -98t-50 -74t-61 -63.5t-76.5 -47.5t-107.5 -45q-16 -6 -22 -8.5t-12.5 -9.5t-6.5 -18q0 -9 11 -35q51 -79 51 -142q0 -29 -71 -146.5t-142.5 -250t-71.5 -197.5v-18q0 -44 -2.5 -58 t-13.5 -14q-32 0 -66.5 79.5t-34.5 160.5z" />
<glyph unicode="|" horiz-adv-x="659" d="M57 -90q0 8 6 20l46 66q747 1299 825 1444q12 22 43 35t51.5 15.5t38.5 2.5h4q62 0 62 -31q0 -6 -7 -20l-43 -68q-755 -1303 -827 -1444q-27 -51 -127 -51q-72 0 -72 31z" />
<glyph unicode="}" horiz-adv-x="632" d="M-129 -137q0 15 45 37q26 13 41 22t47.5 38t62.5 69t75.5 115t97.5 175q27 53 44 82.5t41.5 65.5t46.5 57t54 45t71 42t91 36q15 5 21.5 8t13 10.5t6.5 18.5q0 13 -30 72.5t-30 103.5q0 24 44.5 103.5t98 165t98 179.5t44.5 144v18q0 44 2.5 58t13.5 14q32 0 66.5 -78.5 t34.5 -158.5q0 -45 -40 -124t-88 -149.5t-88 -139t-40 -95.5q0 -23 4 -43t11.5 -34t13.5 -23t14.5 -18t9.5 -11q10 -13 10 -23q0 -21 -43 -33q-6 -1 -17 -3t-42.5 -14.5t-61.5 -31.5t-67 -59t-66 -92q-112 -205 -186 -334q-5 -10 -14 -25.5t-44 -56t-77 -71t-114.5 -56 t-154.5 -25.5q-20 7 -20 19z" />
<glyph unicode="~" horiz-adv-x="579" d="M133 319q0 27 46.5 76t72.5 49q61 -32 180 -32q56 0 133 12h4q11 0 11 -12q0 -11 -9.5 -27t-33 -35t-56.5 -35.5t-86 -27.5t-116 -11q-146 0 -146 43z" />
<glyph unicode="&#xa1;" horiz-adv-x="612" d="M-240 -383q0 25 129 207.5t293 414t221 334.5q30 52 117 52q58 0 58 -17q0 -5 -3 -12.5t-7 -12.5l-3 -5q-35 -54 -92 -146.5t-194 -338t-226 -441.5q-55 -64 -243 -64q-50 0 -50 29zM498 778q0 62 60 103t120 41q41 0 67.5 -20t26.5 -52q0 -64 -59 -103.5t-121 -39.5 q-40 0 -67 19.5t-27 51.5z" />
<glyph unicode="&#xa2;" horiz-adv-x="727" d="M88 207q0 62 23.5 138t74 156.5t118.5 148t166.5 114.5t209.5 55q4 7 16 25.5t17 27.5q26 46 86 46q39 0 39 -15q0 -4 -3 -9t-5 -8l-3 -3q-11 -16 -41 -66q51 -5 89 -18t38 -33q0 -6 -22 -28t-57.5 -68t-61.5 -101q-5 -12 -24 -12q-18 0 -27.5 12.5t-18 36.5t-18.5 37 l-162 -285l-121 -213q12 -2 39 -2q44 0 82.5 10.5t55.5 20.5l16 10q16 13 29 13q8 0 13.5 -5.5t7.5 -11.5l1 -6q0 -21 -23 -52.5t-63.5 -64t-107 -55t-142.5 -22.5h-2l-37 -64q-25 -43 -86 -43q-39 0 -39 14l11 21q4 6 14 22t20 33t19 33q-46 18 -74.5 56t-37.5 75.5 t-9 79.5zM293 289q0 -73 26 -105l101 178l180 316h-2q-60 0 -118.5 -42.5t-98 -104t-64 -127.5t-24.5 -115z" />
<glyph unicode="&#xa3;" horiz-adv-x="1142" d="M106 -37q0 9 22.5 52.5t66.5 120.5t89 154t111.5 190.5t112.5 193.5q-154 0 -209 -4h-10q-25 0 -25 14q0 23 32 63.5t83 40.5q133 0 194 -2q146 260 193 365q43 101 43 178v17q0 6 4 12t17.5 13.5t35 13t61 9t91.5 3.5q106 0 106 -39q0 -7 -4 -15.5t-8 -12.5l-4 -5 q-90 -130 -313 -543h79q87 0 195 6h10q25 0 25 -16q0 -22 -32.5 -62t-84.5 -40q-85 0 -154 1t-75 1h-25q-6 -13 -18 -36t-15 -28q-2 -3 -42 -74.5t-64 -119t-49 -115.5t-25 -111q0 -73 142 -73q27 0 58 3.5t89 20t111 45t115.5 85.5t111.5 134q2 19 33 19q47 0 47 -33 q0 -46 -63 -166.5t-113 -183.5q-25 -31 -101 -35q-132 -4 -278 -4q-55 0 -166 3t-119 3q-13 0 -23 -4t-14 -8l-4 -4q-69 -60 -180 -60q-60 0 -60 27v6z" />
<glyph unicode="&#xa5;" horiz-adv-x="1103" d="M178 485q0 22 32.5 62.5t82.5 40.5q39 0 118 -1t121 -1l5 10q15 49 24 121q-99 0 -213 -4q-8 -2 -14 -2q-21 0 -21 16q0 22 32.5 62t82.5 40h143q9 126 9 238q0 23 -1 56t-1 42q0 113 -23 170q-12 12 -12 33q0 39 159 39q140 0 140 -90q0 -32 -21 -185t-26 -233v-6 t2.5 -14.5t6 -18t11.5 -14t19 -6.5q24 0 51 24q121 106 254.5 243t181.5 200q1 2 6 9t6.5 9t6.5 8t7.5 8t8 7t10 7.5t11 6t14.5 6.5q33 14 81.5 21.5t80.5 8.5l32 1q109 0 109 -33q0 -22 -33 -39q-89 -51 -280 -200.5t-363 -301.5q96 0 143 4h10q25 0 25 -14 q0 -23 -32 -63.5t-83 -40.5h-188q-42 -39 -70 -70q-26 -30 -45 -57h72q32 0 99 2t87 2q25 0 25 -15q0 -24 -32.5 -64t-84.5 -40q-66 0 -141.5 1t-91.5 1q-23 -42 -89 -167t-105.5 -187.5t-67.5 -81.5q-44 -39 -109 -39q-107 0 -107 39q0 12 41 82.5t106 180t101 177.5h-41 q-102 0 -169 -3t-72 -3q-21 0 -21 16z" />
<glyph unicode="&#xa6;" horiz-adv-x="659" d="M61 -82q0 7 7 21l45 65q241 412 319 557q12 22 43 35t51.5 15.5t38.5 2.5h4q62 0 62 -30q0 -9 -6 -21l-43 -67q-250 -416 -322 -557q-28 -52 -127 -52q-72 0 -72 31zM563 797q0 8 6 20l45 66q242 412 320 557q12 22 43 35t51.5 15.5t38.5 2.5h4q62 0 62 -31q0 -6 -7 -20 l-43 -68q-249 -416 -321 -557q-27 -51 -127 -51q-72 0 -72 31z" />
<glyph unicode="&#xa7;" horiz-adv-x="1054" d="M68 51q0 25 36 25q106 0 203.5 33t156 87.5t58.5 112.5q0 37 -27 72.5t-65 64t-76 56.5t-65 62t-27 69q0 44 19 83.5t46 69t71.5 57t80.5 45t89 36.5t80.5 27t70.5 20l24 6q37 12 37 31q0 12 -15.5 26t-33.5 25.5t-33.5 35t-15.5 54.5q0 66 81 123.5t205 90t253 32.5 q17 0 38 -2t52.5 -7.5t52 -20t20.5 -34.5q0 -6 -0.5 -9.5t-7.5 -8t-20 -4.5h-21q-160 0 -271.5 -55.5t-111.5 -114.5q0 -39 29 -73t70 -61t82.5 -56t70.5 -73t29 -98q0 -51 -28.5 -94.5t-73.5 -74t-100 -55.5t-110 -43.5t-100 -34.5t-73.5 -31.5t-28.5 -30.5 q0 -21 16.5 -41.5t33.5 -44t17 -52.5q0 -66 -88.5 -133t-221 -109t-257.5 -42q-67 0 -109 18t-42 41zM506 670q0 -33 38.5 -76t100.5 -43q82 0 161.5 33t129 84t49.5 102q0 53 -46.5 87t-96.5 34q-57 0 -135 -30.5t-139.5 -83.5t-61.5 -107z" />
<glyph unicode="&#xa8;" d="M549 969q0 41 43.5 76.5t99.5 35.5q33 0 54.5 -15.5t21.5 -41.5q0 -41 -43 -78t-100 -37q-34 0 -55 17t-21 43zM928 969q0 41 43.5 76.5t99.5 35.5q33 0 54.5 -15.5t21.5 -41.5q0 -41 -42 -78t-101 -37q-32 0 -54 17t-22 43z" />
<glyph unicode="&#xa9;" horiz-adv-x="696" d="M51 154q0 70 36.5 146.5t98 141t153 106.5t191.5 42q114 0 171 -52t57 -137q0 -70 -37.5 -147.5t-99.5 -143t-152.5 -108.5t-187.5 -43q-115 0 -172.5 54t-57.5 141zM145 168q0 -65 41 -105t123 -40q98 0 182.5 59.5t129.5 142t45 160.5q0 67 -39 108.5t-117 41.5 q-73 0 -142 -36t-117 -90.5t-77 -119t-29 -121.5zM221 186q0 33 19.5 78.5t52.5 90t84 75.5t106 31q3 0 8.5 -1t8.5 -1q8 0 24.5 10t38.5 10q41 -2 41 -20q0 -2 -16 -19.5t-40.5 -52.5t-41.5 -74q-3 -6 -10 -6q-31 0 -31 39q0 10 3 20.5t3 14.5q0 18 -18 18q-54 0 -95 -61 t-41 -111q0 -65 64 -65q20 0 37.5 4t25.5 8l7 4q6 6 12 6q10 0 10 -10q0 -23 -42.5 -54.5t-106.5 -31.5q-57 0 -80 29.5t-23 68.5z" />
<glyph unicode="&#xaa;" horiz-adv-x="667" d="M147 514q0 21 23 60.5t55 39.5q33 0 145 -2t171 -2q31 0 77.5 2t57.5 2q14 0 14 -14q0 -22 -22.5 -60t-55.5 -38q-88 6 -217 6q-56 0 -138 -4t-95 -4q-15 0 -15 14zM328 778q0 31 11 68t43 83t80 83.5t131.5 64t188.5 29.5h4q23 0 23 27q0 9 -3.5 17.5t-14 18.5t-35 16.5 t-60.5 6.5q-45 0 -80 -14q-2 0 -13.5 -4.5t-18.5 -4.5q-15 0 -15 15q0 13 14 29.5t39.5 33t69.5 28t96 11.5q18 0 35.5 -1.5t46.5 -8.5t50 -19.5t37 -38t16 -59.5q0 -40 -18 -93.5t-52.5 -117t-59.5 -106.5t-67 -107t-47 -73q-13 -15 -24 -15q-20 0 -40 22t-33 44t-14 22 q-10 0 -28 -11t-37 -23.5t-52.5 -23.5t-70.5 -11q-41 0 -66 25.5t-30.5 47.5t-5.5 39zM489 840q0 -22 10 -34t18 -13.5t18 -1.5q51 0 107.5 41.5t90 88.5t33.5 70q0 12 -20.5 19.5t-36.5 7.5q-56 0 -101 -21.5t-69.5 -52t-37 -58t-12.5 -46.5z" />
<glyph unicode="&#xab;" horiz-adv-x="1212" d="M139 381q0 49 147 157.5t311.5 195.5t217.5 87q26 2 55 2q97 0 97 -28q0 -12 -19 -23q-600 -320 -600 -410q0 -56 47 -161t95 -183l47 -77q6 -12 6 -19q0 -13 -12.5 -20t-24.5 -8h-12q-32 0 -49 1t-44.5 9.5t-44.5 25.5q-68 65 -142.5 230.5t-74.5 220.5zM586 340 q0 48 171.5 166.5t358 215.5t232.5 97q24 2 55 2q100 0 100 -28q0 -13 -18 -23l-43 -22q-645 -349 -645 -426q0 -44 42 -136.5t84 -163.5l42 -71q6 -12 6 -21q0 -12 -11.5 -18.5t-23.5 -7.5h-12q-31 0 -49 1.5t-44.5 10.5t-44.5 27q-74 72 -137 203t-63 194z" />
<glyph unicode="&#xac;" horiz-adv-x="1101" d="M274 682q0 27 44 80t106 53q64 0 278 -2t324 -2q62 0 152 2t110 2q29 0 29 -18q0 -2 -1 -6t-1 -7l2 2l-4 -6q-13 -39 -43.5 -99.5t-54.5 -103t-66.5 -113.5t-50.5 -85q-22 -37 -62.5 -53.5t-81.5 -16.5q-57 0 -57 23q0 6 3.5 13.5t7.5 12.5l3 4q79 124 183 304 q-153 6 -342 6q-108 0 -266 -5t-185 -5t-27 20z" />
<glyph unicode="&#xad;" horiz-adv-x="929" d="M133 305q0 27 43 77t105 50h620q29 0 29 -18q0 -29 -42.5 -78t-105.5 -49q-93 0 -297.5 -1t-324.5 -1q-27 0 -27 20z" />
<glyph unicode="&#xae;" horiz-adv-x="696" d="M178 520q0 70 36.5 146.5t98 141t153 106.5t191.5 42q115 0 171.5 -52t56.5 -136q0 -70 -37.5 -147.5t-99.5 -143t-152.5 -108.5t-187.5 -43q-115 0 -172.5 53.5t-57.5 140.5zM272 535q0 -65 41 -105.5t123 -40.5q98 0 182.5 59.5t129.5 142.5t45 161q0 67 -39 108 t-117 41q-73 0 -142 -36t-117 -90t-77 -118.5t-29 -121.5zM330 483v2q0 5 34 62t75 128t53 101q12 28 12 43v4q0 15 88 15q25 0 42 -1t37.5 -5t32.5 -11t20.5 -20.5t8.5 -32.5q0 -22 -17 -43.5t-40 -32.5q-15 -8 -35.5 -12.5t-31.5 -7t-11 -8.5q0 -4 18.5 -17t18.5 -24 q0 -9 -16.5 -51.5t-16.5 -67.5v-15q0 -8 -39 -8q-41 0 -41 17q0 16 20.5 61.5t20.5 58.5q0 16 -6.5 20.5t-17.5 4.5h-7q-6 0 -6 4q0 11 8 26t19 15q44 0 74 23t30 53q0 37 -49 37q-23 0 -33 -15q-28 -35 -87.5 -145.5t-67.5 -138.5q-4 -12 -29 -18.5t-47 -6.5q-14 0 -14 6z " />
<glyph unicode="&#xaf;" d="M535 909q0 23 22.5 67t54.5 44q34 0 147.5 -2t172.5 -2q32 0 79 2t58 2q16 0 16 -14q0 -25 -23 -68t-56 -43q-88 6 -220 6q-57 0 -140.5 -4t-96.5 -4q-14 0 -14 16z" />
<glyph unicode="&#xb0;" horiz-adv-x="516" d="M397 948q0 71 71.5 138t168.5 67q63 0 94 -24.5t31 -63.5q0 -70 -74.5 -140.5t-165.5 -70.5q-63 0 -94 26t-31 68zM498 963q0 -43 51 -43q40 0 75 39.5t35 76.5q0 43 -49 43q-41 0 -76.5 -39.5t-35.5 -76.5z" />
<glyph unicode="&#xb1;" horiz-adv-x="1159" d="M119 322q0 27 43.5 80t105.5 53q64 0 278 -2t324 -2q62 0 152 2t111 2q28 0 28 -19q0 -16 -16 -45.5t-52.5 -58.5t-80.5 -29q-153 8 -416 8q-108 0 -266.5 -5t-184.5 -5t-26 21zM336 786q0 27 43.5 80.5t105.5 53.5q70 0 180.5 -1t149.5 -1q9 17 17 33.5t25.5 48 t57.5 100.5q41 69 142 69q59 0 59 -22q0 -6 -3.5 -14t-6.5 -13l-4 -4q-54 -84 -119 -201q21 0 70.5 -1t79.5 -1q59 0 110 2.5t78 4.5t29 2q28 0 28 -21q0 -27 -43.5 -80t-105.5 -53l-330 2q-57 -105 -100 -180q-22 -37 -62.5 -53.5t-81.5 -16.5q-57 0 -57 23q0 6 3.5 13.5 t6.5 11.5l4 5q64 100 121 199h-110q-75 0 -156 -3t-102 -3q-29 0 -29 20z" />
<glyph unicode="&#xb2;" horiz-adv-x="751" d="M174 449q0 4 2 8q21 73 83.5 149.5t139.5 136.5t163 122t156.5 109t116.5 94t46 81q0 21 -14.5 33t-25.5 14t-20 2q-41 0 -82.5 -13t-71 -31t-53 -36.5t-35.5 -31.5l-12 -13q-30 -22 -59 -22q-23 0 -23 12q3 20 77 127t106 110q63 0 102 -28q50 18 154 18q6 0 15 -1.5 t33 -8t42.5 -16.5t33.5 -30.5t15 -47.5q0 -59 -65 -128.5t-157.5 -134t-184.5 -128t-157 -128t-65 -116.5q0 -37 68 -37q44 0 90.5 18.5t81.5 44.5t63 52t43 45l15 18q21 21 53 21q18 0 18 -13q-4 -32 -78 -151t-108 -119q-65 0 -117.5 3t-95.5 3q-68 0 -149 -3t-93 -3 q-51 0 -51 19z" />
<glyph unicode="&#xb3;" horiz-adv-x="751" d="M213 477v2q1 19 33 84.5t80.5 129t83.5 63.5q24 -1 24 -11v-2q-47 -91 -47 -163q0 -86 80 -86q85 0 168.5 89t83.5 195q0 31 -18.5 52.5t-49.5 31.5t-57.5 13.5t-54.5 3.5q-15 0 -15 12q0 23 21.5 44t42.5 21q79 0 142.5 18.5t100 47.5t56.5 58.5t22 56.5q0 34 -21 50.5 t-52 16.5q-37 0 -72.5 -10.5t-59.5 -25.5t-43.5 -30t-28.5 -26l-9 -10q-15 -21 -50 -21q-20 0 -20 13v2q3 18 61 107.5t86 92.5q68 0 97 -26q21 20 125 20q60 0 97.5 -42t37.5 -85q0 -57 -28.5 -100.5t-69.5 -68t-82 -41t-69.5 -28t-29.5 -20.5q0 -6 9 -11.5t21.5 -13.5 t25 -20.5t21.5 -37t9 -58.5q0 -95 -62 -175.5t-153 -123.5t-182 -43q-254 0 -254 55z" />
<glyph unicode="&#xb4;" d="M711 915q0 6 22.5 29t61 62t63.5 71q5 7 14 20.5t13 17.5t11 8.5t15 4.5q23 0 63 -31.5t40 -64.5t-109.5 -83t-159.5 -50q-16 0 -24 3.5t-9 6t-1 6.5z" />
<glyph unicode="&#xb5;" horiz-adv-x="909" d="M-367 -598q0 17 7.5 43.5t26 67.5t37.5 80t54.5 103t63 113.5t76.5 134.5t83 142.5t94.5 161t98.5 168.5q75 162 165 285t159 141q27 8 69 8q47 0 47 -25q0 -8 -45.5 -76.5t-100.5 -151t-100.5 -180.5t-45.5 -159q0 -57 47 -57q88 0 202.5 114t300.5 363q52 74 164 74 q62 0 62 -25q0 -7 -6 -16q-36 -56 -91 -144t-161 -279.5t-135 -287.5q-4 -12 -10.5 -18t-11.5 -6l-5 -1q-42 0 -62 37.5t-20 93.5q0 18 4 47t4 31q0 6 -3.5 10t-6.5 4l-4 1q-8 0 -16 -3.5t-12 -7.5l-3 -4q-134 -129 -217 -177t-174 -48q-35 0 -59 16q-223 -399 -324 -690 q-9 -24 -33 -24q-36 0 -77.5 45t-41.5 96z" />
<glyph unicode="&#xb6;" horiz-adv-x="729" d="M2 -4q0 6 3.5 14.5t6.5 13.5l4 5q10 16 44.5 68.5t52.5 81t52.5 82.5t55.5 88t50 81.5t46.5 79.5t34.5 65t25 55t8 34q0 15 -18.5 26t-46.5 18t-61 21.5t-61 35t-46.5 60.5t-18.5 95q0 30 9 67.5t31.5 85t56.5 93.5t89.5 90t125 77t168.5 53.5t214 20.5q7 0 48.5 -2 t98.5 -7.5t79 -11.5q5 4 16.5 10t57.5 16.5t104 10.5q35 0 35 -16q0 -8 -9 -23q-188 -290 -435.5 -726.5t-321.5 -591.5q-38 -78 -164 -78q-35 0 -35 18q0 6 3.5 14t7.5 12l3 5q22 33 197 331.5t340 580.5l164 282q6 12 6 18q0 13 -10 19t-21 6q-21 0 -51 -9t-49 -28 q-36 -36 -209.5 -333.5t-329.5 -577.5l-155 -279q-46 -72 -160 -72q-35 0 -35 21z" />
<glyph unicode="&#xb7;" horiz-adv-x="403" d="M143 354q0 49 54 95.5t125 46.5q42 0 70 -19.5t28 -52.5q0 -54 -53 -98.5t-129 -44.5q-41 0 -68 20t-27 53z" />
<glyph unicode="&#xb8;" horiz-adv-x="696" d="M86 -262q0 16 12 16q6 0 15 -6q18 -12 49 -12q25 0 46 13.5t21 39.5q0 17 -18 32.5t-18 24.5v2q3 30 53 54q6 3 6 6q0 2 -2 4t-4 3l-2 1q0 6 18 6l60 -8q-22 -3 -40 -21.5t-18 -37.5q0 -18 21.5 -38t21.5 -48q0 -31 -34 -59.5t-101 -28.5q-36 0 -61 20t-25 37z" />
<glyph unicode="&#xb9;" horiz-adv-x="503" d="M180 446l6 15q38 29 139.5 189t215.5 378q10 20 10 41q0 19 -14 28.5t-31 10t-31 3t-14 9.5q0 27 59 64t135 62.5t123 25.5q21 0 34 -6.5t13 -14.5q0 -6 -3.5 -13.5t-7.5 -11.5l-3 -5q-51 -63 -221.5 -355.5t-183.5 -359.5q-7 -27 -7 -35v-14q0 -39 -110 -39 q-109 0 -109 28z" />
<glyph unicode="&#xba;" horiz-adv-x="667" d="M147 514q0 21 23 60.5t55 39.5q33 0 145 -2t171 -2q31 0 77.5 2t57.5 2q14 0 14 -14q0 -22 -22.5 -60t-55.5 -38q-88 6 -217 6q-56 0 -138 -4t-95 -4q-15 0 -15 14zM362 864q0 56 23.5 119t67.5 122.5t101.5 107.5t131.5 77t150 29q14 0 34 -4.5t44.5 -14.5t41.5 -31 t17 -50q0 -25 -8.5 -42.5t-8.5 -23.5q0 -18 37 -18q19 0 34 8t20 8q10 0 10 -29q0 -34 -30 -74.5t-73 -60.5q-3 -7 -8.5 -18t-25 -43.5t-42 -62t-59.5 -65.5t-76.5 -62t-94 -44t-111.5 -18q-13 0 -29.5 2.5t-44 14t-48.5 30.5t-37 56t-16 87zM512 860q0 -4 1 -11.5t6 -21 t13.5 -25t25 -20t38.5 -8.5q77 0 127.5 65t50.5 119q0 13 -18 13q-10 0 -24 -3.5t-23 -6.5l-9 -3q-6 -4 -14 -4q-6 0 -6 15q0 49 39 98q17 17 49.5 30t49 31t16.5 60q0 21 -12.5 33t-22 14t-19.5 2q-64 0 -128.5 -68t-102 -156t-37.5 -153z" />
<glyph unicode="&#xbb;" horiz-adv-x="1333" d="M-55 -78q0 11 18 21l53 28q71 39 121 66.5t134 75.5t142 85t117.5 77t90 70t30.5 48q0 43 -42 135t-84 163l-42 71q-6 12 -6 20q0 12 11.5 19t23.5 7l12 1q47 0 77.5 -6.5t39 -12.5t18.5 -16l3 -2q74 -72 137 -203.5t63 -193.5q0 -49 -171.5 -167.5t-357.5 -215 t-233 -96.5q-28 -2 -61 -2q-94 0 -94 28zM481 -80q0 13 19 21l30 16q65 36 104 57.5t118 66.5t130 78.5t106.5 72.5t83.5 69.5t28 50.5q0 35 -19.5 91t-47 111.5t-55.5 105.5t-48 81l-19 31q-6 12 -6 21q0 13 11.5 20t23.5 7l12 1q46 0 76 -6.5t38.5 -12.5t18.5 -16l5 -4 q70 -63 144.5 -227.5t74.5 -220.5q0 -49 -146.5 -157.5t-312 -195.5t-219.5 -87q-29 -3 -60 -3q-90 0 -90 29z" />
<glyph unicode="&#xbc;" horiz-adv-x="1427" d="M117 10q0 8 12 23q19 15 494 503t671 691q43 43 140 43q49 0 49 -21q0 -4 -13 -20q-71 -74 -507 -515.5t-658 -680.5q-41 -43 -141 -43q-47 0 -47 20zM180 446l6 15q38 29 139.5 189t215.5 378q10 20 10 41q0 19 -14 28.5t-31 10t-31 3t-14 9.5q0 27 59 64t135 62.5 t123 25.5q21 0 34 -6.5t13 -14.5q0 -6 -3.5 -13.5t-7.5 -11.5l-3 -5q-51 -63 -221.5 -355.5t-183.5 -359.5q-7 -27 -7 -35v-14q0 -39 -110 -39q-109 0 -109 28zM756 266q0 52 121 175.5t260.5 233t210.5 146.5q49 25 145 25q32 0 49 -3t21 -7t4 -11q0 -5 -4.5 -12.5 t-8.5 -12.5l-4 -5q-25 -33 -115 -185.5t-175 -306.5q55 0 67 4q5 0 7 -0.5t3.5 -4t1.5 -11.5q0 -17 -21.5 -45.5t-53.5 -28.5h-52q-48 -86 -69 -139l-19 -53q-9 -21 -28 -28t-66 -7q-86 0 -86 26q0 4 3.5 10.5t13.5 21t23 33t36 54.5t49 78h-29q-284 0 -284 53zM950 346 q0 -37 172 -45q82 138 189 340q4 8 4 16q0 17 -15 17q-39 0 -124.5 -66.5t-155.5 -146.5t-70 -115z" />
<glyph unicode="&#xbd;" horiz-adv-x="1488" d="M117 10q0 8 12 23q19 15 494 503t671 691q43 43 140 43q49 0 49 -21q0 -4 -13 -20q-71 -74 -507 -515.5t-658 -680.5q-41 -43 -141 -43q-47 0 -47 20zM180 446l6 15q38 29 139.5 189t215.5 378q10 20 10 41q0 19 -14 28.5t-31 10t-31 3t-14 9.5q0 27 59 64t135 62.5 t123 25.5q21 0 34 -6.5t13 -14.5q0 -6 -3.5 -13.5t-7.5 -11.5l-3 -5q-51 -63 -221.5 -355.5t-183.5 -359.5q-7 -27 -7 -35v-14q0 -39 -110 -39q-109 0 -109 28zM764 12q0 4 2 8q18 63 67 128.5t112 120.5t135.5 108.5t141 100t124.5 88t90 79.5t34 68q0 16 -7.5 27t-19.5 15 t-19 5.5t-13 1.5q-41 0 -82.5 -13t-71 -31t-53 -36.5t-35.5 -31.5l-12 -13q-31 -23 -59 -23q-23 0 -23 13q3 20 76.5 127t105.5 110q64 0 103 -28q49 18 153 18q6 0 15.5 -1.5t33.5 -8t42.5 -16.5t33.5 -30.5t15 -47.5q0 -59 -65 -128.5t-157.5 -134t-184.5 -128t-157 -128 t-65 -116.5q0 -37 68 -37q44 0 90.5 18.5t81 44.5t62.5 52t43 45l15 18q20 20 54 20q18 0 18 -12q-4 -32 -78 -151t-108 -119q-65 0 -117.5 3t-95.5 3q-68 0 -149 -3t-93 -3q-51 0 -51 18z" />
<glyph unicode="&#xbe;" horiz-adv-x="1681" d="M213 477v2q1 19 33 84.5t80.5 129t83.5 63.5q24 -1 24 -11v-2q-47 -91 -47 -163q0 -86 80 -86q85 0 168.5 89t83.5 195q0 31 -18.5 52.5t-49.5 31.5t-57.5 13.5t-54.5 3.5q-15 0 -15 12q0 23 21.5 44t42.5 21q79 0 142.5 18.5t100 47.5t56.5 58.5t22 56.5q0 34 -21 50.5 t-52 16.5q-37 0 -72.5 -10.5t-59.5 -25.5t-43.5 -30t-28.5 -26l-9 -10q-15 -21 -50 -21q-20 0 -20 13v2q3 18 61 107.5t86 92.5q68 0 97 -26q21 20 125 20q60 0 97.5 -42t37.5 -85q0 -57 -28.5 -100.5t-69.5 -68t-82 -41t-69.5 -28t-29.5 -20.5q0 -6 9 -11.5t21.5 -13.5 t25 -20.5t21.5 -37t9 -58.5q0 -95 -62 -175.5t-153 -123.5t-182 -43q-254 0 -254 55zM371 10q0 8 12 23q19 15 494 503t671 691q43 43 140 43q49 0 49 -21q0 -4 -13 -20q-71 -74 -507 -515.5t-658 -680.5q-41 -43 -141 -43q-47 0 -47 20zM1010 266q0 52 121 175.5t260.5 233 t210.5 146.5q49 25 145 25q32 0 49 -3t21 -7t4 -11q0 -5 -4.5 -12.5t-8.5 -12.5l-4 -5q-26 -33 -116.5 -186.5t-174.5 -305.5q56 0 68 4q5 0 7 -0.5t3.5 -4t1.5 -11.5q0 -17 -21.5 -45.5t-53.5 -28.5h-52q-48 -86 -69 -139l-19 -53q-9 -21 -28 -28t-66 -7q-86 0 -86 26 q0 4 3.5 10.5t13.5 21t23 33t36 54.5t49 78h-29q-284 0 -284 53zM1204 346q0 -37 172 -45q82 138 189 340q4 8 4 16q0 17 -15 17q-39 0 -124.5 -66.5t-155.5 -146.5t-70 -115z" />
<glyph unicode="&#xbf;" horiz-adv-x="899" d="M-74 -209q0 84 34 151.5t90.5 113.5t126.5 85.5t146 78t144.5 79.5t126.5 101.5t88 134.5q18 49 123 49q13 0 20.5 -0.5t19 -3.5t17 -11t6.5 -20q-33 -83 -89 -152.5t-118 -117t-130 -89.5t-129 -79.5t-110.5 -77.5t-78.5 -93t-29 -116q0 -27 14 -46t37 -28t44 -12.5 t43 -3.5q41 0 84.5 14t77 34t61 40.5t42.5 34.5l15 14q51 47 94 47q35 0 35 -22q0 -8 -45.5 -81.5t-104.5 -147t-87 -73.5q-30 0 -52 10t-36 20.5t-25 10.5t-24 -6t-28.5 -13t-60 -13t-110.5 -6q-37 0 -73 8t-74 27.5t-61.5 60.5t-23.5 98zM782 782q0 62 62 103t121 41 q40 0 67 -20t27 -52q0 -62 -60 -102.5t-120 -40.5q-40 0 -68 19.5t-29 51.5z" />
<glyph unicode="&#xc0;" horiz-adv-x="1185" d="M-35 -51q0 23 128.5 198.5t303.5 387.5q-34 -3 -78.5 -8t-71 -8t-28.5 -3q-7 0 -11.5 5t-5.5 9l-1 5q0 35 49.5 80t91.5 61q17 8 184 12l29 33q621 719 864 719q20 2 47 2q24 0 46 -3t45 -9.5t37 -21t14 -34.5q0 -12 -26.5 -65.5t-92 -185t-127.5 -265.5 q-121 -266 -240.5 -557.5t-144.5 -400.5q0 -2 -1 -5t-9 -7.5t-23 -4.5q-52 0 -111 46t-59 81q0 42 31.5 110.5t69 129.5t69 126.5t31.5 102.5q0 72 -279 72q-41 0 -127 -4l-77 -103q-66 -89 -134 -207.5t-97 -177t-44 -92.5q-13 -29 -62.5 -40t-95.5 -11q-94 0 -94 33z M684 688l223 -4q63 0 126 57.5t104 133.5t66.5 143.5t25.5 95.5q0 13 -10 21t-25 8q-61 0 -202.5 -130t-307.5 -325zM1356 1663q0 33 43 57.5t69 24.5q7 0 12.5 -2.5t10 -8.5t7.5 -11.5t8.5 -16.5t9.5 -18q20 -36 50.5 -80.5t49.5 -71t18 -31.5q0 -4 -0.5 -6t-5.5 -4t-14 -2 h-15q-48 8 -145.5 72.5t-97.5 97.5z" />
<glyph unicode="&#xc1;" horiz-adv-x="1185" d="M-35 -51q0 -33 94 -33q46 0 95.5 11t62.5 40q15 34 44 92.5t97 177t134 207.5l77 103q86 4 127 4q279 0 279 -72q0 -37 -31.5 -102.5t-69 -126.5t-69 -129.5t-31.5 -110.5q0 -35 59 -81t111 -46q15 0 23 4.5t9 8.5l1 4q25 109 144.5 400.5t240.5 557.5 q62 134 127.5 265.5t92 185t26.5 65.5q0 20 -14 34.5t-37 21t-45 9.5t-46 3l-47 -2q-243 0 -864 -719l-29 -33q-167 -4 -184 -12q-42 -16 -91.5 -61t-49.5 -80q2 -19 18 -19q2 0 28.5 3t71 8t78.5 8q-175 -212 -303.5 -387.5t-128.5 -198.5zM684 688q166 195 307.5 325 t202.5 130q15 0 25 -8t10 -21q0 -28 -25.5 -95.5t-66.5 -143.5t-104 -133.5t-126 -57.5q-104 2 -223 4zM1403 1526q0 6 22.5 29t61 62t63.5 71q5 6 12 16.5t10.5 15t9 10t10.5 7.5t12 2q23 0 62.5 -32t39.5 -65t-109 -83t-159 -50q-35 0 -35 17z" />
<glyph unicode="&#xc2;" horiz-adv-x="1185" d="M-35 -51q0 -33 94 -33q46 0 95.5 11t62.5 40q15 34 44 92.5t97 177t134 207.5l77 103q86 4 127 4q279 0 279 -72q0 -37 -31.5 -102.5t-69 -126.5t-69 -129.5t-31.5 -110.5q0 -35 59 -81t111 -46q15 0 23 4.5t9 8.5l1 4q25 109 144.5 400.5t240.5 557.5 q62 134 127.5 265.5t92 185t26.5 65.5q0 20 -14 34.5t-37 21t-45 9.5t-46 3l-47 -2q-243 0 -864 -719l-29 -33q-167 -4 -184 -12q-42 -16 -91.5 -61t-49.5 -80q2 -19 18 -19q2 0 28.5 3t71 8t78.5 8q-175 -212 -303.5 -387.5t-128.5 -198.5zM684 688q166 195 307.5 325 t202.5 130q15 0 25 -8t10 -21q0 -28 -25.5 -95.5t-66.5 -143.5t-104 -133.5t-126 -57.5q-104 2 -223 4zM1305 1513q0 6 21 28t56.5 58.5t59.5 67.5q4 4 14 18t20 21.5t23 7.5q40 0 68 -28q10 -9 22 -9q10 0 19 6q56 33 98 33q20 -3 20 -22q0 -9 -6 -27q-6 -20 -41 -158 q0 -26 -18 -26q-19 0 -42 24.5t-42 59.5q-6 12 -18 12q-9 0 -21 -8q-42 -28 -96.5 -51t-81.5 -23q-55 0 -55 16z" />
<glyph unicode="&#xc3;" horiz-adv-x="1185" d="M-35 -51q0 23 128.5 198.5t303.5 387.5q-34 -3 -78.5 -8t-71 -8t-28.5 -3q-7 0 -11.5 5t-5.5 9l-1 5q0 35 49.5 80t91.5 61q17 8 184 12l29 33q621 719 864 719q20 2 47 2q24 0 46 -3t45 -9.5t37 -21t14 -34.5q0 -12 -26.5 -65.5t-92 -185t-127.5 -265.5 q-121 -266 -240.5 -557.5t-144.5 -400.5q0 -2 -1 -5t-9 -7.5t-23 -4.5q-52 0 -111 46t-59 81q0 42 31.5 110.5t69 129.5t69 126.5t31.5 102.5q0 72 -279 72q-41 0 -127 -4l-77 -103q-66 -89 -134 -207.5t-97 -177t-44 -92.5q-13 -29 -62.5 -40t-95.5 -11q-94 0 -94 33z M684 688l223 -4q63 0 126 57.5t104 133.5t66.5 143.5t25.5 95.5q0 13 -10 21t-25 8q-61 0 -202.5 -130t-307.5 -325zM1184 1559q0 27 58 75.5t93 48.5q74 -32 228 -32q29 0 70 3t71.5 6t34.5 3q14 0 14 -12q0 -11 -12.5 -27t-42 -35t-71.5 -35t-109.5 -27t-147.5 -11 q-186 0 -186 43z" />
<glyph unicode="&#xc4;" horiz-adv-x="1185" d="M-35 -51q0 23 128.5 198.5t303.5 387.5q-34 -3 -78.5 -8t-71 -8t-28.5 -3q-7 0 -11.5 5t-5.5 9l-1 5q0 35 49.5 80t91.5 61q17 8 184 12l29 33q621 719 864 719q20 2 47 2q24 0 46 -3t45 -9.5t37 -21t14 -34.5q0 -12 -26.5 -65.5t-92 -185t-127.5 -265.5 q-121 -266 -240.5 -557.5t-144.5 -400.5q0 -2 -1 -5t-9 -7.5t-23 -4.5q-52 0 -111 46t-59 81q0 42 31.5 110.5t69 129.5t69 126.5t31.5 102.5q0 72 -279 72q-41 0 -127 -4l-77 -103q-66 -89 -134 -207.5t-97 -177t-44 -92.5q-13 -29 -62.5 -40t-95.5 -11q-94 0 -94 33z M684 688l223 -4q63 0 126 57.5t104 133.5t66.5 143.5t25.5 95.5q0 13 -10 21t-25 8q-61 0 -202.5 -130t-307.5 -325zM1245 1563q0 41 44 76.5t100 35.5q33 0 54 -15.5t21 -41.5q0 -41 -43 -78t-100 -37q-34 0 -55 17t-21 43zM1624 1563q0 41 43.5 76.5t99.5 35.5 q33 0 54.5 -15.5t21.5 -41.5q0 -41 -42 -78t-101 -37q-32 0 -54 17t-22 43z" />
<glyph unicode="&#xc5;" horiz-adv-x="1185" d="M-35 -51q0 -33 94 -33q46 0 95.5 11t62.5 40q15 34 44 92.5t97 177t134 207.5l77 103q86 4 127 4q279 0 279 -72q0 -37 -31.5 -102.5t-69 -126.5t-69 -129.5t-31.5 -110.5q0 -35 59 -81t111 -46q15 0 23 4.5t9 8.5l1 4q25 109 144.5 400.5t240.5 557.5 q62 134 127.5 265.5t92 185t26.5 65.5q0 20 -14 34.5t-37 21t-45 9.5t-46 3l-47 -2q-243 0 -864 -719l-29 -33q-167 -4 -184 -12q-42 -16 -91.5 -61t-49.5 -80q2 -19 18 -19q2 0 28.5 3t71 8t78.5 8q-175 -212 -303.5 -387.5t-128.5 -198.5zM684 688q166 195 307.5 325 t202.5 130q15 0 25 -8t10 -21q0 -28 -25.5 -95.5t-66.5 -143.5t-104 -133.5t-126 -57.5q-104 2 -223 4zM1450 1579q0 64 62.5 111t132.5 47q45 0 75.5 -22t30.5 -58q0 -56 -60 -106t-137 -50q-44 0 -74 21t-30 57zM1534 1602q0 -15 13 -25t32 -10q36 0 61 22t25 47 q0 15 -12.5 24t-32.5 9q-33 0 -59.5 -21.5t-26.5 -45.5z" />
<glyph unicode="&#xc6;" horiz-adv-x="1867" d="M-35 -55q0 23 128.5 198t305.5 389q-38 -4 -87 -9t-70 -7t-23 -2q-7 0 -11.5 4t-5.5 8l-1 4q0 36 49 81t92 63q15 6 184 10l29 33q162 188 333.5 348.5t331.5 265.5t253 105q59 12 112 12q90 0 90 -43q38 1 108 2.5t125 2.5t97 1q71 0 96 -2q3 4 12 10t49.5 15.5 t96.5 9.5q9 0 19.5 -1.5t22 -8.5t11.5 -17q0 -34 -56 -129.5t-128.5 -181.5t-110.5 -90h-20q-33 0 -33 14q0 8 6 17q33 63 33 143q0 36 -13.5 59.5t-38.5 34.5t-49.5 15t-56.5 4q-101 0 -149 -43q-59 -55 -111 -144t-76 -151.5t-24 -79.5q0 -13 3 -23t12.5 -21.5t31.5 -17.5 t55 -6q57 -4 139 -4q29 0 74 2t64 2q6 2 14 2q20 0 20 -14l-4 -12q-20 -47 -40 -70.5t-58 -37t-102 -13.5q-35 0 -92.5 3t-81.5 3q-65 0 -112 -17.5t-87 -66.5q-23 -29 -67 -94.5t-94 -167.5t-50 -160q0 -76 150 -76q31 0 66.5 3.5t99.5 21.5t122 47.5t125 89t117 139.5 q2 19 35 19q49 0 49 -33q0 -49 -65.5 -176t-118.5 -189q-25 -32 -103 -36q-170 -5 -284 -5q-110 0 -195 3.5t-88 3.5q-14 0 -24.5 -4.5t-14.5 -9.5l-4 -5q-72 -59 -191 -59q-18 0 -29.5 1.5t-21.5 9.5t-10 22q0 43 122 278.5t122 249.5q0 47 -67 63.5t-206 16.5 q-43 0 -125 -4q-11 -14 -79 -103q-66 -89 -133 -205.5t-98.5 -181.5t-41.5 -90q-10 -21 -48 -33.5t-71 -15.5l-32 -2h-9q-94 0 -94 33zM694 684l279 -2q51 0 106 41.5t97.5 102t77.5 126.5t54.5 118t20.5 73v2q0 13 -14.5 21t-32.5 8q-62 0 -236.5 -147.5t-351.5 -342.5z " />
<glyph unicode="&#xc7;" horiz-adv-x="1013" d="M141 295q0 62 20 143t56.5 172.5t91.5 187.5t120.5 187.5t148 172t170.5 141t191 96t206 35.5q42 0 78.5 -9t58 -17.5t25.5 -8.5q2 0 50 20.5t99 20.5q13 0 28 -1.5t34.5 -11t19.5 -26.5q0 -27 -49.5 -112t-117.5 -177t-147 -164t-130 -72q-9 -2 -21 -2q-39 0 -39 23 q0 5 18 32.5t39.5 63t39.5 92t18 111.5q0 10 -2.5 22.5t-10.5 33t-29.5 33.5t-53.5 13q-66 0 -153.5 -66.5t-170 -174t-153.5 -231.5t-114.5 -252t-43.5 -222q0 -188 172 -188q204 0 397 264q9 16 23 16h3.5t8 -2.5t9.5 -6.5t7.5 -13.5t3.5 -22.5q0 -31 -24 -82t-71.5 -111 t-109.5 -113.5t-148 -91.5t-177 -44q-15 -5 -30.5 -12t-34.5 -23.5t-19 -34.5q0 -15 8 -26.5t17.5 -18t17.5 -21.5t8 -36q0 -36 -40.5 -69.5t-119.5 -33.5q-42 0 -72 24t-30 44q0 18 14 18q3 0 11.5 -5t25.5 -10t39 -5q28 0 54 16t26 47q0 17 -22.5 36t-22.5 34q0 32 66 64 q6 3 6 6q0 4 -6 10q-71 9 -123.5 39.5t-79 66t-42 83.5t-19 80t-3.5 69z" />
<glyph unicode="&#xc8;" horiz-adv-x="1128" d="M-55 -57q0 22 142.5 267t316 546.5t227.5 421.5q45 103 45 182v22q0 35 436 35q144 0 250 -4q3 4 12 10t49.5 15.5t96.5 9.5q10 0 20.5 -1.5t21.5 -8.5t11 -17q0 -46 -93.5 -188.5t-162.5 -194.5q-23 -18 -60 -18q-32 0 -32 14q0 8 6 17q33 63 33 143q0 46 -25 72.5 t-56 33.5t-75 7q-95 0 -143 -43q-59 -55 -112.5 -143.5t-79 -152t-25.5 -79.5q0 -18 5 -30t19.5 -20t29.5 -12.5t47.5 -6.5t59.5 -2.5t78 -0.5q37 0 73 1.5t57 3t22 1.5q20 0 20 -14q0 -17 -21 -52.5t-44 -49.5q-48 -31 -140 -31q-35 0 -92.5 3t-81.5 3q-65 0 -111.5 -17.5 t-86.5 -66.5q-23 -29 -67 -94.5t-94 -167.5t-50 -160q0 -24 13 -40t37 -23.5t46.5 -10t52.5 -2.5q31 0 66.5 3.5t99.5 21.5t122.5 47.5t125.5 89t117 139.5q15 19 43 19q41 0 41 -33q0 -48 -65.5 -174t-117.5 -190q-13 -15 -32 -23.5t-32.5 -10.5t-39.5 -3q-76 -4 -338 -4 q-72 0 -126 0.5t-80 1.5t-40.5 2t-19.5 1.5t-6 0.5q-22 0 -41 -19q-67 -59 -193 -59q-59 0 -59 27v6zM1044 1669q0 33 43.5 57.5t69.5 24.5q9 0 16 -5t10 -10t10 -20t11 -22q20 -36 51 -80.5t50 -71t18 -31.5q0 -4 -0.5 -6t-5.5 -4t-14 -2h-15q-48 8 -146 72.5t-98 97.5z " />
<glyph unicode="&#xc9;" horiz-adv-x="1128" d="M-55 -57q0 22 142.5 267t316 546.5t227.5 421.5q45 103 45 182v22q0 35 436 35q144 0 250 -4q3 4 12 10t49.5 15.5t96.5 9.5q10 0 20.5 -1.5t21.5 -8.5t11 -17q0 -46 -93.5 -188.5t-162.5 -194.5q-23 -18 -60 -18q-32 0 -32 14q0 8 6 17q33 63 33 143q0 46 -25 72.5 t-56 33.5t-75 7q-95 0 -143 -43q-59 -55 -112.5 -143.5t-79 -152t-25.5 -79.5q0 -18 5 -30t19.5 -20t29.5 -12.5t47.5 -6.5t59.5 -2.5t78 -0.5q37 0 73 1.5t57 3t22 1.5q20 0 20 -14q0 -17 -21 -52.5t-44 -49.5q-48 -31 -140 -31q-35 0 -92.5 3t-81.5 3q-65 0 -111.5 -17.5 t-86.5 -66.5q-23 -29 -67 -94.5t-94 -167.5t-50 -160q0 -24 13 -40t37 -23.5t46.5 -10t52.5 -2.5q31 0 66.5 3.5t99.5 21.5t122.5 47.5t125.5 89t117 139.5q15 19 43 19q41 0 41 -33q0 -48 -65.5 -174t-117.5 -190q-13 -15 -32 -23.5t-32.5 -10.5t-39.5 -3q-76 -4 -338 -4 q-72 0 -126 0.5t-80 1.5t-40.5 2t-19.5 1.5t-6 0.5q-22 0 -41 -19q-67 -59 -193 -59q-59 0 -59 27v6zM1067 1520q0 6 23 29t61 61.5t63 70.5q5 7 12 17l10.5 15t9 10.5t10.5 7.5t12 2q23 0 62.5 -32t39.5 -65t-109 -83t-159 -50q-35 0 -35 17z" />
<glyph unicode="&#xca;" horiz-adv-x="1128" d="M-55 -57q0 22 142.5 267t316 546.5t227.5 421.5q45 103 45 182v22q0 35 436 35q144 0 250 -4q3 4 12 10t49.5 15.5t96.5 9.5q10 0 20.5 -1.5t21.5 -8.5t11 -17q0 -46 -93.5 -188.5t-162.5 -194.5q-23 -18 -60 -18q-32 0 -32 14q0 8 6 17q33 63 33 143q0 46 -25 72.5 t-56 33.5t-75 7q-95 0 -143 -43q-59 -55 -112.5 -143.5t-79 -152t-25.5 -79.5q0 -18 5 -30t19.5 -20t29.5 -12.5t47.5 -6.5t59.5 -2.5t78 -0.5q37 0 73 1.5t57 3t22 1.5q20 0 20 -14q0 -17 -21 -52.5t-44 -49.5q-48 -31 -140 -31q-35 0 -92.5 3t-81.5 3q-65 0 -111.5 -17.5 t-86.5 -66.5q-23 -29 -67 -94.5t-94 -167.5t-50 -160q0 -24 13 -40t37 -23.5t46.5 -10t52.5 -2.5q31 0 66.5 3.5t99.5 21.5t122.5 47.5t125.5 89t117 139.5q15 19 43 19q41 0 41 -33q0 -48 -65.5 -174t-117.5 -190q-13 -15 -32 -23.5t-32.5 -10.5t-39.5 -3q-76 -4 -338 -4 q-72 0 -126 0.5t-80 1.5t-40.5 2t-19.5 1.5t-6 0.5q-22 0 -41 -19q-67 -59 -193 -59q-59 0 -59 27v6zM958 1534q0 6 21.5 28t57 58.5t59.5 67.5q4 4 14 18t20 21.5t23 7.5q39 0 68 -29q10 -8 22 -8q10 0 19 6q56 33 98 33q20 -3 20 -23q0 -8 -6 -26q-6 -20 -41 -158 q0 -27 -18 -27q-19 0 -42 24.5t-42 59.5q-6 12 -19 12q-8 0 -20 -8q-42 -28 -96.5 -50.5t-81.5 -22.5q-56 0 -56 16z" />
<glyph unicode="&#xcb;" horiz-adv-x="1128" d="M-55 -57q0 22 142.5 267t316 546.5t227.5 421.5q45 103 45 182v22q0 35 436 35q144 0 250 -4q3 4 12 10t49.5 15.5t96.5 9.5q10 0 20.5 -1.5t21.5 -8.5t11 -17q0 -46 -93.5 -188.5t-162.5 -194.5q-23 -18 -60 -18q-32 0 -32 14q0 8 6 17q33 63 33 143q0 46 -25 72.5 t-56 33.5t-75 7q-95 0 -143 -43q-59 -55 -112.5 -143.5t-79 -152t-25.5 -79.5q0 -18 5 -30t19.5 -20t29.5 -12.5t47.5 -6.5t59.5 -2.5t78 -0.5q37 0 73 1.5t57 3t22 1.5q20 0 20 -14q0 -17 -21 -52.5t-44 -49.5q-48 -31 -140 -31q-35 0 -92.5 3t-81.5 3q-65 0 -111.5 -17.5 t-86.5 -66.5q-23 -29 -67 -94.5t-94 -167.5t-50 -160q0 -24 13 -40t37 -23.5t46.5 -10t52.5 -2.5q31 0 66.5 3.5t99.5 21.5t122.5 47.5t125.5 89t117 139.5q15 19 43 19q41 0 41 -33q0 -48 -65.5 -174t-117.5 -190q-13 -15 -32 -23.5t-32.5 -10.5t-39.5 -3q-76 -4 -338 -4 q-72 0 -126 0.5t-80 1.5t-40.5 2t-19.5 1.5t-6 0.5q-22 0 -41 -19q-67 -59 -193 -59q-59 0 -59 27v6zM893 1575q0 41 43.5 77t99.5 36q33 0 54.5 -16t21.5 -42q0 -40 -43 -77t-100 -37q-34 0 -55 16.5t-21 42.5zM1272 1575q0 41 43.5 77t99.5 36q33 0 54.5 -16t21.5 -42 q0 -41 -42 -77.5t-101 -36.5q-33 0 -54.5 16.5t-21.5 42.5z" />
<glyph unicode="&#xcc;" horiz-adv-x="505" d="M-55 10q0 5 3 11.5t6 10.5l3 3q69 41 278 379.5t424 765.5q46 92 46 170v32q0 6 4 12.5t18.5 14t37 13.5t64 10t95.5 4q110 0 110 -41q0 -7 -4 -15.5t-8 -13.5l-4 -4q-61 -79 -202 -313.5t-253 -440.5q-26 -47 -64 -118.5t-101.5 -209.5t-63.5 -178q0 -41 5 -61.5 t5 -30.5q0 -47 -199 -47q-200 0 -200 47zM799 1686q0 33 43 57t69 24q9 0 16 -5t10 -10t10 -20t11 -22q20 -36 51 -80.5t50 -70.5t18 -31q0 -4 -0.5 -6t-5.5 -4t-14 -2h-15q-48 8 -145.5 72.5t-97.5 97.5z" />
<glyph unicode="&#xcd;" horiz-adv-x="505" d="M-55 10q0 -47 200 -47q199 0 199 47q0 10 -5 30.5t-5 61.5q0 40 57 166.5t115 233.5l57 106q112 206 253 440.5t202 313.5q16 17 16 33q0 41 -110 41q-54 0 -95.5 -4t-64 -10t-37 -13.5t-18.5 -14t-4 -12.5v-32q0 -78 -46 -170q-215 -427 -424 -765.5t-278 -379.5 q-12 -13 -12 -25zM850 1522q0 6 23 29t61 61.5t63 70.5q5 7 12 17l10.5 15t9 10.5t10.5 7.5t12 2q23 0 62.5 -32t39.5 -65t-109 -83t-159 -50q-35 0 -35 17z" />
<glyph unicode="&#xce;" horiz-adv-x="505" d="M-55 10q0 -47 200 -47q199 0 199 47q0 10 -5 30.5t-5 61.5q0 40 57 166.5t115 233.5l57 106q112 206 253 440.5t202 313.5q16 17 16 33q0 41 -110 41q-54 0 -95.5 -4t-64 -10t-37 -13.5t-18.5 -14t-4 -12.5v-32q0 -78 -46 -170q-215 -427 -424 -765.5t-278 -379.5 q-12 -13 -12 -25zM764 1534q0 6 21 28t56.5 58.5t59.5 67.5q4 4 14 18t20 21.5t23 7.5q39 0 68 -29q11 -8 23 -8q9 0 18 6q56 33 98 33q21 -3 21 -23q0 -8 -6 -26q-6 -20 -41 -158q0 -27 -19 -27t-42 24.5t-42 59.5q-6 12 -18 12q-9 0 -21 -8q-42 -28 -96.5 -50.5 t-81.5 -22.5q-55 0 -55 16z" />
<glyph unicode="&#xcf;" horiz-adv-x="505" d="M-55 10q0 5 3 11.5t6 10.5l3 3q69 41 278 379.5t424 765.5q46 92 46 170v32q0 6 4 12.5t18.5 14t37 13.5t64 10t95.5 4q110 0 110 -41q0 -7 -4 -15.5t-8 -13.5l-4 -4q-61 -79 -202 -313.5t-253 -440.5q-26 -47 -64 -118.5t-101.5 -209.5t-63.5 -178q0 -41 5 -61.5 t5 -30.5q0 -47 -199 -47q-200 0 -200 47zM670 1575q0 41 43.5 77t99.5 36q33 0 54.5 -16t21.5 -42q0 -40 -43.5 -77t-100.5 -37q-34 0 -54.5 16.5t-20.5 42.5zM1049 1575q0 41 43.5 77t99.5 36q33 0 54.5 -16t21.5 -42q0 -41 -42.5 -77.5t-101.5 -36.5q-33 0 -54 16.5 t-21 42.5z" />
<glyph unicode="&#xd0;" horiz-adv-x="1224" d="M-57 -63q0 12 21 55.5t69.5 130t87.5 153.5t116.5 199.5t114.5 196.5h-164q-28 0 -28 20q0 27 38.5 74t100.5 47h133q135 231 195 367q47 104 47 186v16q0 60 342 60q508 0 508 -346q0 -76 -21 -172.5t-65.5 -205.5t-106.5 -217t-150.5 -207t-191.5 -175t-236.5 -121 t-277.5 -45q-54 0 -94.5 3.5t-57.5 7t-38.5 9t-28.5 7.5q-6 2 -20 2q-12 0 -23 -3t-15 -7l-5 -3q-72 -59 -189 -59q-61 0 -61 27zM338 158q0 -39 44.5 -60.5t129.5 -21.5q104 0 209 61t190 158.5t160 217t125.5 237.5t79.5 219.5t29 163.5q0 98 -51 143t-169 45 q-82 0 -131 -57q-99 -126 -288 -451q36 0 103 1t99 1q29 0 29 -20q0 -27 -38.5 -74t-100.5 -47h-174q-246 -444 -246 -516z" />
<glyph unicode="&#xd1;" horiz-adv-x="1120" d="M-63 -39q0 27 104.5 195.5t281 463t302.5 549.5q47 94 47 170v33q0 7 3 15t18 20.5t39.5 21.5t72.5 16t113 7q14 0 32.5 -1.5t50.5 -6.5t53 -18t21 -33q0 -24 -42 -207.5t-84 -389.5t-42 -286q0 -51 17 -51q25 0 51.5 26t40.5 52l14 26q104 170 192.5 340t131.5 266 t82 168t69 93q51 30 144 30q73 0 73 -24v-4q0 -10 -43 -76t-119 -179t-163 -248t-192.5 -314t-190.5 -345q-58 -135 -58 -213q0 -18 -5 -28t-26 -21.5t-71.5 -16.5t-132.5 -5q-5 0 -13.5 0.5t-30.5 3.5t-39 9t-30.5 18.5t-13.5 29.5q0 91 66.5 457.5t66.5 386.5q0 55 -22 55 q-21 0 -57.5 -42.5t-62.5 -85.5l-26 -42q-104 -170 -188.5 -334t-122 -252.5t-72.5 -153.5t-65 -85q-38 -27 -93 -27q-81 0 -81 31v6zM1006 1559q0 27 58 75.5t93 48.5q73 -32 227 -32q29 0 70.5 3t72 6t34.5 3q14 0 14 -12q0 -11 -12.5 -27t-42 -35t-71.5 -35t-109.5 -27 t-147.5 -11q-186 0 -186 43z" />
<glyph unicode="&#xd2;" horiz-adv-x="1232" d="M162 319q0 80 24 180.5t71 209t111 216t151 204t184 170.5t216 117.5t242 43.5q173 0 271 -94t98 -262q0 -80 -24 -180.5t-71 -209.5t-111.5 -216.5t-151 -204t-184 -171t-216.5 -118t-242 -43.5q-172 0 -270 95t-98 263zM414 311q0 -225 164 -225q102 0 229 106.5 t232 261t177 339t72 329.5q0 226 -164 226q-69 0 -151 -49.5t-159 -130.5t-150.5 -189t-128.5 -221.5t-88 -231.5t-33 -215zM1073 1692q0 33 43.5 57.5t69.5 24.5q9 0 15.5 -5t10 -10.5t10.5 -20t11 -22.5q20 -36 51 -80.5t50 -70.5t18 -31q0 -12 -21 -12h-14 q-48 8 -146 72.5t-98 97.5z" />
<glyph unicode="&#xd3;" horiz-adv-x="1232" d="M162 319q0 -168 98 -263t270 -95q123 0 242 43.5t216.5 118t184 171t151 204t111.5 216.5t71 209.5t24 180.5q0 168 -98 262t-271 94q-123 0 -242 -43.5t-216 -117.5t-184 -170.5t-151 -204t-111 -216t-71 -209t-24 -180.5zM414 311q0 97 33 215t88 231.5t128.5 221.5 t150.5 189t159 130.5t151 49.5q164 0 164 -226q0 -145 -72 -329.5t-177 -339t-232 -261t-229 -106.5q-164 0 -164 225zM1114 1532q0 6 23 29.5t61.5 62t63.5 70.5q5 7 14 20.5t13 17.5t11 8.5t15 4.5q23 0 62.5 -31.5t39.5 -64.5t-109 -83t-159 -50q-35 0 -35 16z" />
<glyph unicode="&#xd4;" horiz-adv-x="1232" d="M162 319q0 -168 98 -263t270 -95q123 0 242 43.5t216.5 118t184 171t151 204t111.5 216.5t71 209.5t24 180.5q0 168 -98 262t-271 94q-123 0 -242 -43.5t-216 -117.5t-184 -170.5t-151 -204t-111 -216t-71 -209t-24 -180.5zM414 311q0 97 33 215t88 231.5t128.5 221.5 t150.5 189t159 130.5t151 49.5q164 0 164 -226q0 -145 -72 -329.5t-177 -339t-232 -261t-229 -106.5q-164 0 -164 225zM1016 1540q0 6 21 28t56.5 58.5t59.5 67.5q4 4 14 18t20 21.5t23 7.5q39 0 68 -29q10 -8 22 -8q10 0 19 6q56 33 98 33q21 -3 21 -23q0 -8 -6 -26 q-6 -20 -41 -158q0 -27 -19 -27t-42 24.5t-42 59.5q-6 13 -18 13q-8 0 -21 -9q-42 -28 -96.5 -50.5t-81.5 -22.5q-55 0 -55 16z" />
<glyph unicode="&#xd5;" horiz-adv-x="1232" d="M162 319q0 80 24 180.5t71 209t111 216t151 204t184 170.5t216 117.5t242 43.5q173 0 271 -94t98 -262q0 -80 -24 -180.5t-71 -209.5t-111.5 -216.5t-151 -204t-184 -171t-216.5 -118t-242 -43.5q-172 0 -270 95t-98 263zM414 311q0 -225 164 -225q102 0 229 106.5 t232 261t177 339t72 329.5q0 226 -164 226q-69 0 -151 -49.5t-159 -130.5t-150.5 -189t-128.5 -221.5t-88 -231.5t-33 -215zM1006 1559q0 27 58 75.5t93 48.5q73 -32 227 -32q29 0 70.5 3t72 6t34.5 3q14 0 14 -12q0 -11 -12.5 -27t-42 -35t-71.5 -35t-109.5 -27t-147.5 -11 q-186 0 -186 43z" />
<glyph unicode="&#xd6;" horiz-adv-x="1232" d="M162 319q0 80 24 180.5t71 209t111 216t151 204t184 170.5t216 117.5t242 43.5q173 0 271 -94t98 -262q0 -80 -24 -180.5t-71 -209.5t-111.5 -216.5t-151 -204t-184 -171t-216.5 -118t-242 -43.5q-172 0 -270 95t-98 263zM414 311q0 -225 164 -225q102 0 229 106.5 t232 261t177 339t72 329.5q0 226 -164 226q-69 0 -151 -49.5t-159 -130.5t-150.5 -189t-128.5 -221.5t-88 -231.5t-33 -215zM981 1579q0 41 43.5 77t99.5 36q33 0 54.5 -16t21.5 -42q0 -40 -43 -77t-100 -37q-34 0 -55 16.5t-21 42.5zM1360 1579q0 41 43.5 77t99.5 36 q33 0 54.5 -16t21.5 -42q0 -41 -42 -77.5t-101 -36.5q-33 0 -54.5 16.5t-21.5 42.5z" />
<glyph unicode="&#xd7;" horiz-adv-x="974" d="M119 295q0 7 8.5 17t16.5 16l8 6q158 124 522 430q-23 149 -66 356q0 47 56 47h12q56 0 73.5 -10t24.5 -57l35 -223q164 136 276 233q69 59 179 59q79 0 79 -20q0 -7 -8.5 -17t-16.5 -16l-9 -6q-200 -159 -475 -387q53 -317 73 -395q4 -9 4 -19q0 -35 -65 -35 q-39 0 -69.5 16.5t-35.5 53.5l-43 266q-154 -126 -323 -274q-70 -62 -176 -62q-80 0 -80 21z" />
<glyph unicode="&#xd8;" horiz-adv-x="1232" d="M100 8q0 12 15 27l90 92q-43 79 -43 192q0 80 24 180.5t71 209t111 216t151 204t184 170.5t216 117.5t242 43.5q163 0 262 -86l4 4q45 49 123 49q54 0 54 -22q0 -10 -15 -25l-61 -59l-37 -37q39 -80 39 -180q0 -80 -24 -180.5t-71 -209.5t-111.5 -216.5t-151 -204 t-184 -171t-216.5 -118t-242 -43.5q-154 0 -249 76l-2 -2q-45 -47 -123 -47q-56 0 -56 20zM414 338q494 497 864 883q-28 127 -154 127q-100 0 -224.5 -102.5t-228 -252t-177 -330t-80.5 -325.5zM428 193q35 -107 150 -107q78 0 173 63.5t183.5 170t165 233t126.5 265.5 t60 255q-432 -439 -858 -880z" />
<glyph unicode="&#xd9;" horiz-adv-x="1030" d="M102 215q0 64 55.5 187t126.5 242.5t168.5 286.5t151.5 273q62 123 62 197q0 21 12 33t59 20t137 8q111 0 111 -43q0 -8 -3.5 -16.5t-7.5 -13.5l-3 -5q-55 -77 -184.5 -286.5t-262.5 -460t-133 -328.5q0 -162 148 -162q53 0 99 14t74.5 31t56.5 47.5t39.5 47t29.5 45.5 q82 125 213.5 392t234.5 475t139 237q22 18 54.5 27t53.5 10.5t58 1.5q92 0 92 -25q0 -16 -30 -51q-40 -50 -110 -155.5t-162 -256.5t-157.5 -259t-160.5 -268.5t-107 -180.5q-196 -330 -512 -330q-148 0 -245 69.5t-97 196.5zM1069 1686q0 33 43.5 57t69.5 24q9 0 16 -5 t10 -10t10 -20t11 -22q20 -36 51 -80.5t50 -70.5t18 -31q0 -12 -21 -12h-14q-48 8 -146 72.5t-98 97.5z" />
<glyph unicode="&#xda;" horiz-adv-x="1030" d="M102 215q0 -127 97 -196.5t245 -69.5q316 0 512 330q12 20 107 180.5t160.5 268.5t157.5 259t162 256.5t110 155.5q30 35 30 51q0 25 -92 25q-37 0 -58 -1.5t-53.5 -10.5t-54.5 -27q-36 -29 -139 -237t-234.5 -475t-213.5 -392q-18 -29 -29.5 -45.5t-39.5 -47 t-56.5 -47.5t-74.5 -31t-99 -14q-148 0 -148 162q0 78 133 328.5t262.5 460t184.5 286.5q14 17 14 35q0 43 -111 43q-90 0 -137 -8t-59 -20t-12 -33q0 -74 -62 -197q-54 -106 -151.5 -273t-168.5 -286.5t-126.5 -242.5t-55.5 -187zM1128 1544q0 6 23 29.5t61.5 62t63.5 70.5 q5 7 14 20.5t13 17.5t11 8.5t15 4.5q23 0 63 -31.5t40 -64.5t-109.5 -83t-159.5 -50q-35 0 -35 16z" />
<glyph unicode="&#xdb;" horiz-adv-x="1030" d="M102 215q0 -127 97 -196.5t245 -69.5q316 0 512 330q12 20 107 180.5t160.5 268.5t157.5 259t162 256.5t110 155.5q30 35 30 51q0 25 -92 25q-37 0 -58 -1.5t-53.5 -10.5t-54.5 -27q-36 -29 -139 -237t-234.5 -475t-213.5 -392q-18 -29 -29.5 -45.5t-39.5 -47 t-56.5 -47.5t-74.5 -31t-99 -14q-148 0 -148 162q0 78 133 328.5t262.5 460t184.5 286.5q14 17 14 35q0 43 -111 43q-90 0 -137 -8t-59 -20t-12 -33q0 -74 -62 -197q-54 -106 -151.5 -273t-168.5 -286.5t-126.5 -242.5t-55.5 -187zM1030 1550q0 6 21 28t56.5 58.5t59.5 67.5 q4 4 14.5 18t20.5 21.5t23 7.5q38 0 67 -29q11 -8 23 -8q9 0 18 6q56 33 99 33q20 -3 20 -22q0 -9 -6 -27q-6 -20 -41 -158q0 -26 -19 -26t-41.5 24.5t-41.5 59.5q-6 12 -19 12q-8 0 -20 -8q-42 -28 -97 -51t-82 -23q-55 0 -55 16z" />
<glyph unicode="&#xdc;" horiz-adv-x="1030" d="M102 215q0 64 55.5 187t126.5 242.5t168.5 286.5t151.5 273q62 123 62 197q0 21 12 33t59 20t137 8q111 0 111 -43q0 -8 -3.5 -16.5t-7.5 -13.5l-3 -5q-55 -77 -184.5 -286.5t-262.5 -460t-133 -328.5q0 -162 148 -162q53 0 99 14t74.5 31t56.5 47.5t39.5 47t29.5 45.5 q82 125 213.5 392t234.5 475t139 237q22 18 54.5 27t53.5 10.5t58 1.5q92 0 92 -25q0 -16 -30 -51q-40 -50 -110 -155.5t-162 -256.5t-157.5 -259t-160.5 -268.5t-107 -180.5q-196 -330 -512 -330q-148 0 -245 69.5t-97 196.5zM975 1599q0 41 43.5 77t99.5 36 q33 0 54.5 -15.5t21.5 -41.5q0 -41 -43 -78t-100 -37q-34 0 -55 16.5t-21 42.5zM1354 1599q0 41 43.5 77t99.5 36q33 0 54.5 -15.5t21.5 -41.5q0 -41 -42 -78t-101 -37q-33 0 -54.5 16.5t-21.5 42.5z" />
<glyph unicode="&#xdd;" horiz-adv-x="727" d="M35 -18v-7q0 -34 115 -34q70 0 116 41q33 23 85.5 108t100.5 179t107 193.5t100 143.5q148 158 468 426.5t452 343.5q35 20 35 41q0 37 -117 37q-129 0 -209 -33q-13 -5 -22.5 -10t-18.5 -14t-12 -11.5t-13 -16t-12 -15.5q-60 -79 -215.5 -248.5t-281.5 -280.5 q-29 -26 -56 -26q-18 0 -28.5 16.5t-11.5 32.5l-1 16q5 81 38.5 276t33.5 246q0 8 -1.5 15t-10 19t-23 20.5t-44 15t-68.5 6.5q-174 0 -174 -41q0 -17 12 -37q12 -30 12 -114q0 -21 1 -89.5t1 -127.5q0 -347 -45 -494q-19 -63 -98 -200t-147 -249.5t-68 -127.5zM885 1524 q0 6 22.5 29t61 62t63.5 71q5 7 14 20.5t13 17.5t11 8.5t15 4.5q23 0 63 -32t40 -65t-109 -83t-159 -50q-35 0 -35 17z" />
<glyph unicode="&#xde;" horiz-adv-x="1181" d="M-57 -61q0 30 75 164t182 312t214 362t182 344.5t76 228.5v32q0 6 4 12.5t18.5 14t37 13.5t64 10t95.5 4q110 0 110 -41q0 -7 -4 -15.5t-8 -13.5l-4 -4q-37 -48 -123 -182q18 0 61 1t68 1q133 0 224.5 -19t142.5 -57t72.5 -87t21.5 -116q0 -35 -6 -76.5t-26 -101 t-51.5 -113.5t-89 -110t-131.5 -96.5t-186 -66.5t-247 -26q-178 0 -273 -44t-131 -128q-44 -104 -51 -127q-10 -30 -40 -52t-65.5 -32t-70 -16t-57.5 -7l-23 -1q-61 0 -61 26v7zM518 487q0 -28 29 -36.5t117 -8.5q95 0 176 20.5t137 53.5t101 77t71.5 87.5t44.5 88 t24.5 76.5t6.5 54q0 46 -15 78.5t-35 49t-54.5 26t-59.5 11t-64 1.5q-67 0 -133 -22.5t-82 -47.5q-41 -61 -152.5 -273.5t-111.5 -234.5z" />
<glyph unicode="&#xdf;" horiz-adv-x="1120" d="M-39 -29q0 21 144 263t321.5 545t235.5 435q73 172 491 172q28 0 55.5 -2t73 -7.5t82 -19.5t72 -34.5t55.5 -56t20 -80.5q0 -63 -38.5 -117t-96.5 -89t-126 -69.5t-126 -60.5t-96.5 -60t-38.5 -71q0 -28 16.5 -57t40 -55.5t47 -55t40 -65t16.5 -74.5q0 -80 -51.5 -158 t-134 -136.5t-192.5 -95t-222 -36.5q-156 0 -156 84q13 18 29 18l11 -1q11 -1 16 -1q89 0 200 45t194 122.5t83 156.5q0 50 -13.5 89.5t-33.5 62t-43.5 44t-43.5 37.5t-33.5 41.5t-13.5 56.5q0 35 39 66.5t97.5 55t127 54t127 62t97.5 82t39 110.5q0 103 -160 103 q-72 0 -139.5 -28t-102.5 -72q-93 -118 -340.5 -574t-300.5 -584q-14 -33 -60 -51t-77 -21t-63 -3q-68 0 -68 26v4z" />
<glyph unicode="&#xe0;" d="M33 41q0 56 24.5 131.5t69 159.5t115 165t154.5 146t196.5 105t232.5 40q13 0 36.5 -4.5t60 -16.5t61.5 -42t25 -72q0 -61 -35 -61q-14 0 -30 9.5t-33 21t-61 21t-106 9.5q-106 0 -212.5 -70.5t-172 -172.5t-65.5 -193q0 -18 11 -34.5t32 -16.5q61 0 157 85t189 245 q1 2 3 5.5t11.5 12.5t23 15.5t40 12t59.5 5.5q3 0 8 -0.5t18.5 -3t23.5 -6t18 -9.5t8 -14q0 -2 -4 -10q-9 -14 -25 -38t-57 -92.5t-74 -130.5t-63.5 -136.5t-38.5 -126.5q-1 -11 -7.5 -18t-13.5 -7q-40 0 -64 22t-30 45.5t-6 49.5q0 6 2 21.5t2 21.5q0 16 -12 16 q-14 0 -41 -22t-62 -53.5t-77 -63.5t-97 -54t-110 -22q-84 0 -84 125zM614 1053q0 33 43.5 57.5t69.5 24.5q9 0 15.5 -5t10 -10.5t10.5 -20t11 -22.5q20 -36 51 -80.5t50 -70.5t18 -31q0 -12 -21 -12h-14q-48 8 -146 72.5t-98 97.5z" />
<glyph unicode="&#xe1;" d="M33 41q0 -125 84 -125q55 0 110 22t97 53.5t77 63.5t62 54t41 22q12 0 12 -16q0 -6 -2 -21.5t-2 -21.5q0 -26 6 -49.5t30 -45.5t64 -22q7 0 13.5 7t7.5 18q12 82 76.5 213t122.5 221l59 90q4 8 4 10q0 12 -19 20t-38 10l-19 3q-33 0 -59.5 -5.5t-40.5 -12.5t-23 -14.5 t-12 -12.5l-2 -6q-93 -160 -189 -245t-157 -85q-21 0 -32 16.5t-11 34.5q0 91 65.5 193t172 172.5t212.5 70.5q62 0 106 -9.5t61 -21t33 -21t30 -9.5q35 0 35 61q0 42 -25 72t-61.5 42t-60 16.5t-36.5 4.5q-120 0 -232.5 -40t-196.5 -105t-154.5 -146t-115 -165t-69 -159.5 t-24.5 -131.5zM711 915q0 6 22.5 29t61 62t63.5 71q5 7 14 20.5t13 17.5t11 8.5t15 4.5q23 0 63 -31.5t40 -64.5t-109.5 -83t-159.5 -50q-16 0 -24 3.5t-9 6t-1 6.5z" />
<glyph unicode="&#xe2;" d="M33 41q0 -125 84 -125q55 0 110 22t97 53.5t77 63.5t62 54t41 22q12 0 12 -16q0 -6 -2 -21.5t-2 -21.5q0 -26 6 -49.5t30 -45.5t64 -22q7 0 13.5 7t7.5 18q12 82 76.5 213t122.5 221l59 90q4 8 4 10q0 12 -19 20t-38 10l-19 3q-33 0 -59.5 -5.5t-40.5 -12.5t-23 -14.5 t-12 -12.5l-2 -6q-93 -160 -189 -245t-157 -85q-21 0 -32 16.5t-11 34.5q0 91 65.5 193t172 172.5t212.5 70.5q62 0 106 -9.5t61 -21t33 -21t30 -9.5q35 0 35 61q0 42 -25 72t-61.5 42t-60 16.5t-36.5 4.5q-120 0 -232.5 -40t-196.5 -105t-154.5 -146t-115 -165t-69 -159.5 t-24.5 -131.5zM598 918q0 6 21 27.5t56.5 58t59.5 67.5q4 4 14.5 18t20.5 21.5t23 7.5q39 0 67 -28q11 -9 23 -9q9 0 18 6q56 33 98 33q21 -3 21 -22q0 -9 -6 -27q-6 -20 -41 -158q0 -26 -19 -26t-42 24.5t-42 59.5q-6 12 -18 12q-9 0 -21 -8q-42 -28 -96.5 -51t-81.5 -23 q-55 0 -55 17z" />
<glyph unicode="&#xe3;" d="M33 41q0 56 24.5 131.5t69 159.5t115 165t154.5 146t196.5 105t232.5 40q13 0 36.5 -4.5t60 -16.5t61.5 -42t25 -72q0 -61 -35 -61q-14 0 -30 9.5t-33 21t-61 21t-106 9.5q-106 0 -212.5 -70.5t-172 -172.5t-65.5 -193q0 -18 11 -34.5t32 -16.5q61 0 157 85t189 245 q1 2 3 5.5t11.5 12.5t23 15.5t40 12t59.5 5.5q3 0 8 -0.5t18.5 -3t23.5 -6t18 -9.5t8 -14q0 -2 -4 -10q-9 -14 -25 -38t-57 -92.5t-74 -130.5t-63.5 -136.5t-38.5 -126.5q-1 -11 -7.5 -18t-13.5 -7q-40 0 -64 22t-30 45.5t-6 49.5q0 6 2 21.5t2 21.5q0 16 -12 16 q-14 0 -41 -22t-62 -53.5t-77 -63.5t-97 -54t-110 -22q-84 0 -84 125zM623 920q0 27 46 75.5t72 48.5q62 -32 181 -32q57 0 133 12h4q10 0 10 -12q0 -11 -9.5 -27t-33 -35t-56.5 -35t-86 -27t-116 -11q-145 0 -145 43z" />
<glyph unicode="&#xe4;" d="M33 41q0 56 24.5 131.5t69 159.5t115 165t154.5 146t196.5 105t232.5 40q13 0 36.5 -4.5t60 -16.5t61.5 -42t25 -72q0 -61 -35 -61q-14 0 -30 9.5t-33 21t-61 21t-106 9.5q-106 0 -212.5 -70.5t-172 -172.5t-65.5 -193q0 -18 11 -34.5t32 -16.5q61 0 157 85t189 245 q1 2 3 5.5t11.5 12.5t23 15.5t40 12t59.5 5.5q3 0 8 -0.5t18.5 -3t23.5 -6t18 -9.5t8 -14q0 -2 -4 -10q-9 -14 -25 -38t-57 -92.5t-74 -130.5t-63.5 -136.5t-38.5 -126.5q-1 -11 -7.5 -18t-13.5 -7q-40 0 -64 22t-30 45.5t-6 49.5q0 6 2 21.5t2 21.5q0 16 -12 16 q-14 0 -41 -22t-62 -53.5t-77 -63.5t-97 -54t-110 -22q-84 0 -84 125zM549 969q0 41 43.5 76.5t99.5 35.5q33 0 54.5 -15.5t21.5 -41.5q0 -41 -43 -78t-100 -37q-34 0 -55 17t-21 43zM928 969q0 41 43.5 76.5t99.5 35.5q33 0 54.5 -15.5t21.5 -41.5q0 -41 -42 -78t-101 -37 q-32 0 -54 17t-22 43z" />
<glyph unicode="&#xe5;" d="M33 41q0 -125 84 -125q55 0 110 22t97 53.5t77 63.5t62 54t41 22q12 0 12 -16q0 -6 -2 -21.5t-2 -21.5q0 -26 6 -49.5t30 -45.5t64 -22q7 0 13.5 7t7.5 18q12 82 76.5 213t122.5 221l59 90q4 8 4 10q0 12 -19 20t-38 10l-19 3q-33 0 -59.5 -5.5t-40.5 -12.5t-23 -14.5 t-12 -12.5l-2 -6q-93 -160 -189 -245t-157 -85q-21 0 -32 16.5t-11 34.5q0 91 65.5 193t172 172.5t212.5 70.5q62 0 106 -9.5t61 -21t33 -21t30 -9.5q35 0 35 61q0 42 -25 72t-61.5 42t-60 16.5t-36.5 4.5q-120 0 -232.5 -40t-196.5 -105t-154.5 -146t-115 -165t-69 -159.5 t-24.5 -131.5zM686 956q0 64 62.5 111t132.5 47q45 0 75.5 -22t30.5 -58q0 -56 -59.5 -105.5t-136.5 -49.5q-45 0 -75 20.5t-30 56.5zM770 979q0 -15 13 -25t32 -10q36 0 61 22.5t25 47.5q0 15 -12.5 24t-32.5 9q-33 0 -59.5 -22t-26.5 -46z" />
<glyph unicode="&#xe6;" horiz-adv-x="1161" d="M33 41q0 56 24.5 131.5t69 159.5t115 165t154.5 146t196.5 105t232.5 40q9 0 27.5 -2.5t50.5 -13t55 -27.5q96 41 207 41q19 0 39 -5t44 -18t39.5 -43.5t15.5 -74.5q0 -90 -49 -172.5t-121.5 -137t-149.5 -89t-139 -39.5q-72 -6 -98.5 -29t-26.5 -90q0 -43 12.5 -73.5 t30.5 -44.5t36.5 -22.5t31 -16t12.5 -17.5q0 -29 -30.5 -45t-68.5 -16q-113 0 -171 73.5t-58 182.5v16q-6 6 -10 6q-14 0 -41 -22t-62 -53.5t-77 -63.5t-97 -54t-110 -22q-84 0 -84 125zM293 217q0 -18 11 -34.5t32 -16.5q39 0 99 40t126 116q35 91 96 177.5t142 151.5 q-7 0 -26 1t-30 1q-106 0 -212.5 -70.5t-172 -172.5t-65.5 -193zM766 336q0 -3 1 -6.5t9.5 -10t24.5 -6.5q50 0 119.5 36t126.5 104t57 141q0 63 -57 63q-53 0 -120 -54.5t-114 -131t-47 -135.5z" />
<glyph unicode="&#xe7;" horiz-adv-x="696" d="M61 133q0 58 27 136.5t80 162t122 154.5t163.5 116.5t193.5 45.5q5 0 17 -1.5t18 -1.5q36 0 55 35l2.5 5t10.5 10.5t22 13.5t38.5 11t57.5 5q4 0 10.5 -0.5t22.5 -3t28.5 -7t23 -13.5t10.5 -21q0 -4 -19 -24.5t-50.5 -53.5t-66 -74t-71 -97.5t-60.5 -112.5 q-5 -12 -24 -12q-34 0 -51 25.5t-17 60.5q0 24 7 46.5t7 32.5q0 15 -11 27t-32 12q-61 0 -119.5 -42t-97.5 -102.5t-62.5 -126t-23.5 -114.5q0 -149 146 -149q44 0 82.5 10t54.5 20l16 11q14 12 29 12q12 0 17.5 -8.5t5.5 -14.5q0 -20 -21.5 -50t-59 -61t-99.5 -54t-132 -27 q-19 -6 -33 -24t-14 -35q0 -18 21.5 -38t21.5 -48q0 -31 -34 -59.5t-101 -28.5q-36 0 -61 20t-25 37q0 16 12 16q6 0 15 -6q18 -12 49 -12q25 0 46 13.5t21 39.5q0 17 -18 32.5t-18 24.5v2q3 30 53 54q6 3 6 6q0 2 -4 6q-55 6 -94 28.5t-58 55.5t-27 66t-8 69z" />
<glyph unicode="&#xe8;" horiz-adv-x="708" d="M61 139q0 59 20 131t56.5 148t94.5 147.5t127.5 127.5t161.5 90t192 34q14 0 29.5 -2.5t35.5 -11.5t35 -23.5t26 -41t11 -62.5q0 -90 -49 -172.5t-121.5 -137t-149.5 -89t-139 -39.5q-72 -6 -98.5 -29t-26.5 -90q0 -43 12.5 -73.5t31 -44.5t36.5 -22.5t30.5 -16 t12.5 -17.5q0 -29 -30.5 -45.5t-67.5 -16.5q-119 0 -174.5 71t-55.5 185zM313 367q0 -3 1 -6.5t9.5 -10t24.5 -6.5q50 0 119.5 36t126.5 104t57 141q0 63 -57 63q-53 0 -120 -54.5t-114 -131t-47 -135.5zM510 1053q0 33 43.5 57.5t69.5 24.5q9 0 15.5 -5t10 -10.5t10.5 -20 t11 -22.5q20 -36 50.5 -80.5t49.5 -70.5t18 -31q0 -4 -0.5 -6t-5.5 -4t-14 -2h-14q-48 8 -146 72.5t-98 97.5z" />
<glyph unicode="&#xe9;" horiz-adv-x="708" d="M61 139q0 -114 55.5 -185t174.5 -71q37 0 67.5 16.5t30.5 45.5q0 10 -12.5 17.5t-30.5 16t-36.5 22.5t-31 44.5t-12.5 73.5q0 67 26.5 90t98.5 29q62 5 139 39.5t149.5 89t121.5 137t49 172.5q0 36 -11 62.5t-26 41t-35 23.5t-35.5 11.5t-29.5 2.5q-100 0 -192 -34 t-161.5 -90t-127.5 -127.5t-94.5 -147.5t-56.5 -148t-20 -131zM313 367q0 59 47 135.5t114 131t120 54.5q57 0 57 -63q0 -73 -57 -141t-126.5 -104t-119.5 -36q-16 0 -24.5 6t-9.5 12zM659 915q0 6 23 29.5t61.5 62t63.5 70.5q5 7 14 20.5t13 17.5t11 8.5t15 4.5 q23 0 63 -31.5t40 -64.5t-109.5 -83t-159.5 -50q-35 0 -35 16z" />
<glyph unicode="&#xea;" horiz-adv-x="708" d="M61 139q0 -114 55.5 -185t174.5 -71q37 0 67.5 16.5t30.5 45.5q0 10 -12.5 17.5t-30.5 16t-36.5 22.5t-31 44.5t-12.5 73.5q0 67 26.5 90t98.5 29q62 5 139 39.5t149.5 89t121.5 137t49 172.5q0 36 -11 62.5t-26 41t-35 23.5t-35.5 11.5t-29.5 2.5q-100 0 -192 -34 t-161.5 -90t-127.5 -127.5t-94.5 -147.5t-56.5 -148t-20 -131zM313 367q0 59 47 135.5t114 131t120 54.5q57 0 57 -63q0 -73 -57 -141t-126.5 -104t-119.5 -36q-16 0 -24.5 6t-9.5 12zM479 918q0 6 21 27.5t56.5 58t59.5 67.5q4 4 14.5 18t20.5 21.5t23 7.5q39 0 67 -28 q11 -9 23 -9q9 0 18 6q56 33 99 33q20 -3 20 -22q0 -9 -6 -27q-6 -20 -41 -158q0 -26 -18 -26q-19 0 -42 24.5t-42 59.5q-6 12 -19 12q-8 0 -20 -8q-42 -28 -96.5 -51t-81.5 -23q-56 0 -56 17z" />
<glyph unicode="&#xeb;" horiz-adv-x="708" d="M61 139q0 59 20 131t56.5 148t94.5 147.5t127.5 127.5t161.5 90t192 34q14 0 29.5 -2.5t35.5 -11.5t35 -23.5t26 -41t11 -62.5q0 -90 -49 -172.5t-121.5 -137t-149.5 -89t-139 -39.5q-72 -6 -98.5 -29t-26.5 -90q0 -43 12.5 -73.5t31 -44.5t36.5 -22.5t30.5 -16 t12.5 -17.5q0 -29 -30.5 -45.5t-67.5 -16.5q-119 0 -174.5 71t-55.5 185zM313 367q0 -3 1 -6.5t9.5 -10t24.5 -6.5q50 0 119.5 36t126.5 104t57 141q0 63 -57 63q-53 0 -120 -54.5t-114 -131t-47 -135.5zM457 969q0 41 43.5 76.5t99.5 35.5q33 0 54.5 -15.5t21.5 -41.5 q0 -40 -43.5 -77.5t-100.5 -37.5q-34 0 -54.5 17t-20.5 43zM836 969q0 41 43.5 76.5t99.5 35.5q33 0 54.5 -15.5t21.5 -41.5q0 -41 -42.5 -78t-101.5 -37q-32 0 -53.5 17t-21.5 43z" />
<glyph unicode="&#xec;" horiz-adv-x="421" d="M49 18q0 30 66.5 157t135 271.5t71.5 215.5q1 15 10 28t18 19l8 6q7 4 21.5 10.5t65.5 17.5t108 11q25 0 52.5 -9t27.5 -26q0 -8 -6 -14q-79 -99 -228 -355t-225 -416q-11 -38 -27 -38q-30 0 -64 35t-34 87zM354 1053q0 33 43.5 57.5t69.5 24.5q9 0 15.5 -5t10 -10.5 t10.5 -20t11 -22.5q20 -36 51 -80.5t50 -70.5t18 -31q0 -12 -21 -12h-14q-48 8 -146 72.5t-98 97.5z" />
<glyph unicode="&#xed;" horiz-adv-x="421" d="M49 18q0 -52 34 -87t64 -35q7 0 14 9.5t10 18.5l3 10q76 160 225 416t228 355q6 6 6 14q0 17 -27.5 26t-52.5 9q-57 0 -106 -10t-69 -20l-20 -9q-34 -20 -36 -53q-3 -71 -71.5 -215.5t-135 -271.5t-66.5 -157zM481 915q0 6 23 29.5t61.5 62t63.5 70.5q5 7 14 20.5 t13 17.5t11 8.5t15 4.5q23 0 62.5 -31.5t39.5 -64.5t-109 -83t-159 -50q-35 0 -35 16z" />
<glyph unicode="&#xee;" horiz-adv-x="421" d="M49 18q0 -52 34 -87t64 -35q7 0 14 9.5t10 18.5l3 10q76 160 225 416t228 355q6 6 6 14q0 17 -27.5 26t-52.5 9q-57 0 -106 -10t-69 -20l-20 -9q-34 -20 -36 -53q-3 -71 -71.5 -215.5t-135 -271.5t-66.5 -157zM365 918q0 6 21 27.5t56.5 58t59.5 67.5q4 4 14 18t20 21.5 t23 7.5q40 0 68 -28q10 -9 22 -9q10 0 19 6q56 33 98 33q20 -3 20 -22q0 -9 -6 -27q-6 -20 -41 -158q0 -26 -18 -26q-19 0 -42 24.5t-42 59.5q-6 12 -19 12q-8 0 -20 -8q-42 -28 -96.5 -51t-81.5 -23q-55 0 -55 17z" />
<glyph unicode="&#xef;" horiz-adv-x="421" d="M49 18q0 30 66.5 157t135 271.5t71.5 215.5q1 15 10 28t18 19l8 6q7 4 21.5 10.5t65.5 17.5t108 11q25 0 52.5 -9t27.5 -26q0 -8 -6 -14q-79 -99 -228 -355t-225 -416q-11 -38 -27 -38q-30 0 -64 35t-34 87zM319 969q0 41 44 76.5t100 35.5q33 0 54.5 -15.5t21.5 -41.5 q0 -40 -43.5 -77.5t-100.5 -37.5q-34 0 -55 17t-21 43zM698 969q0 41 44 76.5t100 35.5q33 0 54.5 -15.5t21.5 -41.5q0 -41 -42.5 -78t-101.5 -37q-32 0 -54 17t-22 43z" />
<glyph unicode="&#xf0;" horiz-adv-x="868" d="M51 84q0 58 23 131t63 148.5t100 147.5t129 128.5t155 90.5t173 34q51 0 85 -6t48.5 -12.5t18.5 -6.5q13 0 22 9q16 21 42 58.5t86.5 142.5t97.5 198q-138 -53 -199 -82q-11 -6 -21 -6q-16 0 -16 33q0 86 57 108q156 60 226 86q16 69 16 125q0 34 -7 65t-16.5 51 t-19.5 34.5t-17 20.5l-7 7l-27 19q0 8 7.5 15t15.5 10l8 3q59 0 104.5 -24.5t72 -64.5t39.5 -85t13 -92v-16q91 36 147 63q11 6 21 6q14 0 14 -34q0 -85 -57 -107q-97 -40 -152 -59q-15 -46 -36.5 -95.5t-51 -104t-50 -90t-56 -94.5t-45.5 -77q-11 -20 -124.5 -208 t-190.5 -333t-107 -241q-7 -23 -25 -23q-47 0 -73.5 29t-26.5 80l4 40q0 9 -3.5 14t-6.5 6l-4 1q-8 0 -16 -3.5t-12 -7.5l-5 -3q-62 -59 -114.5 -97t-91 -52t-59 -17.5t-44.5 -3.5q-40 0 -73.5 32.5t-33.5 108.5zM287 217q0 -61 43 -61q58 0 165.5 96.5t190 203.5t82.5 142 q0 20 -24 39.5t-76 19.5q-60 0 -130 -49t-124 -117.5t-90.5 -144.5t-36.5 -129z" />
<glyph unicode="&#xf1;" horiz-adv-x="980" d="M-4 33q0 31 96.5 201.5t212 338t158.5 183.5q35 20 94 20q49 0 49 -20q0 -22 -49 -94t-49 -93q4 -16 20 -16q10 0 21 8q133 104 253.5 170t229.5 66q76 0 76 -88q0 -40 -53.5 -167.5t-129.5 -268.5t-172 -251t-169 -110q-58 0 -58 27l4 12q39 58 98 153.5t130 233.5 t71 190q0 16 -8 25.5t-16 10.5l-8 1q-62 0 -155 -59t-182 -143.5t-160.5 -163t-109.5 -131.5q-45 -62 -141 -62q-53 0 -53 27zM594 920q0 26 46.5 75t72.5 49q61 -32 180 -32q57 0 133 12h4q10 0 10 -12q0 -11 -9.5 -27t-33 -35t-56.5 -35t-86 -27t-116 -11q-145 0 -145 43z " />
<glyph unicode="&#xf2;" horiz-adv-x="851" d="M70 195q0 97 52 206t137 201.5t208.5 153.5t253.5 61q18 0 45 -6t60.5 -19.5t57 -43t23.5 -68.5q0 -32 -12 -57t-12 -33q0 -25 51 -25q26 0 47 10.5t25 10.5q16 0 16 -35q0 -49 -40.5 -105.5t-100.5 -83.5q-4 -9 -11.5 -24t-34.5 -59.5t-58 -84.5t-81.5 -89t-105 -84.5 t-128.5 -59.5t-153 -24q-19 0 -41 3t-60 18t-66.5 40.5t-50 76.5t-21.5 120zM274 190q0 -9 3.5 -24t13.5 -38.5t35.5 -39.5t62.5 -16q45 0 85.5 18.5t68.5 47.5t49 64t31 67t10 57q0 16 -25 16q-14 0 -33 -4.5t-31 -9.5l-12 -4q-14 -7 -16 -7q-12 0 -12 19q0 33 16.5 73 t40.5 64q19 21 50 36.5t52.5 23.5t37.5 34t16 70q0 23 -9.5 38.5t-23.5 21.5t-23.5 8t-17.5 2q-67 0 -136.5 -56.5t-119 -137t-81.5 -169.5t-32 -154zM584 1053q0 33 43 57.5t69 24.5q9 0 15.5 -5t10 -10.5t10.5 -20t11 -22.5q20 -36 51 -80.5t50 -70.5t18 -31q0 -4 -0.5 -6 t-5.5 -4t-14 -2h-15q-48 8 -145.5 72.5t-97.5 97.5z" />
<glyph unicode="&#xf3;" horiz-adv-x="851" d="M70 195q0 -69 21.5 -120t50 -76.5t66.5 -40.5t60 -18t41 -3q79 0 153 23.5t129.5 61t104 82.5t82 90.5t57.5 83t35 60.5l11 24q60 27 100.5 83.5t40.5 105.5q0 35 -16 35q-4 0 -25 -10.5t-47 -10.5q-51 0 -51 25q0 8 12 33t12 57q0 39 -23.5 68.5t-57 43t-60.5 19.5 t-45 6q-130 0 -253.5 -61t-208.5 -153.5t-137 -201.5t-52 -206zM274 190q0 65 32 154t81.5 169.5t119 137t136.5 56.5q8 0 17.5 -2t23.5 -8t23.5 -21.5t9.5 -38.5q0 -44 -16 -70t-37.5 -34t-52.5 -23.5t-50 -36.5q-24 -24 -40.5 -64t-16.5 -73q0 -19 12 -19q2 0 16 7 q45 18 76 18q25 0 25 -16q0 -25 -10 -57t-31 -67t-49 -64t-68.5 -47.5t-85.5 -18.5q-37 0 -62.5 16t-35.5 39.5t-13.5 38.5t-3.5 24zM629 915q0 6 22.5 29t61 62t63.5 71q5 7 14 20.5t13 17.5t11 8.5t15 4.5q23 0 63 -31.5t40 -64.5t-109 -83t-159 -50q-35 0 -35 16z" />
<glyph unicode="&#xf4;" horiz-adv-x="851" d="M70 195q0 -69 21.5 -120t50 -76.5t66.5 -40.5t60 -18t41 -3q79 0 153 23.5t129.5 61t104 82.5t82 90.5t57.5 83t35 60.5l11 24q60 27 100.5 83.5t40.5 105.5q0 35 -16 35q-4 0 -25 -10.5t-47 -10.5q-51 0 -51 25q0 8 12 33t12 57q0 39 -23.5 68.5t-57 43t-60.5 19.5 t-45 6q-130 0 -253.5 -61t-208.5 -153.5t-137 -201.5t-52 -206zM274 190q0 65 32 154t81.5 169.5t119 137t136.5 56.5q8 0 17.5 -2t23.5 -8t23.5 -21.5t9.5 -38.5q0 -44 -16 -70t-37.5 -34t-52.5 -23.5t-50 -36.5q-24 -24 -40.5 -64t-16.5 -73q0 -19 12 -19q2 0 16 7 q45 18 76 18q25 0 25 -16q0 -25 -10 -57t-31 -67t-49 -64t-68.5 -47.5t-85.5 -18.5q-37 0 -62.5 16t-35.5 39.5t-13.5 38.5t-3.5 24zM516 918q0 6 21 27.5t56.5 58t59.5 67.5q4 4 14.5 18t20.5 21.5t23 7.5q39 0 67 -28q11 -9 23 -9q9 0 18 6q56 33 99 33q20 -3 20 -22 q0 -9 -6 -27q-6 -20 -41 -158q0 -26 -19 -26t-42 24.5t-42 59.5q-6 12 -18 12q-8 0 -20 -8q-42 -28 -97 -51t-82 -23q-55 0 -55 17z" />
<glyph unicode="&#xf5;" horiz-adv-x="872" d="M90 195q0 97 52 206t137 201.5t208.5 153.5t253.5 61q18 0 45 -6t61 -19.5t57.5 -43t23.5 -68.5q0 -32 -12.5 -57t-12.5 -33q0 -25 51 -25q26 0 47 10.5t25 10.5q16 0 16 -35q0 -49 -40.5 -105.5t-100.5 -83.5q-4 -9 -11.5 -24t-34.5 -59.5t-57.5 -84.5t-81 -89 t-105 -84.5t-128.5 -59.5t-153 -24q-19 0 -41.5 3t-60 18t-66.5 40.5t-50.5 76.5t-21.5 120zM295 190q0 -9 3.5 -24t13.5 -38.5t35.5 -39.5t62.5 -16q56 0 104 28t77 69t45.5 83t16.5 74q0 16 -24 16q-14 0 -33 -4.5t-31 -9.5l-12 -4q-14 -7 -16 -7q-13 0 -13 19 q0 33 16.5 72.5t41.5 64.5q19 21 50 36.5t52 23.5t37 34t16 70q0 30 -17 47t-30.5 20t-25.5 3q-67 0 -136.5 -56.5t-119 -137t-81.5 -169.5t-32 -154zM573 920q0 26 46.5 75t72.5 49q61 -32 180 -32q58 0 134 12h4q10 0 10 -12q0 -11 -9.5 -27t-33 -35t-56.5 -35t-86 -27 t-116 -11q-146 0 -146 43z" />
<glyph unicode="&#xf6;" horiz-adv-x="872" d="M90 195q0 97 52 206t137 201.5t208.5 153.5t253.5 61q18 0 45 -6t61 -19.5t57.5 -43t23.5 -68.5q0 -32 -12.5 -57t-12.5 -33q0 -25 51 -25q26 0 47 10.5t25 10.5q16 0 16 -35q0 -49 -40.5 -105.5t-100.5 -83.5q-4 -9 -11.5 -24t-34.5 -59.5t-57.5 -84.5t-81 -89 t-105 -84.5t-128.5 -59.5t-153 -24q-19 0 -41.5 3t-60 18t-66.5 40.5t-50.5 76.5t-21.5 120zM295 190q0 -9 3.5 -24t13.5 -38.5t35.5 -39.5t62.5 -16q56 0 104 28t77 69t45.5 83t16.5 74q0 16 -24 16q-14 0 -33 -4.5t-31 -9.5l-12 -4q-14 -7 -16 -7q-13 0 -13 19 q0 33 16.5 72.5t41.5 64.5q19 21 50 36.5t52 23.5t37 34t16 70q0 30 -17 47t-30.5 20t-25.5 3q-67 0 -136.5 -56.5t-119 -137t-81.5 -169.5t-32 -154zM506 969q0 41 43.5 76.5t99.5 35.5q33 0 54.5 -15.5t21.5 -41.5q0 -41 -43 -78t-100 -37q-34 0 -55 17t-21 43zM885 969 q0 41 43.5 76.5t99.5 35.5q33 0 54.5 -15.5t21.5 -41.5q0 -41 -42 -78t-101 -37q-32 0 -54 17t-22 43z" />
<glyph unicode="&#xf7;" horiz-adv-x="1101" d="M274 682q0 27 44 80t106 53q64 0 278 -2t324 -2q62 0 152 2t110 2q29 0 29 -18q0 -16 -16.5 -45.5t-53 -58.5t-80.5 -29q-153 8 -415 8q-108 0 -266 -5t-185 -5t-27 20zM535 446q0 41 44 77t97 36q34 0 56.5 -15.5t23.5 -41.5q0 -42 -44.5 -78.5t-101.5 -36.5 q-34 0 -54.5 16t-20.5 43zM836 985q0 41 44.5 77t98.5 36q33 0 55 -16t23 -42q0 -40 -45 -77t-101 -37q-33 0 -54 16.5t-21 42.5z" />
<glyph unicode="&#xf8;" horiz-adv-x="872" d="M-45 -123q0 10 12 25q4 3 24.5 23.5t59.5 59t70 68.5q-31 60 -31 142q0 97 52 206t137 201.5t208.5 153.5t253.5 61q51 0 107 -26q129 132 172 180q43 47 154 47q57 0 57 -21q0 -10 -14 -24l-289 -295q-1 -31 -13 -55t-12 -33q0 -25 51 -25q26 0 47 10.5t25 10.5 q16 0 16 -35q0 -49 -40.5 -105.5t-100.5 -83.5q-4 -9 -11.5 -24t-34.5 -59.5t-57.5 -84.5t-81 -89t-105 -84.5t-128.5 -59.5t-153 -24q-57 0 -109 22l-55 -57q-19 -20 -58 -31.5t-61 -13.5t-39 -2h-2q-51 0 -51 22zM297 229q247 251 432 441q-7 15 -22.5 24t-25.5 11t-17 2 q-83 0 -166 -82.5t-135.5 -191.5t-65.5 -204zM348 86q24 -14 62 -14q56 0 104 28t77 69t45.5 83t16.5 74q0 16 -24 16q-19 0 -37 -6z" />
<glyph unicode="&#xf9;" horiz-adv-x="909" d="M61 68q0 79 72.5 256t179 337.5t185.5 180.5q27 8 69 8q47 0 47 -25q0 -8 -45.5 -76.5t-100.5 -151t-100.5 -180.5t-45.5 -159q0 -57 47 -57q88 0 202.5 114t300.5 363q52 74 164 74q62 0 62 -25q0 -7 -6 -16q-36 -56 -91 -144t-161 -279.5t-135 -287.5q-4 -12 -10.5 -18 t-11.5 -6l-5 -1q-42 0 -62 37.5t-20 93.5q0 18 4 47t4 31q0 6 -3.5 10t-6.5 4l-4 1q-8 0 -16 -3.5t-12 -7.5l-3 -4q-134 -129 -217 -177t-174 -48q-40 0 -73.5 25t-33.5 84zM649 1053q0 33 43.5 57.5t69.5 24.5q9 0 15.5 -5t10 -10.5t10.5 -20t11 -22.5q20 -36 51 -80.5 t50 -70.5t18 -31q0 -12 -21 -12h-14q-48 8 -146 72.5t-98 97.5z" />
<glyph unicode="&#xfa;" horiz-adv-x="909" d="M61 68q0 -59 33.5 -84t73.5 -25q91 0 174 48t217 177q13 15 31 15q14 -1 14 -15q0 -2 -4 -31t-4 -47q0 -56 20 -93.5t62 -37.5q19 -2 27 25q29 96 126 273.5t179 307.5l82 130q6 9 6 16q0 25 -62 25q-112 0 -164 -74q-186 -249 -300.5 -363t-202.5 -114q-47 0 -47 57 q0 61 45.5 159t100.5 180.5t100.5 151t45.5 76.5q0 25 -47 25q-42 0 -69 -8q-79 -20 -185.5 -180.5t-179 -337.5t-72.5 -256zM756 915q0 6 22.5 29t61 62t63.5 71q5 7 14 20.5t13 17.5t11 8.5t15 4.5q23 0 63 -31.5t40 -64.5t-109 -83t-159 -50q-35 0 -35 16z" />
<glyph unicode="&#xfb;" horiz-adv-x="909" d="M61 68q0 -59 33.5 -84t73.5 -25q91 0 174 48t217 177q13 15 31 15q14 -1 14 -15q0 -2 -4 -31t-4 -47q0 -56 20 -93.5t62 -37.5q19 -2 27 25q29 96 126 273.5t179 307.5l82 130q6 9 6 16q0 25 -62 25q-112 0 -164 -74q-186 -249 -300.5 -363t-202.5 -114q-47 0 -47 57 q0 61 45.5 159t100.5 180.5t100.5 151t45.5 76.5q0 25 -47 25q-42 0 -69 -8q-79 -20 -185.5 -180.5t-179 -337.5t-72.5 -256zM594 918q0 6 21 27.5t56.5 58t59.5 67.5q4 4 14 18t20 21.5t23 7.5q40 0 68 -28q11 -9 23 -9q9 0 18 6q56 33 98 33q21 -3 21 -22q0 -9 -6 -27 q-6 -20 -41 -158q0 -26 -19 -26t-42 24.5t-42 59.5q-6 12 -18 12q-9 0 -21 -8q-42 -28 -96.5 -51t-81.5 -23q-55 0 -55 17z" />
<glyph unicode="&#xfc;" horiz-adv-x="909" d="M61 68q0 79 72.5 256t179 337.5t185.5 180.5q27 8 69 8q47 0 47 -25q0 -8 -45.5 -76.5t-100.5 -151t-100.5 -180.5t-45.5 -159q0 -57 47 -57q88 0 202.5 114t300.5 363q52 74 164 74q62 0 62 -25q0 -7 -6 -16q-36 -56 -91 -144t-161 -279.5t-135 -287.5q-4 -12 -10.5 -18 t-11.5 -6l-5 -1q-42 0 -62 37.5t-20 93.5q0 18 4 47t4 31q0 6 -3.5 10t-6.5 4l-4 1q-8 0 -16 -3.5t-12 -7.5l-3 -4q-134 -129 -217 -177t-174 -48q-40 0 -73.5 25t-33.5 84zM575 969q0 41 44 76.5t100 35.5q33 0 54.5 -15.5t21.5 -41.5q0 -40 -43.5 -77.5t-100.5 -37.5 q-34 0 -55 17t-21 43zM954 969q0 41 44 76.5t100 35.5q33 0 54.5 -15.5t21.5 -41.5q0 -41 -42.5 -78t-101.5 -37q-32 0 -54 17t-22 43z" />
<glyph unicode="&#xfd;" horiz-adv-x="878" d="M-510 -1130q0 -76 23.5 -115t62.5 -39q93 0 209 83t227 211.5t233.5 305.5t221 342.5t195.5 345.5q103 190 210.5 379t163.5 283l56 94q6 9 6 16q0 25 -62 25q-54 0 -93 -16.5t-51.5 -30t-19.5 -27.5q-119 -198 -277.5 -346t-234.5 -148q-23 0 -33 11t-10 39 q0 68 66.5 178.5t132.5 197t66 95.5q0 20 -62 20q-31 0 -73.5 -15t-67.5 -40q-113 -113 -222.5 -321t-109.5 -304q0 -102 92 -102q130 0 357 196q18 21 41 21q16 0 16 -31q0 -12 -18.5 -55.5t-36.5 -80.5l-19 -38q-52 -105 -117 -226t-150 -266t-162.5 -259.5t-151 -191.5 t-117.5 -77q-37 0 -37 51q0 90 58.5 216.5t140.5 238t169 201.5t144 119q25 12 25 24q0 16 -31 16q-61 0 -143 -47.5t-165.5 -124.5t-165.5 -180t-145 -209.5t-102 -218t-39 -200.5zM709 915q0 6 22.5 29t61 62t63.5 71q5 7 14 20.5t13 17.5t11 8.5t15 4.5q23 0 63 -31.5 t40 -64.5t-109.5 -83t-159.5 -50q-16 0 -24 3.5t-9 6t-1 6.5z" />
<glyph unicode="&#xfe;" horiz-adv-x="831" d="M-612 -1049q0 72 206.5 444t511 886.5t383.5 656.5q91 166 195 346.5t165 284t62 106.5q49 90 230 90q61 0 61 -32q0 -14 -38.5 -70t-107 -150t-148 -208t-177 -272.5t-178.5 -313.5q0 -14 14 -14q12 0 39 15.5t57.5 34.5t79.5 34.5t99 15.5q41 0 73.5 -31.5t32.5 -107.5 q0 -82 -27 -168.5t-74.5 -166t-116 -150.5t-149 -123t-177 -82.5t-195.5 -30.5h-2q-90 0 -107 -19q-68 -88 -284.5 -504t-276.5 -585q-9 -25 -33 -25q-36 0 -77 44t-41 95zM225 150q0 -29 30.5 -49.5t72.5 -20.5q84 0 181.5 86t160.5 199t63 194q0 28 -12.5 46t-28.5 18 q-50 0 -108 -33t-108 -83.5t-97 -109.5t-80.5 -112.5t-53.5 -90.5t-20 -44z" />
<glyph unicode="&#xff;" horiz-adv-x="878" d="M-510 -1130q0 89 39 200.5t102 218t145 209.5t165.5 180t165.5 124.5t143 47.5q31 0 31 -16q0 -12 -25 -24q-57 -29 -144 -119t-169 -201.5t-140.5 -238t-58.5 -216.5q0 -51 37 -51q44 0 117.5 77t151 191.5t162.5 259.5t150 266t117 226q74 147 74 174q0 31 -16 31 q-10 0 -20.5 -5.5t-15.5 -10.5l-5 -5q-227 -196 -357 -196q-92 0 -92 102q0 96 109.5 304t222.5 321q25 25 67.5 40t73.5 15q62 0 62 -20q0 -9 -66 -95.5t-132.5 -197t-66.5 -178.5q0 -28 10 -39t33 -11q76 0 234.5 148t277.5 346q7 14 19.5 27.5t51.5 30t93 16.5 q62 0 62 -25q0 -7 -6 -16q-199 -329 -430 -756q-97 -180 -195.5 -345.5t-221 -342.5t-233.5 -305.5t-227 -211.5t-209 -83q-39 0 -62.5 39t-23.5 115zM539 1098q0 41 43.5 76.5t99.5 35.5q33 0 54.5 -15.5t21.5 -41.5q0 -40 -43.5 -77.5t-100.5 -37.5q-34 0 -54.5 17 t-20.5 43zM918 1098q0 41 43.5 76.5t99.5 35.5q33 0 54.5 -15.5t21.5 -41.5q0 -41 -42.5 -78t-101.5 -37q-32 0 -53.5 17t-21.5 43z" />
<glyph unicode="&#x152;" horiz-adv-x="1949" d="M162 319q0 80 24 180.5t71 209t111 216t151 204t184 170.5t216 117.5t242 43.5q117 0 201 -44.5t127 -127.5q8 41 8 72v22q0 35 436 35q144 0 250 -4q3 4 12 10t49.5 15.5t96.5 9.5q10 0 20.5 -1.5t21.5 -8.5t11 -17q0 -46 -93.5 -188.5t-162.5 -194.5q-22 -18 -59 -18 q-33 0 -33 14q0 8 6 17q33 63 33 143q0 46 -25 72.5t-56 33.5t-75 7q-95 0 -143 -43q-59 -55 -112.5 -143.5t-79 -152t-25.5 -79.5q0 -18 5 -30t19.5 -20t29.5 -12.5t47.5 -6.5t59.5 -2.5t78 -0.5q37 0 73 1.5t57 3t22 1.5q20 0 20 -14q0 -17 -21 -52.5t-44 -49.5 q-48 -31 -139 -31q-35 0 -92.5 3t-81.5 3q-65 0 -112 -17.5t-87 -66.5q-23 -29 -67 -94.5t-94 -167.5t-50 -160q0 -24 13 -40t37 -23.5t46.5 -10t52.5 -2.5q31 0 66.5 3.5t99.5 21.5t122.5 47.5t125.5 89t117 139.5q15 19 43 19q41 0 41 -33q0 -48 -65 -174t-117 -190 q-13 -15 -32 -23.5t-33 -10.5t-40 -3q-76 -4 -338 -4q-72 0 -126 0.5t-80 1.5t-40.5 2t-19.5 1.5t-6 0.5q-22 0 -41 -19q-67 -59 -193 -59q-59 0 -59 27v6q0 10 33 71q-135 -53 -269 -53q-172 0 -270 95t-98 263zM414 311q0 -225 164 -225q102 0 229 106.5t232 261t177 339 t72 329.5q0 226 -164 226q-69 0 -151 -49.5t-159 -130.5t-150.5 -189t-128.5 -221.5t-88 -231.5t-33 -215z" />
<glyph unicode="&#x153;" horiz-adv-x="1275" d="M70 195q0 97 52 206t137 201.5t208.5 153.5t253.5 61q18 0 45 -6t60.5 -19.5t57 -43t23.5 -68.5q0 -21 -4 -37q170 143 377 143q14 0 29.5 -2.5t35.5 -11.5t35 -23.5t26 -41t11 -62.5q0 -90 -49 -172.5t-121.5 -137t-149.5 -89t-139 -39.5q-71 -6 -97.5 -29t-26.5 -90 q0 -43 12.5 -73.5t30.5 -44.5t36 -22.5t30.5 -16t12.5 -17.5q0 -29 -30 -45t-68 -16q-102 0 -157 53.5t-68 142.5q-153 -112 -324 -112q-19 0 -41 3t-60 18t-66.5 40.5t-50 76.5t-21.5 120zM274 190q0 -9 3.5 -24t13.5 -38.5t35.5 -39.5t62.5 -16q45 0 85.5 18.5t68.5 47.5 t49 64t31 67t10 57q0 16 -25 16q-14 0 -33 -4.5t-31 -9.5l-12 -4q-14 -7 -16 -7q-12 0 -12 19q0 33 16.5 73t40.5 64q19 21 50 36.5t52.5 23.5t37.5 34t16 70q0 23 -9.5 38.5t-23.5 21.5t-23.5 8t-17.5 2q-67 0 -136.5 -56.5t-119 -137t-81.5 -169.5t-32 -154zM881 336 q0 -3 0.5 -6.5t9 -10t24.5 -6.5q36 0 87 22.5t100 58.5t83 90t34 110q0 63 -58 63q-53 0 -119.5 -54.5t-113.5 -131t-47 -135.5z" />
<glyph unicode="&#x178;" horiz-adv-x="727" d="M35 -18q0 15 68 127.5t147 249.5t98 200q45 147 45 494q0 59 -1 127.5t-1 89.5q0 84 -12 114q-12 20 -12 37q0 41 174 41q39 0 68.5 -6.5t44 -15t23 -20.5t10 -19t1.5 -15q0 -51 -33.5 -246t-38.5 -276v-7t2.5 -15.5t6.5 -20t12.5 -15.5t19.5 -7q27 0 56 26 q126 111 281.5 280.5t215.5 248.5q3 4 10.5 13.5t10.5 13t9.5 10.5t12.5 11t15 9.5t20 9.5q36 15 88 23t86 9l35 1q117 0 117 -37q0 -21 -35 -41q-132 -75 -452 -343.5t-468 -426.5q-41 -44 -100 -143.5t-107 -193.5t-100.5 -179t-85.5 -108q-46 -41 -116 -41 q-115 0 -115 34v7zM750 1583q0 41 43.5 77t99.5 36q33 0 54.5 -16t21.5 -42q0 -40 -43.5 -77t-100.5 -37q-34 0 -54.5 16.5t-20.5 42.5zM1128 1583q0 41 44 77t100 36q33 0 54.5 -16t21.5 -42q0 -41 -42.5 -77.5t-101.5 -36.5q-33 0 -54.5 16.5t-21.5 42.5z" />
<glyph unicode="&#x2c6;" d="M598 918q0 6 21 27.5t56.5 58t59.5 67.5q4 4 14.5 18t20.5 21.5t23 7.5q39 0 67 -28q11 -9 23 -9q9 0 18 6q56 33 98 33q21 -3 21 -22q0 -9 -6 -27q-6 -20 -41 -158q0 -26 -19 -26t-42 24.5t-42 59.5q-6 12 -18 12q-9 0 -21 -8q-42 -28 -96.5 -51t-81.5 -23q-55 0 -55 17 z" />
<glyph unicode="&#x2dc;" horiz-adv-x="980" d="M594 920q0 26 46.5 75t72.5 49q61 -32 180 -32q57 0 133 12h4q10 0 10 -12q0 -11 -9.5 -27t-33 -35t-56.5 -35t-86 -27t-116 -11q-145 0 -145 43z" />
<glyph unicode="&#x2000;" horiz-adv-x="903" />
<glyph unicode="&#x2001;" horiz-adv-x="1806" />
<glyph unicode="&#x2002;" horiz-adv-x="903" />
<glyph unicode="&#x2003;" horiz-adv-x="1806" />
<glyph unicode="&#x2004;" horiz-adv-x="602" />
<glyph unicode="&#x2005;" horiz-adv-x="451" />
<glyph unicode="&#x2006;" horiz-adv-x="301" />
<glyph unicode="&#x2007;" horiz-adv-x="301" />
<glyph unicode="&#x2008;" horiz-adv-x="225" />
<glyph unicode="&#x2009;" horiz-adv-x="361" />
<glyph unicode="&#x200a;" horiz-adv-x="100" />
<glyph unicode="&#x2010;" horiz-adv-x="929" d="M133 305q0 27 43 77t105 50h620q29 0 29 -18q0 -29 -42.5 -78t-105.5 -49q-93 0 -297.5 -1t-324.5 -1q-27 0 -27 20z" />
<glyph unicode="&#x2011;" horiz-adv-x="929" d="M133 305q0 27 43 77t105 50h620q29 0 29 -18q0 -29 -42.5 -78t-105.5 -49q-93 0 -297.5 -1t-324.5 -1q-27 0 -27 20z" />
<glyph unicode="&#x2012;" horiz-adv-x="929" d="M133 305q0 27 43 77t105 50h620q29 0 29 -18q0 -29 -42.5 -78t-105.5 -49q-93 0 -297.5 -1t-324.5 -1q-27 0 -27 20z" />
<glyph unicode="&#x2013;" horiz-adv-x="964" d="M168 305q0 27 42.5 77t104.5 50h621q29 0 29 -18q0 -29 -42.5 -78t-105.5 -49q-93 0 -297.5 -1t-324.5 -1q-27 0 -27 20z" />
<glyph unicode="&#x2014;" horiz-adv-x="1437" d="M166 299q0 27 43.5 80t105.5 53q64 0 278.5 -2t324.5 -2q63 0 266.5 2t224.5 2q29 0 29 -18q0 -16 -16.5 -45.5t-53 -58.5t-80.5 -29q-153 8 -645 8q-108 0 -265.5 -5t-184.5 -5t-27 20z" />
<glyph unicode="&#x2018;" horiz-adv-x="315" d="M496 1200q0 234 166 234q71 0 71 -50q0 -25 -20 -57l-156 -268q-8 -12 -16 -12q-11 0 -19 14q-26 60 -26 139z" />
<glyph unicode="&#x2019;" horiz-adv-x="417" d="M627 1063q0 4 4 12q137 238 160 277q45 78 137 78q84 0 84 -64q0 -40 -74.5 -118.5t-162.5 -139.5t-126 -61q-22 0 -22 16z" />
<glyph unicode="&#x201a;" horiz-adv-x="432" d="M-66 -158q0 3 5 13q136 237 159 276q45 78 138 78q83 0 83 -64q0 -40 -74 -118.5t-162 -139.5t-126 -61q-23 0 -23 16z" />
<glyph unicode="&#x201c;" horiz-adv-x="602" d="M496 1200q0 234 166 234q71 0 71 -50q0 -25 -20 -57l-156 -268q-8 -12 -16 -12q-11 0 -19 14q-26 60 -26 139zM782 1200q0 234 166 234q72 0 72 -50q0 -23 -21 -57l-155 -268q-8 -12 -17 -12q-10 0 -18 14q-27 62 -27 139z" />
<glyph unicode="&#x201d;" horiz-adv-x="712" d="M627 1063q0 4 4 12q137 238 160 277q45 78 137 78q84 0 84 -64q0 -40 -74.5 -118.5t-162.5 -139.5t-126 -61q-22 0 -22 16zM924 1063q0 4 4 12q137 238 157 277q45 78 140 78q82 0 82 -64q0 -40 -74 -118.5t-162 -139.5t-125 -61q-22 0 -22 16z" />
<glyph unicode="&#x201e;" horiz-adv-x="727" d="M-66 -158q0 3 5 13q136 237 159 276q45 78 138 78q83 0 83 -64q0 -40 -74 -118.5t-162 -139.5t-126 -61q-23 0 -23 16zM231 -158q0 3 5 13q137 237 157 276q45 78 139 78q82 0 82 -64q0 -40 -74 -118.5t-161.5 -139.5t-124.5 -61q-23 0 -23 16z" />
<glyph unicode="&#x2022;" horiz-adv-x="458" d="M156 332q0 59 64.5 115.5t150.5 56.5q52 0 85 -23.5t33 -62.5q0 -66 -63.5 -120t-155.5 -54q-50 0 -82 24.5t-32 63.5z" />
<glyph unicode="&#x2026;" horiz-adv-x="1267" d="M29 68q0 47 53 93t123 46q44 0 72 -18.5t28 -51.5q0 -55 -53 -99t-129 -44q-40 0 -67 20.5t-27 53.5zM461 68q0 47 53 93t123 46q44 0 72 -18.5t28 -51.5q0 -55 -53 -99t-129 -44q-40 0 -67 20.5t-27 53.5zM893 68q0 47 53 93t123 46q44 0 72 -18.5t28 -51.5 q0 -55 -53 -99t-129 -44q-40 0 -67 20.5t-27 53.5z" />
<glyph unicode="&#x202f;" horiz-adv-x="361" />
<glyph unicode="&#x2039;" horiz-adv-x="765" d="M139 340q0 48 171.5 166.5t358 215.5t232.5 97q24 2 55 2q101 0 101 -28q0 -12 -19 -23l-43 -22q-645 -349 -645 -426q0 -44 42 -136.5t84 -163.5l42 -71q6 -12 6 -21q0 -12 -12 -18.5t-24 -7.5h-11q-31 0 -48.5 1.5t-44 10.5t-44.5 27q-74 73 -137.5 203.5t-63.5 193.5z " />
<glyph unicode="&#x203a;" horiz-adv-x="886" d="M-55 -78q0 11 18 21l53 28q71 39 121 66.5t134 75.5t142 85t117.5 77t90 70t30.5 48q0 43 -42 135t-84 163l-42 71q-6 12 -6 20q0 12 11.5 19t23.5 7l12 1q47 0 77.5 -6.5t39 -12.5t18.5 -16l3 -2q74 -72 137 -203.5t63 -193.5q0 -49 -171.5 -167.5t-357.5 -215 t-233 -96.5q-28 -2 -61 -2q-94 0 -94 28z" />
<glyph unicode="&#x205f;" horiz-adv-x="451" />
<glyph unicode="&#x20ac;" horiz-adv-x="1173" d="M176 563q0 23 32 63t83 40h182q35 64 72 129q-33 0 -101.5 -2t-107.5 -2q-25 0 -25 14q0 23 32 62.5t83 39.5q123 0 184 -2q139 224 195 289q55 67 110.5 108.5t124 63.5t139 29.5t175.5 7.5q182 0 244.5 -27t62.5 -119q0 -23 -6.5 -50t-22 -49.5t-37.5 -22.5 q-12 0 -19.5 6t-9.5 12l-1 6q-20 42 -48 69t-65 38.5t-65.5 14.5t-71.5 3q-95 0 -156.5 -25.5t-126.5 -93.5q-83 -89 -194 -262h147q27 0 88 2t96 2q25 0 25 -14q0 -23 -32 -62.5t-83 -39.5q-49 0 -150 1t-157 1q-38 -65 -72 -129q66 -2 148 -2q53 0 110.5 2t75.5 2 q25 0 25 -15q0 -23 -32.5 -62.5t-84.5 -39.5q-209 0 -297 2q-90 -201 -90 -318q0 -68 45.5 -97.5t140.5 -29.5q48 0 79 2t84 16.5t102 41.5q35 19 64 43t44 35.5t29 11.5q3 0 7.5 -1t11.5 -9t7 -21q0 -67 -55 -135q-55 -70 -111.5 -84t-250.5 -14h-31q-204 0 -306 49.5 t-102 171.5q0 115 103 340q-64 0 -131.5 -2t-85.5 -2q-23 0 -23 14z" />
<glyph unicode="&#x2122;" horiz-adv-x="978" d="M205 367v2q0 6 32 56t86.5 139t94.5 167q4 8 4 17q0 8 -10 8q-33 0 -103 -78q-5 -12 -30 -12q-7 0 -7 6q0 4 2 6q71 133 91 133q33 0 49 -12h159q31 12 62 12q10 0 10 -10q0 -12 -25.5 -58t-41.5 -69q-10 -15 -23 -15q-12 0 -12 9v6q8 27 8 51q0 33 -16 33q-8 0 -15.5 -6 t-11.5 -12l-4 -5l-103 -172q-21 -36 -43.5 -83t-36.5 -74t-26 -37q-19 -13 -41 -13q-49 0 -49 11zM440 360v2q0 6 32 57t85 140t92 166q15 34 15 53v8q0 3 9.5 8.5t34 11t56.5 5.5q49 0 49 -18q0 -8 -24.5 -87.5t-24.5 -101.5q0 -10 6 -10q15 0 52 40t83.5 94t73.5 75 q8 8 90 8q29 0 29 -12q0 -2 -2 -4q0 -1 -23 -36.5t-55.5 -89t-65 -110.5t-55.5 -108.5t-23 -75.5q-4 -10 -16 -10q-72 0 -72 22q0 50 125 240q15 20 15 28q0 7 -8 7q-23 0 -97.5 -82.5t-107.5 -139.5q-8 -16 -29 -16q-18 0 -32.5 6.5t-14.5 20.5q0 29 30.5 111t30.5 97 q0 11 -6 11q-7 0 -18 -13t-18 -26l-7 -13q-39 -64 -71 -128.5t-47.5 -94t-26.5 -37.5q-13 -8 -29 -8q-35 0 -35 10z" />
<glyph unicode="&#x25fc;" horiz-adv-x="849" d="M0 0v850h850v-850h-850z" />
<glyph unicode="&#xfb01;" horiz-adv-x="1175" d="M-293 -758q0 113 158.5 450.5t474.5 862.5q8 16 8 29q0 47 -94 47q-9 0 -16 6t-7 16q0 33 66 80q23 15 72 15h32q47 0 56 16q220 394 417.5 625t333.5 231q39 0 62.5 -20.5t23.5 -81.5q0 -101 -48.5 -214t-118.5 -198.5t-149 -142t-138 -56.5q-25 0 -25 15q0 6 5.5 15 t10.5 15l5 6q109 87 176 199.5t67 177.5q0 37 -24 37q-52 0 -149.5 -120.5t-172 -257.5t-74.5 -187q0 -49 191 -49q69 0 212 6t220 6q24 0 51 -9t27 -24q0 -8 -6 -14q-78 -99 -226.5 -354t-226.5 -418q-11 -39 -27 -39q-30 0 -64 35.5t-34 87.5q0 30 64.5 154t132.5 267.5 t74 215.5q-53 -2 -86 -4t-84 -8t-86.5 -15t-84 -25.5t-85.5 -38.5t-82 -55t-83 -74.5t-79 -97.5t-78 -123q-155 -280 -241.5 -487t-86.5 -295q0 -19 7.5 -36t25.5 -17q66 0 168.5 106t196 256t161.5 328t68 307q0 28 -6 51t-6 31q0 21 32 21h3q52 0 97.5 -50.5t45.5 -152.5 q0 -56 -33.5 -147.5t-93.5 -199.5t-136 -223t-166.5 -221t-181 -190.5t-183 -135t-167.5 -50.5q-96 0 -96 116zM1229 958q0 -33 27.5 -53t68.5 -20q21 0 45 6q56 15 94.5 53t38.5 78q0 35 -27.5 56.5t-66.5 21.5q-59 0 -119.5 -40.5t-60.5 -101.5z" />
<glyph unicode="&#xfb02;" horiz-adv-x="1122" d="M-416 -1016q0 -20 2 -33.5t9 -29t24 -23.5t43 -8q83 0 201 82.5t238 212.5t240.5 294t212.5 323t150 303t58 231q0 56 -18 93.5t-39.5 51t-39.5 29t-18 33.5q0 30 65.5 58.5t131.5 42.5l65 13q24 6 40.5 16.5t23 21.5t8.5 18t2 12v2q0 9 -5.5 14.5t-11.5 6.5l-5 2 q-63 0 -141 -6.5t-95 -6.5q-35 0 -50.5 10t-15.5 37q0 50 94 216t211 315t169 149q16 0 16 -22q0 -42 -45 -133t-122.5 -191.5t-154.5 -152.5q-7 -5 -16.5 -16.5t-9.5 -20.5q0 -13 22 -13q66 0 161 74.5t179.5 182t144.5 237.5t60 231q0 61 -22.5 83t-61.5 22 q-67 0 -167 -85t-212 -229t-225.5 -319.5t-222.5 -370.5q-9 -16 -56 -16h-32q-49 0 -70 -14q-74 -48 -74 -82q0 -9 5.5 -15t13.5 -6q58 0 81 -15t23 -34q0 -8 -4 -16q-334 -557 -547 -996.5t-213 -562.5zM-78 -692q0 109 150 439t350 675q23 35 45 35q48 0 69 -51t21 -123 q0 -94 -38 -211.5t-97 -227.5t-131 -217t-139 -186t-121 -127.5t-78 -48.5q-31 0 -31 41v2zM782 -92q0 70 35 180t84.5 222t135 269t152 272.5t172 285t159.5 254t147 229.5q35 56 108.5 90.5t139.5 34.5q53 0 55 -33q0 -10 -12 -22q-43 -40 -134 -159t-208 -289 t-239.5 -378t-225 -412t-168 -405t-65.5 -344q0 -31 -19 -31q-34 0 -59 25.5t-36.5 65t-16.5 75.5t-5 70z" />
</font>
</defs>
</svg>
