<?xml version="1.0" standalone="no"?>
<!DOCTYPE svg PUBLIC "-//W3C//DTD SVG 1.1//EN" "http://www.w3.org/Graphics/SVG/1.1/DTD/svg11.dtd" >
<svg xmlns="http://www.w3.org/2000/svg" xmlns:xlink="http://www.w3.org/1999/xlink" version="1.1">
<metadata></metadata>
<defs>
<font id="comfortaaregular" horiz-adv-x="1014" >
<font-face units-per-em="2048" ascent="1638" descent="-410" />
<missing-glyph horiz-adv-x="508" />
<glyph horiz-adv-x="0" />
<glyph unicode="&#xd;" horiz-adv-x="508" />
<glyph unicode=" "  horiz-adv-x="508" />
<glyph unicode="&#x09;" horiz-adv-x="508" />
<glyph unicode="&#xa0;" horiz-adv-x="508" />
<glyph unicode="!" horiz-adv-x="511" d="M110 103q21 103 95 103h8q103 -15 103 -92v-22q0 -71 -95 -92h-12q-79 0 -99 103zM141 415v962q14 65 73 65h12q60 0 73 -69v-955q-17 -72 -77 -72q-81 12 -81 69z" />
<glyph unicode="&#x22;" horiz-adv-x="557" d="M79 1479q16 80 80 80q76 -19 76 -68q-21 -312 -52 -312l-28 -8q-50 0 -56 124zM323 1491q0 54 84 68q51 0 72 -76q-29 -296 -44 -296q-17 -16 -32 -16h-4q-56 0 -56 136z" />
<glyph unicode="#" horiz-adv-x="1336" d="M170 556v4q0 51 75 68h155l38 192h-136q-75 15 -75 75q12 72 67 72v4l38 -4h136q82 438 98 438q28 22 57 22q61 0 71 -75l-75 -385h219q80 415 94 434q28 30 64 30q68 -19 68 -64v-11q0 -29 -76 -389h110l34 4q55 0 71 -76q-15 -75 -75 -75h-170l-37 -192h139 q87 -8 87 -76q-14 -71 -72 -71v-4l-19 4h-166q-83 -419 -98 -449q-25 -34 -60 -34h-8q-67 14 -67 68v3l83 412h-215q-10 0 -53 -246q-41 -200 -53 -207q-24 -34 -60 -34q-76 15 -76 75l83 412h-102l-22 -4q-57 0 -72 79zM551 628h219l37 192h-218z" />
<glyph unicode="$" d="M71 224q13 74 74 74q40 0 108 -85q87 -57 159 -62v580q-132 41 -182 113q-101 104 -101 239v28q0 189 194 305q64 31 89 31v140q20 65 65 65h20q50 0 65 -73v-128q93 -7 209 -112q43 -43 43 -66v-23q0 -50 -74 -62q-30 0 -96 73q-33 28 -82 43v-460q177 -65 252 -206 q58 -109 58 -208q0 -278 -286 -403l-24 -4v-127q-18 -74 -73 -74q-77 16 -77 74v104q0 6 -89 19q-173 59 -248 182zM276 1060q0 -124 136 -198v414q-136 -67 -136 -185v-31zM562 158h4q155 91 155 232v39q0 143 -159 240v-511z" />
<glyph unicode="%" horiz-adv-x="1610" d="M100 1076q0 236 250 344q51 16 102 16h19q167 0 284 -152q68 -100 68 -205q0 -233 -242 -344q-69 -19 -114 -19h-7q-210 0 -322 204q-38 77 -38 156zM244 64v16q0 31 106 159l894 1181q23 16 42 16h11q68 -14 68 -69v-15q0 -22 -140 -201l-860 -1136q-29 -15 -45 -15h-4 q-72 15 -72 64zM248 1072q0 -150 166 -205l38 -3h19q147 0 201 170l4 42q0 154 -163 208l-49 8q-152 0 -209 -159l-7 -54v-7zM789 348v23q0 190 190 307q91 45 170 45q211 0 333 -219q27 -80 27 -140v-12q0 -211 -223 -325q-69 -27 -137 -27h-7q-184 0 -303 178 q-50 86 -50 170zM933 364q0 -150 156 -209l53 -7h15q143 0 200 163l4 34v26q0 149 -174 201l-38 4q-159 0 -212 -178z" />
<glyph unicode="&#x26;" horiz-adv-x="1457" d="M130 391q0 194 212 367l46 50q-186 173 -186 258q-8 0 -8 68q0 187 201 284q54 15 95 15h19q193 0 285 -212q11 -48 11 -83v-19q0 -146 -155 -270l-38 -41l322 -323h4l155 156q26 19 49 19q70 0 80 -84q0 -42 -133 -159l-41 -45l216 -217q15 -19 15 -41v-12 q-15 -72 -72 -72h-11q-42 0 -141 114l-121 118q-216 -235 -284 -235q-66 -27 -133 -27q-220 0 -349 220q-38 89 -38 171zM289 379q0 -147 167 -212l57 -8q131 0 250 152l61 61l-322 322h-4q-205 -182 -205 -265l-4 -31v-19zM354 1119q0 -77 144 -198h4q148 128 148 198v15 q0 95 -114 140l-38 4q-92 0 -137 -99l-7 -30v-30z" />
<glyph unicode="'" horiz-adv-x="346" d="M92 1466q16 80 80 80q76 -19 76 -68q-21 -312 -52 -312l-28 -8q-50 0 -56 124z" />
<glyph unicode="(" horiz-adv-x="758" d="M327 593q0 498 222 977q28 26 54 26h11q69 -13 69 -68v-12l-76 -203q-131 -353 -131 -724q0 -463 207 -915l4 -15q-14 -77 -73 -77h-7q-65 0 -104 138q-176 409 -176 873z" />
<glyph unicode=")" horiz-adv-x="758" d="M67 -339l81 202q130 368 130 729q0 453 -207 916l-4 15q13 77 73 77h15q53 0 96 -138q176 -419 176 -866q0 -527 -229 -993q-29 -19 -50 -19h-8q-60 0 -73 77z" />
<glyph unicode="*" horiz-adv-x="1024" d="M230 1327v4q0 61 80 76q29 0 136 -80l48 -24v4l-52 168v8q0 59 80 76q76 -19 76 -76v-8l-52 -168v-4h4l160 100l24 4q76 -15 76 -76v-12q0 -41 -60 -68l-124 4h-72l152 -124l12 -32v-20q0 -59 -76 -72q-73 0 -88 112l-32 96h-4l-48 -164q-30 -44 -72 -44q-76 17 -76 68 v16q0 47 92 100l76 64h-4l-196 -4q-60 24 -60 76z" />
<glyph unicode="+" d="M136 741v4q0 54 80 72h224v228q14 72 72 72h12q59 0 72 -76v-224h212q92 -8 92 -80q-15 -76 -76 -76v-4l-20 4h-208v-228q-14 -76 -76 -76h-4q-76 15 -76 68v236h-204l-24 -4q-60 0 -76 84z" />
<glyph unicode="," horiz-adv-x="557" d="M106 146v4q0 82 104 124q16 8 44 8h16q136 -28 136 -136l4 -4l-4 -4v-4l8 -56v-16q0 -184 -184 -276q-37 -24 -60 -24q-42 0 -52 60q0 47 84 64q42 24 84 80l16 44l-48 -8q-148 25 -148 144z" />
<glyph unicode="-" horiz-adv-x="670" d="M68 576q20 72 76 72h400q59 0 76 -80q-18 -76 -76 -76h-400q-65 0 -76 84z" />
<glyph unicode="." horiz-adv-x="557" d="M130 139q0 88 100 128q14 7 39 7q105 0 135 -125v-24q0 -75 -96 -118q-14 -7 -39 -7h-4q-112 0 -135 139z" />
<glyph unicode="/" horiz-adv-x="770" d="M4 -43q4 27 556 1524q35 36 68 36q76 -13 76 -72v-20q-504 -1389 -556 -1516q-30 -32 -60 -32h-8q-62 0 -76 80z" />
<glyph unicode="0" horiz-adv-x="989" d="M0 715v11q0 276 98 499q141 212 348 212q247 0 378 -265q72 -221 72 -408v-87q0 -231 -95 -465q-137 -212 -347 -212h-12q-228 0 -359 242q-83 213 -83 473zM136 696q0 -261 95 -439q92 -113 208 -113h11q256 0 299 393q11 62 15 185q0 219 -76 420q-94 151 -238 151 q-175 0 -257 -193q-57 -189 -57 -363v-41z" />
<glyph unicode="1" horiz-adv-x="568" d="M40 1297v19q0 56 152 87l113 34h12q68 -15 68 -65v-1300q-13 -72 -72 -72h-4q-72 15 -72 64v1198q-102 -34 -133 -34q-47 0 -64 69z" />
<glyph unicode="2" horiz-adv-x="976" d="M0 1005q0 226 215 370q115 61 216 61q204 0 355 -182q79 -120 79 -249q0 -197 -193 -378l-419 -480h563q56 0 68 -71v-4q-11 -72 -72 -72h-733q-71 13 -71 72v4q0 36 71 102l586 668q49 70 49 159q0 192 -200 268q-33 11 -76 11h-11q-184 0 -265 -196q-11 -41 -15 -98 q-26 -53 -68 -53h-7q-72 13 -72 68z" />
<glyph unicode="3" horiz-adv-x="955" d="M0 433q0 53 79 68q57 0 68 -75q0 -162 170 -256q62 -23 120 -23q169 0 256 177q19 53 19 91v30q0 160 -177 248l-124 27q-38 29 -38 64v4q0 71 102 71q74 0 154 98q30 64 30 117q0 122 -120 188q-43 23 -98 23q-140 0 -200 -151q-12 -109 -26 -109q-27 -30 -53 -30 q-75 17 -75 64v19q0 196 196 313q75 37 162 41q168 0 290 -151q68 -92 68 -203v-15q0 -156 -136 -275q196 -142 196 -358q0 -223 -211 -370q-109 -60 -215 -60h-11q-252 0 -392 260q-34 96 -34 173z" />
<glyph unicode="4" horiz-adv-x="1103" d="M0 493v15q0 26 38 56q602 783 635 835q24 26 45 26h23q41 0 64 -64l-4 -37v-752h117l34 3q52 0 71 -75q0 -51 -64 -75l-56 4h-102v-365q0 -49 -71 -64h-4q-72 13 -72 71v358h-507l-91 -4q-56 24 -56 68zM229 572h425v553z" />
<glyph unicode="5" d="M0 442q26 71 78 71q83 0 83 -133q49 -145 152 -196q80 -31 133 -31q196 0 278 199q16 40 16 94q0 214 -227 286l-90 8h-262q-52 0 -71 63v559q0 42 67 67l39 -4h575q60 0 75 -78q0 -58 -79 -75h-524v-379h215q252 0 395 -259q44 -107 44 -188q0 -231 -220 -383 q-113 -63 -223 -63h-12q-261 0 -407 270q-35 103 -35 172z" />
<glyph unicode="6" horiz-adv-x="951" d="M0 430q0 145 106 286l407 701q31 19 56 19q51 0 68 -76q0 -30 -91 -173l-188 -328v-4l57 4h33q206 0 351 -207q64 -114 64 -222q0 -214 -196 -358q-111 -72 -230 -72h-19q-205 0 -354 204q-64 116 -64 226zM151 411q0 -155 177 -245q50 -15 102 -19q190 0 271 200l11 71 v15q0 198 -215 272l-71 7q-185 0 -268 -203l-7 -61v-37z" />
<glyph unicode="7" horiz-adv-x="964" d="M30 72v11q10 36 660 1180l7 19h-580q-76 15 -76 75q16 72 64 72h728q68 -14 68 -60v-19q0 -20 -38 -76l-709 -1255q-28 -19 -49 -19h-3q-72 13 -72 72z" />
<glyph unicode="8" horiz-adv-x="972" d="M0 432q0 224 212 374q-85 66 -114 182q-11 28 -11 76v19q0 190 182 306q91 50 178 50q171 0 291 -152q68 -93 68 -204v-19q0 -150 -136 -273q197 -142 197 -359q0 -215 -197 -360q-111 -72 -231 -72h-19q-206 0 -356 204q-64 117 -64 228zM148 435q0 -200 208 -276 q28 -11 83 -11q188 0 269 208l8 57v38q0 161 -186 249q-52 16 -95 16q-203 0 -276 -209zM235 1068q0 -143 170 -201l42 -4q149 0 204 159l8 53q0 157 -167 208l-49 4q-145 0 -201 -155z" />
<glyph unicode="9" horiz-adv-x="972" d="M0 1008q0 238 232 378q101 49 199 49q224 0 367 -214q60 -114 60 -213q0 -161 -131 -315l-502 -674q-27 -19 -49 -19q-75 15 -75 75q0 34 120 180l240 326h-4l-22 -4q-246 0 -386 232q-49 102 -49 199zM150 989q0 -149 165 -240q50 -22 116 -22q162 0 247 153 q30 57 30 124v4q0 191 -198 266q-28 11 -75 11h-23q-159 0 -247 -180q-15 -53 -15 -82v-34z" />
<glyph unicode=":" horiz-adv-x="557" d="M168 164q26 120 112 120h16q95 0 120 -112v-20q0 -87 -120 -116q-128 22 -128 128zM168 828q25 124 124 124q89 0 124 -104v-32q0 -75 -104 -112h-20q-124 19 -124 124z" />
<glyph unicode=";" horiz-adv-x="557" d="M127 -134q12 48 56 48l24 -4q100 53 100 104l-12 -4q-132 21 -132 124q0 88 100 124h28q128 0 128 -192v-4q0 -186 -224 -260h-20q-48 10 -48 48v16zM143 802q25 124 124 124q89 0 124 -104v-32q0 -75 -104 -112h-20q-124 19 -124 124z" />
<glyph unicode="&#x3c;" d="M114 626q0 59 112 108q571 368 596 368h8q76 -19 76 -76v-8q0 -57 -132 -120q-5 -9 -428 -268q17 -17 536 -340q24 -28 24 -56v-4q0 -65 -80 -76q-31 0 -148 80l-536 332q-28 31 -28 60z" />
<glyph unicode="=" d="M136 429q0 54 80 72h604q80 -16 80 -80q-16 -76 -76 -76h-620q-56 0 -68 84zM136 761q20 72 76 72h612q59 0 76 -80q-18 -76 -76 -76h-612q-65 0 -76 84z" />
<glyph unicode="&#x3e;" d="M137 248v4q0 58 128 120l432 276q-516 316 -540 340q-20 28 -20 52q16 80 80 80q29 0 236 -136q428 -264 460 -292q16 -21 16 -44v-8q0 -56 -96 -96q-583 -372 -604 -372h-16q-76 14 -76 76z" />
<glyph unicode="?" horiz-adv-x="980" d="M58 1009q0 204 201 356q123 68 238 68q180 0 326 -159q102 -128 102 -280q0 -189 -170 -337q-175 -96 -175 -281q-11 -75 -75 -75q-72 16 -72 64v30q0 236 250 390q94 93 94 220q0 161 -170 257q-76 23 -121 23q-167 0 -261 -178l-27 -129q-32 -41 -64 -41q-76 16 -76 72 zM399 92q0 87 94 106h16q66 0 94 -83v-26q-18 -95 -106 -95q-98 21 -98 98z" />
<glyph unicode="@" horiz-adv-x="2019" d="M-4 623q0 405 328 712q280 236 612 236h36q416 0 724 -356q212 -271 212 -596q0 -406 -276 -516q-71 -32 -144 -32h-28q-139 0 -164 52l-4 20l4 100v4q-176 -168 -380 -168h-32q-279 0 -464 280q-68 135 -68 272q0 306 300 484q128 60 248 60q311 0 492 -304 q56 -124 56 -256v-384l28 -4q149 0 232 148q40 97 40 212v52q0 325 -272 580q-237 196 -520 196q-418 0 -676 -368q-124 -200 -124 -428v-4q0 -378 312 -632q223 -164 488 -164q223 0 448 136l20 4q80 -16 80 -80q0 -98 -336 -192q-94 -24 -184 -24h-52q-347 0 -640 264 q-296 298 -296 696zM508 623q0 -238 240 -360q76 -28 136 -28h32q199 0 328 200q48 94 48 180v16q0 230 -228 352q-79 36 -164 36h-4q-242 0 -364 -252q-24 -78 -24 -132v-12z" />
<glyph unicode="A" horiz-adv-x="1191" d="M0 71v4l128 346q335 873 364 969q34 38 64 38q69 0 102 -139q454 -1182 458 -1210v-11q0 -56 -71 -68h-4q-66 0 -94 128l-169 439h-440l-206 -544q-30 -23 -53 -23h-8q-71 13 -71 71zM398 714h323v4l-161 424h-4z" />
<glyph unicode="B" horiz-adv-x="998" d="M55 72v1285q11 72 72 72v3l18 -3h230l15 3q172 0 294 -162q61 -90 61 -196v-11q0 -129 -102 -245q245 -135 245 -392q0 -258 -268 -396q-86 -30 -154 -30h-339q-72 13 -72 72zM202 147h196q216 0 290 124q49 69 49 155v7q0 203 -222 272l-106 7h-207v-565zM202 859h139 q185 0 238 132q15 38 15 76v11q0 146 -170 200l-79 4h-143v-423z" />
<glyph unicode="C" horiz-adv-x="1363" d="M63 718q0 373 340 608q182 110 374 110q223 0 416 -136q15 -29 15 -45v-8q0 -64 -79 -72h-4l-132 68q-132 42 -216 42q-269 0 -465 -246q-98 -165 -98 -321q0 -315 295 -499q131 -68 261 -68h11q166 0 336 106h23q68 -15 68 -68v-11q0 -80 -253 -155q-79 -23 -166 -23 h-19q-355 0 -594 329q-113 190 -113 389z" />
<glyph unicode="D" horiz-adv-x="1195" d="M55 72v1293q11 72 72 72v4l19 -4h193l42 4q323 0 561 -281q152 -197 152 -447q0 -344 -303 -580q-192 -133 -406 -133h-258q-72 13 -72 72zM203 148h163q361 0 535 349q45 119 45 227q0 261 -231 455q-143 114 -425 114h-87v-1145z" />
<glyph unicode="E" horiz-adv-x="1094" d="M63 72v1294q11 72 72 72v4l19 -4h744l15 4q65 0 76 -83q-15 -69 -83 -69h-695v-512h455l54 4q51 0 68 -76q0 -50 -61 -76l-76 4h-440v-486h713q53 0 65 -80q-20 -68 -68 -68h-786q-72 13 -72 72z" />
<glyph unicode="F" horiz-adv-x="1031" d="M55 72v1294q11 72 72 72v4l19 -4h744l15 4q65 0 76 -83q-15 -69 -83 -69h-695v-512h455l54 4q51 0 68 -76q0 -50 -61 -76l-76 4h-440v-539l4 -23q-17 -72 -72 -72h-8q-72 13 -72 72z" />
<glyph unicode="G" horiz-adv-x="1292" d="M42 718q0 361 321 597q197 121 382 121q229 0 412 -128q19 -26 19 -49v-4q0 -58 -76 -72q-12 0 -147 64q-88 34 -170 34h-61q-211 0 -404 -204q-125 -171 -125 -351v-15q0 -294 272 -480q142 -80 284 -80h15q140 0 280 76v344h-273q-71 12 -71 72v3q12 72 71 72h352 q56 0 68 -72v-419q0 -92 -45 -114q-193 -113 -375 -113h-22q-355 0 -594 329q-113 186 -113 389z" />
<glyph unicode="H" horiz-adv-x="1186" d="M46 76v1274q9 83 64 83h15q68 -14 68 -60v-598h712v587q12 71 68 71h11q68 -13 68 -68v-1301q0 -49 -72 -64h-4q-71 13 -71 72v560h-712v-564q0 -56 -71 -68h-4q-58 0 -72 76z" />
<glyph unicode="I" horiz-adv-x="539" d="M60 72v4q15 73 65 73h23v1147h-16q-63 0 -72 80v4q0 47 72 68l19 -3h142l15 3q76 -16 76 -76q-13 -76 -72 -76h-16v-1147h23q50 0 65 -73v-4q-13 -72 -72 -72h-180q-72 13 -72 72z" />
<glyph unicode="J" horiz-adv-x="1022" d="M46 448q16 72 65 72h15q72 0 72 -118q6 -82 99 -182q91 -72 197 -72q211 0 289 220q11 40 11 80v923q13 68 68 68h12q55 0 68 -72v-923q0 -239 -224 -383q-105 -61 -216 -61h-19q-220 0 -369 213q-68 113 -68 235z" />
<glyph unicode="K" horiz-adv-x="1112" d="M62 75v1284q14 75 72 75h3q72 -12 72 -68v-653q700 699 706 699l27 4h7q68 -13 68 -68v-12q0 -37 -79 -102l-465 -468l533 -660l3 -23v-11q0 -56 -71 -68h-4q-45 0 -125 117l-445 540l-155 -159v-434q0 -56 -72 -68h-3q-58 0 -72 75z" />
<glyph unicode="L" horiz-adv-x="997" d="M46 76v1274q9 83 64 83h15q68 -14 68 -60v-1226h617q61 0 72 -79q-20 -68 -72 -68h-692q-58 0 -72 76z" />
<glyph unicode="M" horiz-adv-x="1490" d="M60 76v1273q9 83 64 83h15q59 0 83 -98l480 -1073q19 22 336 748l186 400q22 23 49 23h15q55 0 64 -83v-1273q-14 -76 -72 -76h-4q-71 12 -71 68v941h-4q-423 -960 -438 -983q-29 -26 -57 -26q-66 0 -117 159l-378 846h-4v-937q0 -56 -71 -68h-4q-58 0 -72 76z" />
<glyph unicode="N" horiz-adv-x="1321" d="M38 79v1269q9 83 64 83h15q48 0 83 -75q56 -63 821 -1051q8 0 8 -11l3 -4h4v1073q13 68 68 68h11q56 0 68 -71v-1285q0 -62 -79 -75q-43 0 -132 132l-787 1005v-1065q0 -56 -72 -68h-3q-58 0 -72 75z" />
<glyph unicode="O" horiz-adv-x="1595" d="M38 721q0 343 302 578q196 136 416 136q363 0 607 -336q110 -191 110 -385q0 -359 -325 -597q-184 -117 -385 -117h-15q-370 0 -604 344q-106 174 -106 377zM185 710q0 -274 242 -461q151 -102 321 -102h19q268 0 453 238q106 153 106 333q0 309 -283 490 q-140 80 -287 80q-283 0 -469 -246q-102 -147 -102 -332z" />
<glyph unicode="P" horiz-adv-x="963" d="M46 76v1278q9 84 64 84h346q202 0 345 -209q53 -107 53 -193v-27q0 -189 -171 -326q-116 -80 -227 -80h-262v-535q0 -55 -72 -68h-4q-58 0 -72 76zM194 751h235q190 0 262 182q15 38 15 91q0 167 -171 247q-42 19 -98 19h-243v-539z" />
<glyph unicode="Q" horiz-adv-x="1599" d="M46 721q0 343 302 578q197 136 416 136q363 0 608 -336q109 -190 109 -385q0 -233 -155 -442v-4q159 -156 159 -189v-7q0 -56 -76 -72q-44 0 -143 121q-29 23 -42 45q-212 -166 -453 -166h-15q-369 0 -604 344q-106 174 -106 377zM193 710q0 -274 242 -461 q151 -102 321 -102h19q188 0 344 125q-153 166 -170 193v26q13 68 68 68h11q38 0 125 -106l71 -72h4q106 162 106 337q0 309 -283 491q-139 79 -287 79q-283 0 -469 -246q-102 -147 -102 -332z" />
<glyph unicode="R" horiz-adv-x="976" d="M42 76v1275q9 84 64 84h315q201 0 329 -212q41 -82 41 -171v-15q0 -198 -193 -325l-37 -19q344 -593 344 -606v-19q0 -56 -72 -68h-4q-54 0 -113 129l-311 530h-215v-591q0 -56 -72 -68h-4q-58 0 -72 76zM190 806h215q179 0 235 193l4 31v30q0 142 -159 216 q-45 15 -140 15h-155v-485z" />
<glyph unicode="S" horiz-adv-x="926" d="M34 218q13 72 73 72q40 0 103 -80q94 -65 172 -65h34q152 0 245 172q15 56 15 84v38q0 151 -172 245l-195 54q-218 125 -218 328v27q0 200 214 313q80 31 149 31q186 0 310 -168l4 -16v-23q0 -49 -73 -61q-30 0 -103 81q-66 42 -126 42h-23q-126 0 -191 -134 q-15 -32 -15 -65v-31q0 -145 175 -210q126 0 272 -118q141 -143 141 -314q0 -210 -180 -344q-110 -76 -244 -76q-217 0 -359 187z" />
<glyph unicode="T" horiz-adv-x="1225" d="M38 1364q16 72 64 72h933q68 -13 68 -68v-15q0 -55 -83 -64h-376v-1221q0 -56 -72 -68h-3q-58 0 -72 76v1213h-383q-76 15 -76 75z" />
<glyph unicode="U" horiz-adv-x="1168" d="M40 537v813q9 83 64 83h15q68 -14 68 -60v-806q0 -260 148 -348q93 -72 208 -72q221 0 333 227q23 71 23 148v840q12 71 68 71h11q68 -13 68 -68v-881q0 -225 -216 -393q-136 -91 -276 -91h-26q-235 0 -409 231q-79 124 -79 306z" />
<glyph unicode="V" horiz-adv-x="1246" d="M34 1361v8q0 60 80 72q62 0 102 -159l372 -986h3l417 1115q31 30 61 30h4q58 0 72 -76l-478 -1289q-17 -76 -76 -76h-3q-68 0 -103 148q-451 1190 -451 1213z" />
<glyph unicode="W" horiz-adv-x="1777" d="M38 1364q16 72 64 72h16q64 0 83 -114l280 -973h8q292 1031 311 1061q25 26 53 26h11q67 0 87 -136q27 -74 277 -955h4l307 1057q27 34 53 34h15q68 -14 68 -60v-19l-383 -1327q-31 -30 -60 -30h-4q-71 0 -91 140q-246 836 -277 959h-3l-307 -1065q-28 -34 -61 -34h-15 q-62 0 -84 144q-325 1106 -352 1220z" />
<glyph unicode="X" horiz-adv-x="1300" d="M29 72v11q0 25 163 224l322 417q-470 596 -481 619l-4 22q16 72 64 72h16q44 0 72 -56l425 -543l458 588q20 11 38 11h12q55 0 68 -72v-3q0 -33 -102 -152l-383 -493l477 -611l8 -30v-4q-13 -72 -72 -72h-4q-49 0 -83 72l-417 531l-459 -588q-20 -15 -42 -15h-4 q-72 13 -72 72z" />
<glyph unicode="Y" horiz-adv-x="1153" d="M42 1361q16 72 64 72h16q49 0 79 -72l345 -516h4q372 562 387 573q20 15 34 15h23q46 0 64 -72q0 -32 -129 -209l-307 -458v-611q-9 -83 -64 -83h-16q-49 0 -68 61v621q0 14 -159 251l-269 405z" />
<glyph unicode="Z" horiz-adv-x="1271" d="M34 80q0 28 182 254l740 956h-846q-76 15 -76 75q16 72 64 72h1021q55 0 68 -72v-3q0 -29 -83 -126l-842 -1088h853q72 -11 72 -72v-4q-13 -72 -72 -72h-1009q-60 0 -72 80z" />
<glyph unicode="[" horiz-adv-x="779" d="M247 -343v1832q7 88 72 88v4l40 -4h292l44 4q72 -25 72 -72v-12q0 -50 -64 -76l-68 4h-232v-1692h292q72 -16 72 -68v-12q0 -66 -84 -76h-356q-80 16 -80 80z" />
<glyph unicode="\" horiz-adv-x="691" d="M0 1468q12 80 76 80h4q76 0 116 -172q364 -976 508 -1388q-14 -80 -76 -80h-16q-61 0 -104 168q-472 1272 -508 1392z" />
<glyph unicode="]" horiz-adv-x="758" d="M26 -335q0 49 76 72l20 -4h268v1692h-220l-76 -4q-68 23 -68 80q0 55 68 80l60 -4h276l44 4q72 -20 72 -76v-1860q0 -53 -76 -68h-368q-66 0 -76 84v4z" />
<glyph unicode="^" horiz-adv-x="942" d="M44 934q0 32 80 148q207 328 228 340l32 12h16q53 0 112 -116q232 -351 232 -372v-24q0 -56 -84 -68q-50 0 -140 168l-128 188l-220 -340q-34 -16 -56 -16q-54 0 -72 80z" />
<glyph unicode="_" horiz-adv-x="958" d="M1 -99q20 70 74 70h885q74 -13 74 -70v-12q-14 -70 -70 -70h-889q-63 0 -74 82z" />
<glyph unicode="`" horiz-adv-x="752" d="M211 1331v12q0 52 72 68h12q39 0 108 -84q180 -169 180 -192l4 -20q-16 -76 -76 -76h-8q-44 0 -164 136q-128 111 -128 156z" />
<glyph unicode="a" horiz-adv-x="1199" d="M42 515q0 285 280 452q119 56 232 56q290 0 459 -284q52 -115 52 -239v-433q0 -55 -71 -67h-4q-48 0 -71 56v4l4 93v4q-165 -157 -355 -157h-29q-260 0 -434 261q-63 126 -63 254zM188 508q0 -223 224 -336q71 -26 127 -26h29q186 0 307 186q44 88 44 168v15 q0 215 -212 329q-74 33 -153 33h-4q-226 0 -340 -235q-22 -73 -22 -123v-11z" />
<glyph unicode="b" horiz-adv-x="1230" d="M73 544v823q0 50 68 65h11q68 -15 68 -65v-491q165 159 371 159q199 0 362 -151q155 -163 155 -366q0 -291 -276 -458q-119 -60 -230 -60h-30q-209 0 -389 196q-110 147 -110 348zM220 510q0 -231 242 -344q65 -19 117 -19h23q225 0 340 242q19 73 19 113v23 q0 230 -246 344q-75 19 -117 19h-15q-225 0 -340 -238q-23 -67 -23 -121v-19z" />
<glyph unicode="c" horiz-adv-x="1036" d="M34 513q0 250 221 420q141 93 292 93q198 0 360 -149q11 -20 11 -38v-4q-13 -71 -71 -71h-4q-27 0 -120 71q-83 42 -165 42h-22q-218 0 -330 -229q-26 -77 -26 -139q0 -222 229 -337q69 -26 146 -26q129 0 254 105l30 7h12q55 0 67 -71v-3q0 -77 -240 -169 q-81 -15 -120 -15h-30q-207 0 -385 195q-109 154 -109 318z" />
<glyph unicode="d" horiz-adv-x="1200" d="M34 518q0 251 223 423q142 94 295 94q197 0 370 -155v427l-4 60q21 65 64 65h15q68 -14 68 -61v-748l4 -128q0 -148 -121 -310q-171 -185 -385 -185h-30q-209 0 -389 196q-110 156 -110 322zM181 510q0 -231 242 -344q65 -19 117 -19h23q225 0 340 242q19 73 19 113v23 q0 230 -246 344q-75 19 -117 19h-15q-225 0 -340 -238q-23 -67 -23 -121v-19z" />
<glyph unicode="e" horiz-adv-x="1166" d="M34 513q0 281 266 448q129 64 243 64q296 0 460 -281q56 -110 56 -239v-19q-13 -75 -71 -75h-789q44 -149 190 -228q86 -33 161 -33q87 0 199 56h22q67 -13 67 -68v-11q0 -92 -269 -127h-26q-276 0 -442 258q-67 122 -67 255zM187 557h719q0 77 -90 199 q-123 116 -243 116h-41q-180 0 -296 -176q-40 -70 -49 -139z" />
<glyph unicode="f" horiz-adv-x="866" d="M29 940q0 38 61 68l75 -3h122v68q0 254 223 348l88 16h91q52 0 64 -80q0 -51 -76 -68h-57q-138 0 -182 -152l-3 -79v-53h163l60 3q48 0 65 -72v-11q0 -48 -69 -65h-219v-750l3 -42q0 -51 -75 -68q-52 0 -76 64l4 46v750h-198q-52 0 -64 80z" />
<glyph unicode="g" horiz-adv-x="1208" d="M39 512q0 248 219 416q140 93 290 93q227 0 394 -189q115 -158 115 -298l-4 -126v-449q0 -126 -193 -275q-149 -97 -312 -97q-279 0 -461 249q-33 55 -33 74v11q0 49 67 64h11q50 0 85 -93q134 -168 331 -168q237 0 357 216l7 48v167q-165 -152 -353 -152h-30 q-205 0 -382 193q-108 153 -108 316zM184 505q0 -227 238 -338q64 -19 115 -19h22q222 0 335 238q18 71 18 111v23q0 226 -241 338q-75 18 -116 18h-14q-222 0 -335 -234q-22 -65 -22 -119v-18z" />
<glyph unicode="h" horiz-adv-x="1125" d="M73 68v1291q15 71 64 71h15q68 -14 68 -60v-461q145 125 310 125q252 0 403 -238q57 -106 57 -200v-528q0 -56 -72 -68h-3q-54 0 -72 68v506q0 204 -211 294q-51 15 -102 15q-210 0 -295 -223q-15 -48 -15 -158v-434q0 -56 -72 -68h-3q-54 0 -72 68z" />
<glyph unicode="i" horiz-adv-x="431" d="M102 75v869q9 86 75 86q72 -18 72 -64v-898q0 -56 -72 -68h-4q-57 0 -71 75zM102 1211q15 75 75 75q72 -18 72 -64v-22q0 -53 -79 -64q-51 0 -68 75z" />
<glyph unicode="j" horiz-adv-x="656" d="M0 -327q0 55 81 67q208 0 277 210l8 111v895q0 58 74 70q70 -14 70 -70v-928q0 -276 -262 -403q-92 -33 -159 -33l-4 4h-4l-3 -4h-4q-63 0 -74 81zM366 1192v22q0 45 70 63q74 -15 74 -74q0 -62 -78 -74q-66 19 -66 63z" />
<glyph unicode="k" horiz-adv-x="1056" d="M77 68v1295q15 72 64 72h15q69 -15 69 -61v-746q535 354 624 405h19q60 0 72 -79q0 -46 -121 -110q-294 -199 -307 -201v-3l424 -538l4 -23v-3q-13 -72 -72 -72h-7q-44 0 -133 128l-341 424h-3l-159 -102v-386q0 -56 -72 -68h-4q-54 0 -72 68z" />
<glyph unicode="l" horiz-adv-x="473" d="M65 75v1270q9 82 64 82h15q68 -14 68 -60v-1220h79q49 0 64 -72v-3q-12 -72 -72 -72h-146q-58 0 -72 75z" />
<glyph unicode="m" horiz-adv-x="1675" d="M64 73v849q8 84 73 84q70 -18 70 -62v-37q122 99 265 99q190 0 334 -176q59 109 242 165l84 11q230 0 364 -220q44 -92 44 -176v-548q0 -48 -70 -62h-3q-70 12 -70 70v532q0 181 -191 250l-51 7h-37q-152 0 -232 -176q-11 -39 -11 -66v-544q-13 -73 -69 -73h-4 q-70 12 -70 66v452q0 188 -51 235q-79 106 -206 106h-11q-175 0 -246 -187q-11 -45 -11 -118v-488q0 -54 -70 -66h-3q-56 0 -70 73z" />
<glyph unicode="n" horiz-adv-x="1197" d="M78 75v862q9 86 75 86q71 -18 71 -64v-82q162 146 354 146q211 0 374 -176q119 -147 119 -309v-475q0 -49 -71 -63h-4q-71 13 -71 71v418q0 281 -242 370q-59 15 -105 15h-11q-203 0 -314 -210q-29 -64 -29 -205v-392q0 -55 -71 -67h-4q-57 0 -71 75z" />
<glyph unicode="o" horiz-adv-x="1170" d="M38 509q0 248 219 416q140 93 290 93q197 0 357 -149q152 -160 152 -360q0 -286 -271 -450q-117 -59 -227 -59h-30q-205 0 -382 193q-108 153 -108 316zM187 502q0 -204 197 -316q71 -37 152 -37h22q211 0 323 219q26 69 26 134v18q0 170 -156 286q-91 63 -208 63 q-231 0 -338 -241q-18 -59 -18 -108v-18z" />
<glyph unicode="p" horiz-adv-x="1172" d="M59 -342v822q0 384 363 518q45 14 144 22q196 0 355 -148q152 -160 152 -359q0 -285 -270 -448q-117 -59 -226 -59h-30q-176 0 -344 152v-511q0 -47 -74 -63q-53 0 -70 74zM207 505q0 -202 196 -314q71 -37 152 -37h22q211 0 322 218q26 69 26 133v19q0 169 -155 285 q-92 63 -208 63q-230 0 -336 -241q-19 -59 -19 -107v-19z" />
<glyph unicode="q" horiz-adv-x="1178" d="M45 505q0 246 217 413q140 92 288 92q195 0 354 -147q151 -147 151 -391v-818q-17 -74 -70 -74q-74 16 -74 63v508q-164 -151 -350 -151h-29q-204 0 -380 192q-107 152 -107 313zM192 498q0 -202 196 -313q70 -37 151 -37h22q210 0 321 217q26 69 26 133v18 q0 168 -155 284q-91 63 -207 63q-229 0 -335 -240q-19 -58 -19 -107v-18z" />
<glyph unicode="r" horiz-adv-x="925" d="M99 75v869q9 87 75 87q72 -18 72 -64v-83q165 147 353 147q101 0 215 -49q30 -31 30 -60v-4q-12 -71 -71 -71h-4q-103 33 -155 33h-22q-221 0 -324 -229q-22 -61 -22 -139v-444q0 -56 -72 -68h-4q-57 0 -71 75z" />
<glyph unicode="s" horiz-adv-x="968" d="M20 688q0 140 203 270q112 59 222 59q257 0 404 -233l3 -29v-4q0 -59 -74 -70q-49 0 -100 85q-103 100 -233 100q-171 0 -270 -163l-3 -19q0 -49 111 -59q426 -103 466 -118q107 -70 107 -178v-3q0 -154 -226 -282q-97 -44 -207 -44q-225 0 -381 211q-15 22 -15 41v22 q0 54 82 63q35 0 100 -93q99 -92 229 -92q156 0 259 148l7 22v4q0 48 -66 55q-497 111 -526 137q-92 70 -92 170z" />
<glyph unicode="t" horiz-adv-x="704" d="M13 931q12 70 66 70v4l37 -4h91v308q9 81 63 81h14q66 -14 66 -59v-330h151l33 4q51 0 69 -74q0 -50 -62 -73l-55 4h-136v-539q0 -141 92 -173l84 -7h41q48 0 62 -70v-3q-12 -70 -70 -70h-77q-175 0 -260 191q-15 47 -15 110v561h-73l-59 -4q-62 22 -62 73z" />
<glyph unicode="u" horiz-adv-x="1188" d="M70 532v409q9 86 75 86q71 -18 71 -64v-401q0 -257 146 -345q93 -71 207 -71q218 0 329 225q23 73 23 146v435q15 75 75 75q71 -16 71 -71v-892q0 -50 -71 -64h-4q-71 13 -71 71v71h-4q-156 -142 -337 -142h-26q-233 0 -405 229q-79 123 -79 303z" />
<glyph unicode="v" horiz-adv-x="1132" d="M29 943v18q13 68 68 68h7q59 0 102 -124l322 -661q350 742 372 766q26 19 49 19q75 -14 75 -71v-4q0 -19 -165 -361l-278 -570q-30 -23 -53 -23h-3q-64 0 -113 143q-363 742 -383 800z" />
<glyph unicode="w" horiz-adv-x="1416" d="M34 935q15 74 74 74q68 0 95 -148l181 -555h3q207 659 221 677q26 22 56 26q66 0 88 -122l188 -581h3q199 631 217 670q31 33 59 33q74 -15 74 -74l-291 -906q-31 -29 -59 -29h-3q-68 0 -96 144q-177 536 -177 552h-7l-214 -663q-25 -33 -59 -33h-3q-52 0 -74 66z" />
<glyph unicode="x" horiz-adv-x="968" d="M38 77q0 29 140 187l187 239l-320 400l-7 30q15 73 73 73q45 0 114 -106q188 -225 228 -283h4q32 32 301 371q13 12 47 18q70 -17 70 -62v-22q0 -23 -132 -177l-195 -246q327 -393 327 -411v-22q0 -54 -70 -66h-3q-43 0 -96 84l-249 305q-294 -367 -309 -378 q-18 -11 -37 -11h-3q-59 0 -70 77z" />
<glyph unicode="y" horiz-adv-x="913" d="M4 936v3q14 69 70 69q59 0 101 -138q227 -538 234 -566h3q274 669 290 687q25 21 49 21q69 -13 69 -66v-4q-3 -25 -345 -840q-161 -401 -181 -426q-18 -14 -45 -21q-70 15 -70 60v17q0 13 157 391v3z" />
<glyph unicode="z" horiz-adv-x="1018" d="M38 78q0 29 151 203l466 587h-495l-59 -4q-63 22 -63 74q12 70 66 70v4l37 -4h639l34 4q66 -20 66 -63v-22q0 -23 -85 -115l-532 -668h551q66 -13 66 -66v-12q0 -54 -70 -66h-702q-59 0 -70 78z" />
<glyph unicode="{" d="M264 669q16 73 65 73h61q83 0 83 53v574q0 166 168 217l42 4h140q67 0 84 -61v-23q0 -48 -68 -64h-145q-72 0 -72 -76v-579q0 -47 -46 -121q49 -55 49 -130v-586q0 -61 73 -61h141q68 -14 68 -68v-15q0 -50 -72 -65h-149q-150 0 -205 167l-4 50v574q0 50 -53 61h-84 q-76 15 -76 76z" />
<glyph unicode="|" d="M431 -342v1884q13 77 73 77h8q69 -13 69 -69v-1908q0 -48 -77 -65q-58 0 -73 81z" />
<glyph unicode="}" d="M106 -167q12 71 67 71h139q71 0 71 60v562q0 85 49 146q-45 65 -45 120v580q0 60 -71 60h-143q-55 0 -67 71q11 75 71 75h154q141 0 198 -157l4 -34v-580q0 -64 86 -64h60q60 -18 60 -67v-15q0 -50 -71 -64h-79q-60 0 -60 -94v-554q0 -126 -157 -187l-45 -4h-150 q-71 11 -71 71v4z" />
<glyph unicode="~" d="M186 727v14q0 72 106 96q38 14 81 14h24q92 0 212 -81l38 -10h24l96 29q96 -19 96 -96q0 -97 -182 -120h-34q-91 0 -211 82l-39 9h-24l-91 -24h-10q-86 17 -86 87z" />
<glyph unicode="&#xa1;" horiz-adv-x="672" d="M216 1236q20 91 84 91h14q62 0 87 -63l7 -28q0 -85 -101 -98q-76 0 -91 98zM244 67v935q0 52 66 63h4q66 -11 66 -66v-929q-10 -66 -66 -66h-7q-63 12 -63 63z" />
<glyph unicode="&#xa2;" horiz-adv-x="1105" d="M48 502q0 271 260 439q128 62 245 62l40 -3q117 354 132 365q24 22 47 22h11q66 -12 66 -66v-11l-117 -343q179 -82 179 -147v-3q-12 -70 -69 -70h-4q-27 0 -117 70l-37 14l-234 -673q42 -14 106 -14q126 0 249 102l29 8h11q54 0 66 -70v-4q0 -74 -234 -164 q-79 -15 -117 -15h-29q-49 0 -132 22q-93 -286 -113 -300l-48 -18q-73 17 -73 73q0 14 106 307q-223 166 -223 417zM191 499q0 -156 128 -271h3l220 629h-4q-212 0 -322 -223q-25 -76 -25 -135z" />
<glyph unicode="&#xa3;" horiz-adv-x="946" d="M79 697q15 77 77 77h89v4q-112 204 -112 316q0 231 243 356q76 23 112 23h39q182 0 309 -170l4 -27q-18 -77 -77 -77q-36 0 -101 73q-66 50 -135 50h-23q-153 0 -216 -181l-4 -50q0 -78 139 -317h232q77 -15 77 -77q-17 -74 -66 -74h-205l4 -27v-50q0 -126 -108 -340 l-19 -46h390q7 0 42 81q32 31 62 31q78 -16 78 -78q0 -27 -74 -162q-27 -23 -54 -23h-568q-59 0 -73 77q0 18 150 344q24 69 24 128l-4 65h-159q-73 14 -73 74z" />
<glyph unicode="&#xa4;" d="M190 451v12q0 42 80 108q-36 71 -36 128v20q0 69 36 140q-80 65 -80 104v20q20 64 64 64h20q36 0 108 -80q64 36 124 36h24q73 0 136 -36q69 80 100 80h28q64 -20 64 -72v-8q0 -38 -80 -112q36 -69 36 -140q0 -63 -36 -148q80 -64 80 -104v-16q-21 -68 -68 -68h-20 q-27 0 -104 80h-4q-64 -36 -144 -36q-53 0 -140 36q-65 -80 -108 -80h-8q-72 14 -72 72zM382 715q0 -100 116 -140h28q109 0 136 124v28q-29 124 -124 124l-12 4q-144 -24 -144 -140z" />
<glyph unicode="&#xa5;" horiz-adv-x="1262" d="M70 545q0 60 77 74h291q-105 162 -110 162h-192q-66 19 -66 70q0 65 85 73h81q-105 165 -114 166q-52 23 -52 74q0 49 74 66h169q61 0 74 -77q0 -47 -70 -67q223 -344 294 -442h8q302 438 302 450h-4q-41 25 -41 55v18q19 63 74 63h144q61 0 73 -77q0 -33 -58 -70 l-107 -159h73q85 -8 85 -70v-7q0 -53 -70 -66h-188l-107 -162h288q77 -15 77 -70v-4q0 -60 -74 -70v-4l-36 4h-354v-409q0 -49 -74 -66h-3q-62 0 -85 59l4 63v346l-8 7h-350l-33 -4q-77 16 -77 74z" />
<glyph unicode="&#xa6;" horiz-adv-x="770" d="M286 308q9 88 77 88q73 -19 73 -65v-693q0 -48 -77 -65q-58 0 -73 81v654zM286 873v665q13 77 73 77h8q69 -13 69 -69v-681q0 -56 -73 -69h-4q-59 0 -73 77z" />
<glyph unicode="&#xa7;" d="M162 1068v15q0 205 198 318q76 39 151 39h35q165 0 291 -151l4 -23q-10 -63 -54 -63h-19q-20 0 -94 70q-67 43 -143 43q-181 0 -241 -202v-46q0 -155 175 -229q188 -29 237 -82q124 -110 124 -233v-50q0 -116 -136 -233q163 -124 163 -303q0 -204 -194 -322 q-87 -43 -167 -43h-12q-182 0 -306 155l-4 24q0 52 70 62q24 0 85 -62q76 -55 155 -55q162 0 233 171l12 66q0 182 -202 248q-121 15 -171 47q-167 113 -167 268v19q0 158 140 253q-163 129 -163 299zM313 505q0 -132 148 -183l39 -4h23q123 0 175 148l4 39q0 143 -163 190 l-39 4q-130 0 -183 -144l-4 -35v-15z" />
<glyph unicode="&#xa8;" horiz-adv-x="1024" d="M212 1229q19 80 80 80q80 -19 80 -80q-16 -80 -80 -80q-80 16 -80 80zM664 1229q19 80 80 80q80 -19 80 -80q-16 -80 -80 -80q-80 16 -80 80z" />
<glyph unicode="&#xa9;" horiz-adv-x="1674" d="M110 718q0 352 309 591q196 132 414 132q361 0 599 -324q120 -183 120 -399q0 -386 -358 -621q-171 -98 -369 -98q-325 0 -561 279q-154 206 -154 440zM219 711q0 -324 309 -528q157 -79 305 -79q314 0 516 283q98 158 98 335q0 318 -294 523q-157 87 -301 87h-38 q-281 0 -482 -256q-113 -163 -113 -347v-18zM321 718q0 267 248 437q123 75 275 75q189 0 350 -143q15 -20 15 -41v-8q0 -64 -79 -71h-3q-15 0 -125 79q-95 37 -165 37q-227 0 -343 -233q-23 -65 -23 -124v-27q0 -183 185 -305q95 -49 181 -49q134 0 267 110l30 7 q75 -10 75 -71v-8q0 -72 -218 -162q-96 -22 -154 -22q-298 0 -463 289q-53 116 -53 230z" />
<glyph unicode="&#xaa;" horiz-adv-x="648" d="M53 1145q0 176 196 248l40 4h32q150 0 228 -168l16 -76l-4 -64v-140l4 -24q-7 -27 -28 -36h-12q-22 0 -36 24v48q-86 -72 -172 -72h-8q-184 0 -248 196q-8 20 -8 60zM129 1137q0 -130 156 -172h32q117 0 168 140l4 40q0 118 -132 172l-48 8q-121 0 -176 -136z" />
<glyph unicode="&#xab;" horiz-adv-x="944" d="M242 496q0 22 120 160q120 152 140 152l4 4h4q44 -14 44 -32v-20q0 -20 -184 -236l-24 -32q212 -242 212 -268q-8 -44 -40 -44h-20q-35 26 -252 296zM490 488v20q204 258 252 296l24 4q36 -19 36 -44v-4q0 -21 -204 -260l-4 -12q196 -228 208 -252v-20q-8 -40 -40 -40h-4 q-31 0 -104 104q-164 185 -164 208z" />
<glyph unicode="&#xac;" d="M79 676q17 76 68 76h712q72 -14 72 -72v-348q0 -53 -76 -68h-4q-76 14 -76 76v256h-616q-80 16 -80 80z" />
<glyph unicode="&#xad;" horiz-adv-x="670" d="M68 576q20 72 76 72h400q59 0 76 -80q-18 -76 -76 -76h-400q-65 0 -76 84z" />
<glyph unicode="&#xae;" horiz-adv-x="1674" d="M100 721q0 353 311 593q198 132 417 132q364 0 604 -325q121 -184 121 -400q0 -387 -360 -623q-173 -98 -372 -98q-328 0 -565 279q-156 208 -156 442zM210 714q0 -325 311 -529q158 -79 307 -79q317 0 520 283q99 159 99 336q0 319 -296 525q-158 87 -304 87h-38 q-283 0 -485 -257q-114 -164 -114 -348v-18zM567 287v876q8 53 49 53h186q205 0 269 -208q8 -21 8 -64q0 -149 -156 -234q225 -388 235 -416v-7q-16 -45 -45 -45h-15q-34 0 -80 98l-201 347h-148v-396q-7 -49 -42 -49h-26q-34 19 -34 45zM669 785h95q160 0 197 98 q15 35 15 72q0 106 -121 151q-17 8 -49 8h-137v-329z" />
<glyph unicode="&#xaf;" horiz-adv-x="806" d="M-82 1706q19 70 70 70h844q70 -13 70 -70v-12q-13 -70 -67 -70h-847q-60 0 -70 82z" />
<glyph unicode="&#xb0;" horiz-adv-x="674" d="M60 1164q0 116 81.5 197t197.5 81q115 0 196 -81.5t81 -196.5q0 -114 -82 -196t-197 -82q-117 0 -197 81t-80 197zM160 1161q0 -75 52.5 -126.5t127.5 -51.5t126.5 51.5t51.5 126.5t-52 127.5t-126 52.5t-127 -52.5t-53 -127.5z" />
<glyph unicode="&#xb1;" d="M145 284v8q0 50 68 76l48 -4h536l36 4q72 -20 72 -76v-8q0 -51 -64 -76l-68 4h-496l-64 -4q-68 23 -68 76zM145 804v8q0 61 80 76h224v192l-4 36q22 72 68 72h24q43 0 68 -68l-4 -40v-192h224q80 -13 80 -76v-8q0 -56 -72 -76l-28 4h-204v-188l4 -44q0 -54 -80 -72 q-55 0 -80 68l4 48v188h-204l-24 -4q-76 19 -76 76z" />
<glyph unicode="&#xb2;" d="M304 1335q0 106 101 173q54 29 101 29q95 0 166 -86q37 -56 37 -116q0 -93 -90 -177l-197 -225h264q26 0 32 -33v-2q-5 -34 -34 -34h-343q-33 6 -33 34v2q0 16 33 47l274 313q23 33 23 75q0 90 -93 125q-16 5 -36 5h-5q-86 0 -124 -91q-5 -20 -7 -46q-12 -25 -32 -25h-3 q-34 6 -34 32z" />
<glyph unicode="&#xb3;" d="M291 1067q0 25 38 33q27 0 32 -36q0 -77 81 -122q30 -11 57 -11q81 0 122 84q9 26 9 44v14q0 76 -84 118l-59 13q-18 14 -18 30v2q0 34 48 34q35 0 74 47q14 30 14 56q0 58 -57 89q-21 11 -47 11q-67 0 -95 -72q-6 -52 -13 -52q-12 -14 -25 -14q-36 8 -36 30v9 q0 94 94 149q36 18 77 20q80 0 138 -72q32 -44 32 -97v-7q0 -74 -64 -131q93 -67 93 -170q0 -106 -100 -176q-52 -29 -103 -29h-5q-120 0 -187 124q-16 46 -16 82z" />
<glyph unicode="&#xb4;" horiz-adv-x="889" d="M220 1110v16q0 34 140 160q113 128 156 128q68 0 80 -88q0 -40 -184 -204q-68 -84 -108 -84h-12q-72 14 -72 72z" />
<glyph unicode="&#xb5;" horiz-adv-x="1180" d="M119 -350v1284q9 85 75 85q70 -18 70 -63v-399q0 -257 146 -343q92 -71 205 -71q218 0 328 224q23 72 23 145v433q15 74 74 74q71 -16 71 -71v-887q0 -49 -71 -64h-3q-71 13 -71 71v71h-4q-156 -142 -336 -142h-26q-175 0 -336 146v-508q0 -47 -74 -63q-56 0 -71 78z" />
<glyph unicode="&#xb6;" horiz-adv-x="1024" d="M70 1094q0 201 204 310q62 31 129 31h462q68 -15 68 -61v-19q0 -56 -72 -68h-11v-1211q-14 -76 -72 -76h-4q-72 12 -72 68v1219h-140v-1215q-12 -72 -72 -72h-4q-72 13 -72 72v674h-11q-186 0 -299 196q-34 75 -34 152z" />
<glyph unicode="&#xb7;" horiz-adv-x="508" d="M156 630q0 76 86 110q12 6 33 6q90 0 116 -107v-21q0 -64 -82 -101q-12 -6 -34 -6h-3q-96 0 -116 119z" />
<glyph unicode="&#xb8;" horiz-adv-x="1024" d="M332 -363q12 63 63 63h121q66 0 66 52v3q0 40 -62 52q-42 20 -42 53v111q0 53 70 66q66 -13 66 -59v-56q104 -69 104 -170q0 -146 -170 -188l-49 3h-52l-56 -3q-59 20 -59 59v14z" />
<glyph unicode="&#xb9;" d="M410 1498v9q0 26 72 41l53 16h5q32 -7 32 -31v-611q-6 -34 -34 -34h-1q-34 7 -34 30v564q-48 -16 -63 -16q-22 0 -30 32z" />
<glyph unicode="&#xba;" horiz-adv-x="718" d="M177 1230v5q0 119 42 216q62 92 151 92q107 0 164 -115q31 -96 31 -177v-38q0 -100 -41 -201q-59 -92 -150 -92h-6q-98 0 -155 105q-36 92 -36 205zM236 1222q0 -114 41 -191q40 -49 90 -49h5q111 0 129 171q5 27 7 80q0 95 -33 182q-41 65 -103 65q-76 0 -111 -83 q-25 -82 -25 -158v-17z" />
<glyph unicode="&#xbb;" horiz-adv-x="944" d="M207 211q0 25 108 148l104 128q-197 229 -208 252v20q0 32 44 40q30 0 124 -128q144 -161 144 -188q0 -22 -204 -260q-39 -56 -64 -56h-4q-44 8 -44 44zM455 199v20q0 25 204 256l4 16q-208 239 -208 264q10 48 44 48q31 0 108 -108q160 -180 160 -204v-20 q-195 -249 -256 -300h-28q-19 9 -28 28z" />
<glyph unicode="&#xbc;" horiz-adv-x="1470" d="M120 65v23q0 23 145 201q813 1061 878 1138q20 15 42 15h12q56 0 68 -72v-4q0 -34 -125 -179q-96 -134 -902 -1172q-25 -15 -50 -15q-68 19 -68 65zM162 1354q0 48 110 65q0 5 46 15q25 0 45 -34l-3 -57v-654l3 -35q-13 -41 -45 -41q-26 0 -42 30v685l-65 -15h-19 q-30 16 -30 41zM733 285v19q335 431 384 503q15 22 38 22q29 0 45 -38l-3 -38v-418h87q35 0 42 -50q-16 -38 -46 -38h-83v-217q-18 -30 -42 -30q-46 9 -46 46v201h-338q-38 8 -38 38zM869 335h240v312h-4z" />
<glyph unicode="&#xbd;" horiz-adv-x="1492" d="M110 64v23q0 23 144 201q811 1057 876 1134q20 15 42 15h11q56 0 68 -72v-4q0 -34 -125 -178q-95 -133 -898 -1168q-25 -15 -50 -15q-68 19 -68 64zM152 1350q0 47 110 64q0 5 45 15q25 0 46 -34l-4 -57v-652l4 -34q-14 -42 -46 -42q-25 0 -42 31v682l-64 -15h-19 q-30 16 -30 42zM834 569q0 160 175 235l68 11q171 0 243 -186l3 -38v-41q0 -98 -155 -247l-186 -216h296l15 4q42 -14 42 -30v-19q-8 -38 -38 -38h-417q-33 0 -42 45q0 15 182 213q212 235 212 265l4 27v34q-32 140 -155 140q-108 0 -156 -121q0 -64 -34 -76h-15 q-27 0 -42 38z" />
<glyph unicode="&#xbe;" horiz-adv-x="1541" d="M110 868q0 20 30 38h19q39 0 45 -83q44 -117 147 -117h12q112 0 151 132l4 30q0 109 -129 155q-68 0 -68 49q10 41 61 41q76 0 102 106v26q0 71 -99 106h-22q-85 0 -117 -98v-34q-16 -30 -38 -30h-11q-38 7 -38 37v8q0 143 162 200l46 4q124 0 188 -129q15 -35 15 -64 v-22q0 -83 -75 -155q109 -76 109 -204q0 -176 -196 -241l-53 -4h-7q-166 0 -234 196zM212 64v23q0 23 143 200q807 1052 872 1128q20 15 41 15h12q55 0 68 -72v-3q0 -34 -125 -178q-95 -133 -894 -1162q-25 -15 -49 -15q-68 19 -68 64zM819 283v19q333 427 381 498 q16 23 38 23q29 0 45 -38l-3 -38v-415h86q35 0 42 -49q-16 -38 -45 -38h-83v-215q-18 -30 -42 -30q-45 9 -45 45v200h-336q-38 8 -38 38zM955 332h238v309h-4z" />
<glyph unicode="&#xbf;" horiz-adv-x="977" d="M26 81q0 244 245 392q102 92 102 260q31 42 68 42q75 -13 75 -72v-7q0 -256 -245 -400q-98 -93 -98 -222q0 -166 173 -256q65 -23 113 -23q164 0 253 162q21 35 34 143q35 42 68 42q75 -18 75 -72q0 -210 -207 -358q-115 -64 -223 -64q-214 0 -354 185q-79 112 -79 248z M343 975v3q19 102 98 102h11q81 0 98 -105q-18 -98 -102 -98h-4q-84 0 -101 98z" />
<glyph unicode="&#xc0;" horiz-adv-x="1220" d="M0 72v4l129 348q338 879 367 976q34 38 64 38q69 0 102 -140q458 -1190 462 -1219v-11q0 -56 -72 -68h-4q-66 0 -94 129l-171 442h-442l-209 -548q-30 -23 -53 -23h-7q-72 13 -72 72zM401 719h326v4l-163 427h-4zM405 1718q19 68 72 68h7q46 0 133 -125q60 -64 60 -94 q-13 -76 -71 -76h-16q-37 0 -140 144q-45 38 -45 83z" />
<glyph unicode="&#xc1;" horiz-adv-x="1212" d="M0 72v3l128 347q337 875 366 972q33 38 64 38q68 0 101 -140q456 -1185 460 -1213v-11q0 -56 -72 -68h-3q-67 0 -95 128l-169 441h-441l-207 -546q-30 -23 -53 -23h-7q-72 13 -72 72zM399 716h324v4l-162 425h-3zM430 1556v4q0 37 116 166q33 52 76 52h3q72 -14 72 -64 v-15q0 -32 -79 -117q-65 -98 -109 -98h-12q-55 0 -67 72z" />
<glyph unicode="&#xc2;" horiz-adv-x="1212" d="M0 72v3l128 347q337 875 366 972q33 38 64 38q68 0 101 -140q456 -1185 460 -1213v-11q0 -56 -72 -68h-3q-67 0 -95 128l-169 441h-441l-207 -546q-30 -23 -53 -23h-7q-72 13 -72 72zM358 1552q0 33 117 166q36 53 75 53h30q36 0 125 -121q60 -64 60 -98v-3 q-11 -72 -72 -72h-7q-46 0 -121 113h-4q-80 -113 -120 -113h-11q-58 0 -72 75zM399 716h324v4l-162 425h-3z" />
<glyph unicode="&#xc3;" horiz-adv-x="1216" d="M0 72v3l128 347q337 875 366 972q33 38 64 38q68 0 101 -140q456 -1185 460 -1213v-11q0 -56 -72 -68h-3q-67 0 -95 128l-169 441h-441l-207 -546q-30 -23 -53 -23h-7q-72 13 -72 72zM298 1597v8q0 72 139 87l15 3q79 0 189 -71l33 -4l76 23h7q72 -12 72 -72v-4 q0 -70 -124 -90l-38 -4q-79 0 -181 72l-30 4l-83 -23q-75 14 -75 71zM399 716h324v4l-162 425h-3z" />
<glyph unicode="&#xc4;" horiz-adv-x="1225" d="M0 72v3l128 347q337 875 366 972q33 38 64 38q68 0 101 -140q456 -1185 460 -1213v-11q0 -56 -72 -68h-3q-67 0 -95 128l-169 441h-441l-207 -546q-30 -23 -53 -23h-7q-72 13 -72 72zM343 1609v11q0 49 68 64h11q68 -15 68 -64v-11q0 -60 -76 -72q-71 14 -71 72zM399 716 h324v4l-162 425h-3zM629 1605v19q19 60 68 60h15q53 0 64 -79q0 -51 -75 -68q-72 13 -72 68z" />
<glyph unicode="&#xc5;" horiz-adv-x="1219" d="M0 72v4l128 347q338 878 367 975q34 38 64 38q69 0 102 -140q457 -1189 461 -1217v-11q0 -56 -72 -68h-4q-66 0 -94 128l-170 442h-442l-208 -547q-30 -23 -53 -23h-7q-72 13 -72 72zM370 1647q0 127 148 181l37 4h15q121 0 174 -147l4 -38v-11q0 -118 -140 -174l-45 -8 q-113 0 -174 114q-19 41 -19 79zM400 718h325v4l-162 426h-4zM487 1643q13 -71 72 -71q72 12 72 68v11q-11 64 -64 64h-12q-57 0 -68 -72z" />
<glyph unicode="&#xc6;" horiz-adv-x="1565" d="M0 80q0 22 242 446l493 886q28 23 45 23h595q46 0 64 -72q-15 -75 -76 -75h-500v-568h390q69 -15 69 -61v-19q0 -56 -72 -68h-387v-424h504q58 0 72 -76q0 -56 -76 -72h-575q-58 0 -72 76v496h-277q-20 -24 -166 -296l-144 -253q-27 -23 -53 -23h-4q-60 0 -72 80z M519 720h197v352z" />
<glyph unicode="&#xc7;" horiz-adv-x="1399" d="M13 727q0 366 334 597q178 108 366 108q223 0 404 -134q19 -25 19 -48q-13 -74 -74 -74q-17 0 -134 63q-119 44 -215 44q-264 0 -455 -241q-97 -161 -97 -315q0 -308 289 -489q128 -67 256 -67h11q162 0 323 100l18 4h8q70 -12 70 -70v-4q0 -93 -293 -167l-67 -7v-74 q112 -74 112 -182q0 -156 -182 -200l-52 4h-55l-60 -4q-63 21 -63 63v15q13 67 67 67h130q70 0 70 55v4q0 42 -67 55q-44 21 -44 56v141q-145 14 -315 118q-304 236 -304 582z" />
<glyph unicode="&#xc8;" horiz-adv-x="1039" d="M0 72v1288q11 72 72 72v4l19 -4h740l15 4q65 0 76 -83q-15 -68 -83 -68h-692v-510h454l53 3q51 0 68 -75q0 -49 -61 -76l-75 4h-439v-484h711q52 0 64 -79q-20 -68 -68 -68h-782q-72 13 -72 72zM283 1761q20 68 72 68h8q45 0 132 -125q60 -64 60 -94q-13 -76 -71 -76h-15 q-38 0 -140 144q-46 38 -46 83z" />
<glyph unicode="&#xc9;" d="M0 72v1288q11 72 72 72v4l19 -4h740l15 4q65 0 76 -83q-15 -68 -83 -68h-692v-510h454l53 3q51 0 68 -75q0 -49 -61 -76l-75 4h-439v-484h711q52 0 64 -79q-20 -68 -68 -68h-782q-72 13 -72 72zM283 1614q0 27 118 162q36 53 75 53h4q75 -15 75 -76q0 -32 -90 -132 q-61 -87 -95 -87h-22q-53 0 -65 80z" />
<glyph unicode="&#xca;" d="M0 72v1288q11 72 72 72v4l19 -4h740l15 4q65 0 76 -83q-15 -68 -83 -68h-692v-510h454l53 3q51 0 68 -75q0 -49 -61 -76l-75 4h-439v-484h711q52 0 64 -79q-20 -68 -68 -68h-782q-72 13 -72 72zM268 1561v15q0 32 159 204l34 7h19q45 0 117 -102q76 -84 76 -109v-15 q-14 -68 -61 -68h-26q-32 0 -117 113q-78 -113 -114 -113h-26q-47 0 -61 68z" />
<glyph unicode="&#xcb;" horiz-adv-x="1027" d="M0 72v1288q11 72 72 72v4l19 -4h740l15 4q65 0 76 -83q-15 -68 -83 -68h-692v-510h454l53 3q51 0 68 -75q0 -49 -61 -76l-75 4h-439v-484h711q52 0 64 -79q-20 -68 -68 -68h-782q-72 13 -72 72zM238 1629v11q0 49 68 64h11q68 -15 68 -64v-11q0 -60 -75 -72 q-72 14 -72 72zM525 1625v19q19 60 68 60h15q53 0 65 -79q0 -51 -76 -68q-72 12 -72 68z" />
<glyph unicode="&#xcc;" horiz-adv-x="657" d="M110 72v3q15 72 64 72h23v1133h-15q-63 0 -72 79v4q0 46 72 68l18 -4h140l15 4q75 -17 75 -76q-13 -75 -72 -75h-15v-1133h23q49 0 64 -72v-3q-13 -72 -72 -72h-176q-72 13 -72 72zM144 1732v22q0 50 75 64q44 0 121 -109q71 -77 71 -113q-15 -75 -75 -75q-45 0 -106 90 q-86 97 -86 121z" />
<glyph unicode="&#xcd;" horiz-adv-x="657" d="M140 72v4q15 71 64 71h23v1137h-15q-63 0 -72 79v4q0 47 72 68l19 -4h139l15 4q76 -16 76 -75q-13 -76 -72 -76h-15v-1137h23q49 0 64 -71v-4q-13 -72 -72 -72h-177q-72 13 -72 72zM182 1613q0 27 117 162q36 53 75 53h4q75 -15 75 -76q0 -32 -90 -132q-61 -87 -95 -87 h-22q-53 0 -64 80z" />
<glyph unicode="&#xce;" horiz-adv-x="657" d="M100 1560v4q0 36 113 162q40 57 72 57h30q48 0 136 -128q57 -59 57 -91q-13 -76 -72 -76h-7q-48 0 -114 102l-15 12q-74 -114 -121 -114h-7q-72 12 -72 72zM145 72v4q15 71 65 71h22v1137h-15q-63 0 -72 80v4q0 46 72 68l19 -4h140l15 4q75 -17 75 -76q-13 -76 -71 -76 h-15v-1137h22q50 0 64 -71v-4q-12 -72 -71 -72h-178q-72 13 -72 72z" />
<glyph unicode="&#xcf;" horiz-adv-x="657" d="M80 1612q16 71 64 71h15q68 -14 68 -60v-19q0 -55 -72 -68q-75 15 -75 76zM140 72v3q15 72 64 72h23v1133h-15q-63 0 -72 79v4q0 46 72 68l19 -4h139l15 4q75 -16 75 -76q-13 -75 -71 -75h-15v-1133h22q50 0 64 -72v-3q-12 -72 -71 -72h-177q-72 13 -72 72zM366 1608v11 q0 49 68 64h11q68 -15 68 -64v-11q0 -60 -75 -72q-72 14 -72 72z" />
<glyph unicode="&#xd0;" horiz-adv-x="1275" d="M0 723v15q0 49 72 64h79v553q15 72 64 72h222l34 3q331 0 568 -289q143 -196 143 -430q0 -373 -350 -613q-180 -98 -358 -98h-252q-53 0 -71 68v587h-83q-68 15 -68 68zM297 147h155q363 0 530 331q53 113 53 237q0 306 -286 493q-120 76 -380 76h-72v-482h283 q71 -13 71 -68v-11q-13 -68 -68 -68h-286v-508z" />
<glyph unicode="&#xd1;" horiz-adv-x="1288" d="M0 68v1293q15 71 64 71h15q46 0 80 -68l839 -1077h4v1077q13 68 68 68h11q56 0 68 -71v-1289q-13 -72 -72 -72h-4q-51 0 -117 106l-809 1032v-1070q0 -56 -71 -68h-4q-54 0 -72 68zM299 1603v7q0 72 139 87l16 4q78 0 189 -72l34 -4l71 23h12q72 -11 72 -72v-4 q0 -70 -125 -90l-38 -4q-79 0 -181 72l-31 3l-83 -22q-75 14 -75 72z" />
<glyph unicode="&#xd2;" horiz-adv-x="1519" d="M0 717q0 341 300 575q196 135 414 135q361 0 604 -334q109 -190 109 -383q0 -357 -323 -594q-184 -116 -383 -116h-15q-367 0 -601 342q-105 173 -105 375zM146 706q0 -273 241 -458q150 -102 319 -102h19q266 0 450 237q106 152 106 331q0 308 -282 488q-138 79 -285 79 q-282 0 -466 -245q-102 -146 -102 -330zM582 1750q16 71 64 71h22q34 0 102 -94q82 -91 82 -124q-14 -75 -75 -75h-3q-47 0 -121 113q-71 70 -71 109z" />
<glyph unicode="&#xd3;" horiz-adv-x="1532" d="M0 719q0 342 301 576q196 136 415 136q362 0 606 -335q109 -190 109 -384q0 -358 -324 -595q-184 -117 -384 -117h-15q-368 0 -603 343q-105 174 -105 376zM147 708q0 -274 241 -459q150 -102 320 -102h19q267 0 452 237q105 152 105 332q0 308 -282 489q-139 79 -286 79 q-283 0 -467 -245q-102 -147 -102 -331zM584 1608q0 37 109 154q40 64 75 64h15q72 -15 72 -71q0 -39 -124 -173q-25 -49 -76 -49q-57 0 -71 75z" />
<glyph unicode="&#xd4;" horiz-adv-x="1523" d="M0 717q0 341 300 575q196 135 414 135q361 0 604 -334q109 -190 109 -383q0 -357 -323 -594q-184 -116 -383 -116h-15q-367 0 -601 342q-105 173 -105 375zM146 706q0 -273 241 -458q150 -102 319 -102h19q266 0 450 237q106 152 106 331q0 308 -282 488q-138 79 -285 79 q-282 0 -466 -245q-102 -146 -102 -330zM507 1585q0 33 116 165q37 53 75 53h31q35 0 123 -121q61 -64 61 -97v-4q-12 -71 -72 -71h-7q-46 0 -120 112h-4q-80 -112 -120 -112h-12q-57 0 -71 75z" />
<glyph unicode="&#xd5;" horiz-adv-x="1528" d="M0 717q0 341 300 575q196 135 414 135q361 0 604 -334q109 -190 109 -383q0 -357 -323 -594q-184 -116 -383 -116h-15q-367 0 -601 342q-105 173 -105 375zM146 706q0 -273 241 -458q150 -102 319 -102h19q266 0 450 237q106 152 106 331q0 308 -282 488q-138 79 -285 79 q-282 0 -466 -245q-102 -146 -102 -330zM443 1675v11q0 57 83 75q30 11 64 11h18q72 0 166 -63l30 -8h18l76 23q75 -15 75 -75q0 -76 -143 -94h-26q-71 0 -166 64l-30 7h-18l-72 -19h-7q-68 14 -68 68z" />
<glyph unicode="&#xd6;" horiz-adv-x="1540" d="M0 719q0 342 301 576q196 136 415 136q362 0 606 -335q109 -190 109 -384q0 -358 -324 -595q-184 -117 -384 -117h-15q-368 0 -603 343q-105 174 -105 376zM147 708q0 -274 241 -459q150 -102 320 -102h19q267 0 452 237q105 152 105 332q0 308 -282 489q-139 79 -286 79 q-283 0 -467 -245q-102 -147 -102 -331zM429 1619v23q0 52 79 64q51 0 68 -75q-17 -76 -71 -76q-76 17 -76 64zM855 1619v23q0 52 79 64q51 0 68 -75q-17 -76 -72 -76q-75 17 -75 64z" />
<glyph unicode="&#xd7;" d="M222 420v24q0 47 101 130l62 67q-163 161 -163 182v29q17 86 86 86h15q48 0 153 -125l43 -38q160 163 182 163h39q60 0 81 -91q0 -58 -163 -201l-5 -5v-5q163 -148 163 -182l5 -19q-22 -96 -96 -96q-51 0 -158 125l-48 43q-144 -163 -196 -163h-24q-77 24 -77 76z" />
<glyph unicode="&#xd8;" horiz-adv-x="1561" d="M0 79q0 36 124 139q4 11 41 37q-165 210 -165 462q0 340 300 574q196 135 413 135q267 0 492 -198q149 153 180 153h8q71 -18 71 -71v-7q0 -42 -105 -124l-60 -60q127 -195 127 -410q0 -356 -322 -593q-184 -116 -383 -116h-15q-232 0 -436 154h-3q-154 -150 -173 -150 l-19 -4h-4q-59 0 -71 79zM146 706q0 -195 128 -349l822 773v4q-179 146 -383 146q-281 0 -465 -244q-102 -147 -102 -330zM375 255q156 -109 331 -109h18q267 0 451 237q105 151 105 330q0 152 -86 304h-4z" />
<glyph unicode="&#xd9;" horiz-adv-x="1103" d="M0 535v821q15 72 64 72h15q68 -14 68 -61v-802q0 -259 147 -347q92 -71 207 -71q220 0 331 226q23 70 23 147v836q13 72 68 72h11q68 -13 68 -68v-878q0 -224 -215 -392q-136 -90 -275 -90h-26q-234 0 -407 230q-79 124 -79 305zM369 1740v8q0 55 75 71q48 0 140 -131 q53 -52 53 -87v-8q0 -58 -76 -71q-45 0 -132 124q-60 62 -60 94z" />
<glyph unicode="&#xda;" horiz-adv-x="1107" d="M0 535v821q15 72 64 72h15q68 -14 68 -61v-802q0 -259 147 -347q92 -71 207 -71q220 0 331 226q23 70 23 147v836q13 72 68 72h11q68 -13 68 -68v-878q0 -224 -215 -392q-136 -90 -275 -90h-26q-234 0 -407 230q-79 124 -79 305zM369 1593v8q0 36 94 136q52 82 102 82 q72 -15 72 -71v-8q0 -35 -95 -135q-52 -83 -98 -83q-75 16 -75 71z" />
<glyph unicode="&#xdb;" horiz-adv-x="1124" d="M0 537v825q15 71 64 71h15q68 -14 68 -60v-806q0 -260 148 -348q93 -72 208 -72q221 0 333 227q23 71 23 148v840q12 71 68 71h11q68 -13 68 -68v-881q0 -225 -216 -393q-136 -91 -276 -91h-26q-235 0 -409 231q-79 124 -79 306zM310 1573v4q0 38 132 182q0 29 72 37h8 q49 0 136 -124q61 -63 61 -99q-17 -72 -65 -72h-19q-41 0 -102 91q-5 0 -11 15l-4 4h-4q-85 -102 -94 -102l-23 -8h-19q-55 0 -68 72z" />
<glyph unicode="&#xdc;" horiz-adv-x="1128" d="M0 537v825q15 71 64 71h15q68 -14 68 -60v-806q0 -260 148 -348q93 -72 208 -72q221 0 333 227q23 71 23 148v840q12 71 68 71h11q68 -13 68 -68v-881q0 -225 -216 -393q-136 -91 -276 -91h-26q-235 0 -409 231q-79 124 -79 306zM284 1615v11q0 50 68 65h11 q68 -15 68 -65v-11q0 -60 -75 -72q-72 14 -72 72zM571 1611v19q19 61 68 61h15q53 0 65 -80q0 -51 -76 -68q-72 13 -72 68z" />
<glyph unicode="&#xdd;" horiz-adv-x="1107" d="M0 1361q16 72 64 72h16q49 0 79 -72l345 -516h4q372 562 387 573q20 15 34 15h23q46 0 64 -72q0 -32 -129 -209l-307 -458v-611q-9 -83 -64 -83h-16q-49 0 -68 61v621q0 14 -159 251l-269 405zM405 1582q0 27 117 162q37 53 76 53h4q75 -15 75 -75q0 -33 -91 -133 q-60 -87 -94 -87h-23q-52 0 -64 80z" />
<glyph unicode="&#xde;" horiz-adv-x="1100" d="M20 76v1277q9 83 64 83h16q68 -14 68 -61v-280h390q296 0 394 -258q19 -60 19 -110v-18q0 -197 -193 -319q-99 -49 -171 -49l-26 4h-413v-277q0 -56 -72 -68h-4q-58 0 -72 76zM168 493h435q162 0 216 185l4 42q0 155 -166 216q-44 11 -110 11h-379v-454z" />
<glyph unicode="&#xdf;" horiz-adv-x="1061" d="M20 82v939q0 283 266 386q53 18 93 18h41q177 0 303 -168q68 -101 68 -217q0 -89 -60 -213v-38q0 -37 123 -175q90 -110 90 -236v-15q0 -219 -224 -333q-69 -30 -143 -30h-3q-184 0 -300 157l-3 26q16 71 71 71h7q34 0 90 -63q70 -45 138 -45q154 0 214 168l7 53v7 q0 96 -108 210q-109 112 -109 220q0 57 53 176q7 17 7 49v33q0 119 -135 195q-44 22 -104 22q-166 0 -229 -183l-7 -108v-913q0 -55 -71 -68h-4q-57 0 -71 75z" />
<glyph unicode="&#xe0;" horiz-adv-x="1147" d="M29 503q0 279 273 441q117 55 227 55q283 0 448 -277q51 -113 51 -233v-423q0 -54 -69 -66h-4q-47 0 -69 55v3l3 91v4q-160 -153 -346 -153h-29q-254 0 -423 255q-62 123 -62 248zM171 496q0 -217 219 -328q69 -26 124 -26h29q181 0 299 182q44 86 44 165v14 q0 210 -208 321q-72 33 -149 33h-4q-220 0 -332 -230q-22 -71 -22 -120v-11zM437 1305v15q0 48 59 65h25q32 0 146 -149q29 -31 29 -58v-8q0 -56 -73 -69q-44 0 -102 88q-84 93 -84 116z" />
<glyph unicode="&#xe1;" horiz-adv-x="1114" d="M0 503q0 279 273 441q117 55 227 55q283 0 448 -277q51 -113 51 -233v-423q0 -54 -69 -66h-4q-47 0 -69 55v3l3 91v4q-160 -153 -346 -153h-29q-254 0 -423 255q-62 123 -62 248zM142 496q0 -217 219 -328q69 -26 124 -26h29q181 0 299 182q44 86 44 165v14 q0 210 -208 321q-72 33 -149 33h-4q-220 0 -332 -230q-22 -71 -22 -120v-11zM408 1170v8q0 33 113 160q38 51 73 51q73 -17 73 -69v-7q0 -31 -80 -121q-60 -91 -113 -91h-4q-46 0 -62 69z" />
<glyph unicode="&#xe2;" horiz-adv-x="1140" d="M0 506q0 280 275 443q117 55 227 55q285 0 451 -278q51 -114 51 -235v-425q0 -54 -70 -66h-3q-48 0 -70 55v4l4 91v4q-162 -154 -348 -154h-30q-255 0 -425 256q-62 124 -62 250zM143 498q0 -218 220 -329q69 -26 124 -26h30q182 0 300 183q44 86 44 165v15 q0 210 -209 322q-72 33 -150 33h-4q-221 0 -333 -231q-22 -71 -22 -121v-11zM304 1176q0 37 103 147q44 69 88 69l3 -3h4l4 3q51 0 124 -106q70 -75 70 -110q-13 -73 -73 -73q-48 0 -118 106l-3 4h-8q-70 -110 -121 -110q-73 14 -73 73z" />
<glyph unicode="&#xe3;" horiz-adv-x="1122" d="M0 508q0 281 276 445q118 55 228 55q286 0 452 -280q52 -114 52 -235v-427q0 -54 -70 -66h-4q-47 0 -69 55v4l3 92v4q-162 -155 -349 -155h-30q-256 0 -426 258q-63 124 -63 250zM143 500q0 -219 221 -331q70 -26 125 -26h30q183 0 301 184q45 87 45 166v15 q0 211 -210 323q-73 34 -151 34h-4q-222 0 -334 -232q-23 -72 -23 -122v-11zM265 1258v11q0 55 81 74q29 11 62 11h19q70 0 162 -63l29 -7h18l74 22q74 -15 74 -74q0 -74 -140 -92h-26q-69 0 -162 63l-29 7h-19l-70 -18h-7q-66 13 -66 66z" />
<glyph unicode="&#xe4;" horiz-adv-x="1136" d="M0 506q0 280 275 443q117 55 227 55q285 0 451 -278q51 -114 51 -235v-425q0 -54 -70 -66h-3q-48 0 -70 55v4l4 91v4q-162 -154 -348 -154h-30q-255 0 -425 256q-62 124 -62 250zM143 498q0 -218 220 -329q69 -26 124 -26h30q182 0 300 183q44 86 44 165v15 q0 210 -209 322q-72 33 -150 33h-4q-221 0 -333 -231q-22 -71 -22 -121v-11zM289 1173v11q0 47 66 62h11q66 -15 66 -62v-11q0 -59 -73 -70q-70 13 -70 70zM568 1169v18q18 59 66 59h15q51 0 62 -77q0 -49 -73 -66q-70 12 -70 66z" />
<glyph unicode="&#xe5;" horiz-adv-x="1131" d="M0 506q0 280 275 443q117 55 227 55q285 0 451 -278q51 -114 51 -235v-425q0 -54 -70 -66h-3q-48 0 -70 55v4l4 91v4q-162 -154 -348 -154h-30q-255 0 -425 256q-62 124 -62 250zM143 498q0 -218 220 -329q69 -26 124 -26h30q182 0 300 183q44 86 44 165v15 q0 210 -209 322q-72 33 -150 33h-4q-221 0 -333 -231q-22 -71 -22 -121v-11zM333 1260v11q0 124 151 173l33 3q105 0 165 -110q18 -39 18 -77q0 -123 -143 -175l-37 -4h-14q-118 0 -169 143zM447 1253q17 -58 59 -58h14q56 0 66 69q-12 70 -69 70q-70 -12 -70 -66v-15z" />
<glyph unicode="&#xe6;" horiz-adv-x="1961" d="M0 507q0 280 274 442q117 55 226 55q263 0 431 -245h4q90 155 277 219q84 22 150 22q279 0 442 -270q54 -113 54 -212v-47q-12 -69 -69 -69h-767v-4q37 -121 139 -190q95 -62 197 -62q88 0 197 55l19 3q73 -17 73 -73q0 -93 -241 -127l-52 -4q-192 0 -354 150v-81 q0 -62 -76 -69h-4q-38 0 -62 58l4 88v11q-161 -153 -347 -153h-29q-255 0 -424 255q-62 123 -62 248zM142 500q0 -217 219 -328q70 -26 125 -26h29q181 0 299 183q44 85 44 164v14q0 210 -208 322q-72 33 -150 33h-3q-221 0 -333 -230q-22 -72 -22 -121v-11zM1011 544h698v4 q0 96 -117 219q-112 87 -234 87q-187 0 -303 -175q-44 -82 -44 -135z" />
<glyph unicode="&#xe7;" horiz-adv-x="986" d="M9 498q0 243 215 407q137 91 283 91q193 0 349 -145q11 -19 11 -37v-3q-12 -69 -69 -69h-4q-26 0 -116 69q-81 40 -160 40h-22q-211 0 -320 -222q-25 -75 -25 -134q0 -216 222 -328q67 -25 141 -25q126 0 248 102l29 7h11q53 0 65 -69v-4q0 -74 -233 -163l-76 -11v-48 q109 -72 109 -178q0 -153 -178 -196l-51 4h-55l-58 -4q-62 21 -62 62v14q13 66 66 66h127q69 0 69 54v4q0 41 -65 54q-44 21 -44 55v116q-90 13 -222 102q-185 166 -185 389z" />
<glyph unicode="&#xe8;" horiz-adv-x="1127" d="M0 502q0 276 260 440q127 62 238 62q290 0 451 -275q55 -108 55 -234v-19q-13 -73 -70 -73h-773q44 -146 187 -223q84 -33 158 -33q84 0 194 55h22q66 -13 66 -66v-11q0 -91 -264 -125h-26q-270 0 -432 253q-66 120 -66 249zM150 546h704q0 75 -88 194q-121 114 -238 114 h-41q-176 0 -289 -172q-40 -69 -48 -136zM407 1301v14q0 48 58 66h26q32 0 147 -150q29 -31 29 -58v-8q0 -57 -73 -69q-45 0 -103 88q-84 93 -84 117z" />
<glyph unicode="&#xe9;" horiz-adv-x="1118" d="M0 502q0 276 260 440q127 62 238 62q290 0 451 -275q55 -108 55 -234v-19q-13 -73 -70 -73h-773q44 -146 187 -223q84 -33 158 -33q84 0 194 55h22q66 -13 66 -66v-11q0 -91 -264 -125h-26q-270 0 -432 253q-66 120 -66 249zM150 546h704q0 75 -88 194q-121 114 -238 114 h-41q-176 0 -289 -172q-40 -69 -48 -136zM407 1165v8q0 33 113 161q38 51 74 51q73 -17 73 -70v-7q0 -30 -81 -121q-60 -91 -113 -91h-4q-47 0 -62 69z" />
<glyph unicode="&#xea;" horiz-adv-x="1144" d="M0 502q0 276 260 440q127 62 238 62q290 0 451 -275q55 -108 55 -234v-19q-13 -73 -70 -73h-773q44 -146 187 -223q84 -33 158 -33q84 0 194 55h22q66 -13 66 -66v-11q0 -91 -264 -125h-26q-270 0 -432 253q-66 120 -66 249zM150 546h704q0 75 -88 194q-121 114 -238 114 h-41q-176 0 -289 -172q-40 -69 -48 -136zM304 1176q0 37 103 147q44 69 88 69l3 -3h4l4 3q51 0 124 -106q70 -75 70 -110q-13 -73 -73 -73q-48 0 -118 106l-3 4h-8q-70 -110 -121 -110q-73 14 -73 73z" />
<glyph unicode="&#xeb;" horiz-adv-x="1122" d="M0 501q0 275 260 439q126 62 237 62q289 0 450 -274q55 -108 55 -234v-19q-13 -73 -70 -73h-771q44 -146 186 -223q84 -33 158 -33q84 0 193 55h22q66 -13 66 -66v-11q0 -90 -263 -124h-26q-269 0 -431 252q-66 120 -66 249zM150 545h702q0 75 -88 193q-120 114 -238 114 h-40q-175 0 -289 -172q-39 -68 -47 -135zM289 1170v11q0 47 66 62h11q65 -15 65 -62v-11q0 -58 -73 -70q-69 14 -69 70zM567 1166v19q18 58 65 58h15q51 0 62 -77q0 -49 -73 -66q-69 12 -69 66z" />
<glyph unicode="&#xec;" horiz-adv-x="514" d="M80 1263v15q0 48 59 66h25q32 0 147 -150q29 -32 29 -59v-7q0 -57 -73 -70q-45 0 -103 88q-84 94 -84 117zM164 73v846q9 84 73 84q70 -17 70 -62v-875q0 -54 -70 -66h-3q-56 0 -70 73z" />
<glyph unicode="&#xed;" horiz-adv-x="514" d="M120 1132v8q0 33 114 161q38 52 73 52q74 -17 74 -70v-7q0 -31 -81 -122q-61 -92 -114 -92h-4q-47 0 -62 70zM164 74v849q9 84 74 84q69 -18 69 -62v-879q0 -54 -69 -66h-4q-56 0 -70 74z" />
<glyph unicode="&#xee;" horiz-adv-x="514" d="M30 1131q0 36 103 147q45 70 89 70l4 -3h4l3 3q52 0 126 -107q70 -76 70 -110q-13 -74 -74 -74q-48 0 -118 107l-4 3h-7q-71 -110 -122 -110q-74 14 -74 74zM159 74v853q9 85 74 85q70 -18 70 -63v-882q0 -55 -70 -67h-3q-57 0 -71 74z" />
<glyph unicode="&#xef;" horiz-adv-x="514" d="M20 1199v11q0 48 66 63h11q66 -15 66 -63v-11q0 -58 -73 -70q-70 14 -70 70zM163 74v849q9 85 74 85q70 -18 70 -63v-879q0 -54 -70 -66h-4q-56 0 -70 74zM300 1195v19q18 59 66 59h14q52 0 63 -78q0 -49 -74 -66q-69 12 -69 66z" />
<glyph unicode="&#xf0;" horiz-adv-x="1118" d="M0 502q0 244 216 410q139 92 286 92l103 -11v4l-77 117q-132 -84 -158 -84h-15q-48 0 -62 69v4q0 50 110 103l48 29q-41 61 -41 80v19q18 58 66 58h15q36 0 84 -80q149 91 173 91h7q66 -14 66 -66v-14q0 -46 -169 -132v-4l279 -429q73 -123 73 -256q0 -282 -267 -443 q-116 -59 -224 -59h-29q-203 0 -378 191q-106 150 -106 311zM147 495q0 -201 194 -312q70 -36 150 -36h22q208 0 319 216q25 68 25 132v18q0 140 -128 264q-101 80 -231 80q-228 0 -333 -238q-18 -58 -18 -106v-18z" />
<glyph unicode="&#xf1;" horiz-adv-x="1108" d="M0 73v845q8 84 73 84q70 -18 70 -62v-80q159 142 347 142q206 0 366 -172q117 -144 117 -303v-465q0 -48 -69 -62h-4q-70 12 -70 70v409q0 275 -237 362q-58 15 -103 15h-11q-199 0 -307 -205q-29 -63 -29 -201v-384q0 -54 -70 -66h-3q-56 0 -70 73zM256 1266v11 q0 55 81 73q29 11 62 11h18q70 0 161 -62l29 -8h19l73 22q73 -14 73 -73q0 -74 -139 -91h-26q-69 0 -161 62l-29 7h-18l-70 -18h-7q-66 13 -66 66z" />
<glyph unicode="&#xf2;" horiz-adv-x="1118" d="M0 502q0 244 216 410q139 92 286 92q194 0 352 -147q150 -157 150 -355q0 -282 -267 -443q-116 -59 -224 -59h-29q-203 0 -378 191q-106 150 -106 311zM147 495q0 -201 194 -312q70 -36 150 -36h22q208 0 319 216q25 68 25 132v18q0 167 -153 282q-91 62 -206 62 q-228 0 -333 -238q-18 -58 -18 -106v-18zM410 1312v14q0 48 59 66h26q31 0 146 -150q30 -31 30 -58v-8q0 -57 -74 -69q-45 0 -102 88q-85 93 -85 117z" />
<glyph unicode="&#xf3;" horiz-adv-x="1118" d="M0 500q0 243 215 408q138 91 285 91q192 0 350 -146q149 -157 149 -353q0 -281 -266 -442q-115 -58 -223 -58h-29q-201 0 -375 190q-106 150 -106 310zM146 492q0 -199 193 -310q70 -36 150 -36h21q208 0 318 215q25 68 25 131v18q0 167 -153 281q-90 62 -204 62 q-227 0 -332 -237q-18 -58 -18 -106v-18zM408 1170v8q0 33 113 160q38 51 73 51q73 -17 73 -69v-7q0 -31 -80 -121q-60 -91 -113 -91h-4q-46 0 -62 69z" />
<glyph unicode="&#xf4;" horiz-adv-x="1118" d="M0 500q0 243 215 408q138 91 285 91q192 0 350 -146q149 -157 149 -353q0 -281 -266 -442q-115 -58 -223 -58h-29q-201 0 -375 190q-106 150 -106 310zM146 492q0 -199 193 -310q70 -36 150 -36h21q208 0 318 215q25 68 25 131v18q0 167 -153 281q-90 62 -204 62 q-227 0 -332 -237q-18 -58 -18 -106v-18zM303 1170q0 37 102 146q43 69 87 69l4 -3h4l3 3q51 0 124 -105q69 -75 69 -110q-12 -73 -73 -73q-47 0 -116 106l-4 4h-7q-70 -110 -120 -110q-73 15 -73 73z" />
<glyph unicode="&#xf5;" horiz-adv-x="1118" d="M0 502q0 244 216 410q139 92 286 92q194 0 352 -147q150 -157 150 -355q0 -282 -267 -443q-116 -59 -224 -59h-29q-203 0 -378 191q-106 150 -106 311zM147 495q0 -201 194 -312q70 -36 150 -36h22q208 0 319 216q25 68 25 132v18q0 167 -153 282q-91 62 -206 62 q-228 0 -333 -238q-18 -58 -18 -106v-18zM264 1253v11q0 55 80 73q30 11 63 11h18q70 0 161 -62l30 -7h18l73 22q73 -15 73 -73q0 -75 -139 -92h-25q-69 0 -162 62l-29 8h-18l-70 -19h-7q-66 13 -66 66z" />
<glyph unicode="&#xf6;" horiz-adv-x="1114" d="M0 500q0 243 215 408q138 91 285 91q192 0 350 -146q149 -157 149 -353q0 -281 -266 -442q-115 -58 -223 -58h-29q-201 0 -375 190q-106 150 -106 310zM146 492q0 -199 193 -310q70 -36 150 -36h21q208 0 318 215q25 68 25 131v18q0 167 -153 281q-90 62 -204 62 q-227 0 -332 -237q-18 -58 -18 -106v-18zM288 1167v11q0 47 66 62h11q65 -15 65 -62v-11q0 -58 -73 -70q-69 14 -69 70zM565 1163v18q18 59 66 59h14q51 0 62 -77q0 -49 -73 -66q-69 12 -69 66z" />
<glyph unicode="&#xf7;" d="M150 716v16q0 53 76 68h608q76 -14 76 -76v-12q0 -50 -72 -68h-616q-72 14 -72 72zM422 408v20q0 76 104 100h8q87 0 104 -112v-4q0 -81 -108 -104q-108 23 -108 100zM422 1024v8q24 100 100 100h4q92 0 112 -100v-16q-22 -100 -100 -100h-8q-108 11 -108 108z" />
<glyph unicode="&#xf8;" horiz-adv-x="1169" d="M50 80q0 30 98 124q-98 135 -98 295q0 242 215 407q137 91 284 91q146 0 283 -91q86 106 131 106h4q58 0 69 -77q0 -29 -102 -127q113 -138 113 -309q0 -281 -266 -441q-114 -58 -222 -58h-29q-137 0 -284 102q-81 -98 -120 -98h-14q-51 0 -62 76zM196 491q0 -90 50 -182 h4l477 492q-72 50 -182 50q-227 0 -331 -236q-18 -58 -18 -106v-18zM348 204q94 -58 190 -58h21q207 0 317 214q25 68 25 131v18q0 108 -69 197z" />
<glyph unicode="&#xf9;" horiz-adv-x="1109" d="M0 519v398q8 85 73 85q70 -18 70 -63v-391q0 -251 142 -336q90 -69 201 -69q214 0 322 219q22 71 22 142v424q14 74 73 74q69 -17 69 -70v-870q0 -48 -69 -62h-4q-69 12 -69 69v70h-4q-153 -139 -329 -139h-25q-227 0 -395 223q-77 120 -77 296zM409 1309v14q0 48 59 66 h25q32 0 147 -150q29 -31 29 -58v-8q0 -57 -73 -69q-45 0 -103 88q-84 93 -84 117z" />
<glyph unicode="&#xfa;" horiz-adv-x="1105" d="M0 522v400q8 84 73 84q70 -17 70 -62v-393q0 -252 143 -338q91 -70 203 -70q214 0 323 221q22 71 22 143v426q14 73 73 73q70 -16 70 -69v-875q0 -48 -70 -62h-3q-70 12 -70 70v70h-4q-153 -140 -330 -140h-26q-228 0 -397 224q-77 121 -77 298zM411 1179v7q0 34 114 162 q38 51 74 51q73 -16 73 -69v-8q0 -30 -81 -121q-60 -92 -114 -92h-3q-47 0 -63 70z" />
<glyph unicode="&#xfb;" horiz-adv-x="1114" d="M0 524v403q9 85 74 85q70 -18 70 -63v-395q0 -254 144 -340q91 -70 203 -70q216 0 325 221q22 72 22 144v429q15 74 74 74q70 -17 70 -71v-878q0 -49 -70 -63h-4q-70 13 -70 70v70h-4q-154 -140 -332 -140h-26q-229 0 -398 225q-78 121 -78 299zM306 1185q0 37 104 148 q44 70 88 70l4 -4h4l3 4q52 0 126 -107q70 -76 70 -111q-12 -74 -74 -74q-47 0 -118 107l-4 4h-7q-71 -111 -122 -111q-74 15 -74 74z" />
<glyph unicode="&#xfc;" horiz-adv-x="1109" d="M0 519v399q8 84 73 84q70 -18 70 -62v-391q0 -252 142 -337q90 -69 202 -69q213 0 321 219q22 71 22 143v424q15 73 74 73q69 -16 69 -69v-871q0 -48 -69 -62h-4q-70 12 -70 70v69h-3q-153 -139 -330 -139h-25q-227 0 -395 223q-77 120 -77 296zM289 1171v11q0 47 66 62 h11q66 -15 66 -62v-11q0 -59 -74 -70q-69 14 -69 70zM567 1167v18q18 59 66 59h14q51 0 63 -77q0 -49 -74 -66q-69 12 -69 66z" />
<glyph unicode="&#xfd;" horiz-adv-x="990" d="M19 936v4q15 73 73 73q63 0 107 -146q238 -565 245 -594h4q288 703 304 722q26 22 51 22q74 -14 74 -70v-3q-4 -27 -363 -884q-170 -420 -191 -447q-18 -15 -47 -22q-74 16 -74 62v19q0 13 165 410v4zM430 1186v7q0 33 113 161q38 52 74 52q73 -17 73 -70v-7 q0 -31 -81 -121q-60 -92 -113 -92h-4q-47 0 -62 70z" />
<glyph unicode="&#xfe;" horiz-adv-x="1131" d="M10 -343v1656q9 81 63 81h14q66 -14 66 -59v-482q161 154 361 154q195 0 353 -147q151 -158 151 -357q0 -283 -269 -445q-115 -59 -224 -59h-29q-176 0 -343 151v-507q0 -47 -73 -63q-55 0 -70 77zM157 496q0 -201 195 -313q70 -36 151 -36h22q209 0 320 217 q26 68 26 132v18q0 168 -155 284q-91 62 -206 62q-229 0 -334 -239q-19 -58 -19 -107v-18z" />
<glyph unicode="&#xff;" horiz-adv-x="990" d="M10 919v4q14 73 73 73q63 0 106 -146q237 -562 244 -591h4q287 700 303 719q25 22 51 22q73 -14 73 -70v-3q-4 -27 -361 -880q-169 -418 -190 -445q-18 -15 -48 -22q-73 16 -73 62v18q0 13 165 409v4zM236 1168v11q0 47 66 62h11q66 -15 66 -62v-11q0 -58 -73 -70 q-70 14 -70 70zM514 1164v18q18 59 65 59h15q51 0 62 -77q0 -49 -73 -66q-69 12 -69 66z" />
<glyph unicode="&#x152;" horiz-adv-x="2157" d="M84 721q0 343 247 578q161 136 341 136q277 0 469 -291v222q11 72 72 72v4l19 -4h744l15 4q65 0 76 -83q-15 -69 -83 -69h-695v-512h455l54 4q51 0 68 -76q0 -50 -61 -76l-76 4h-440v-486h713q53 0 65 -80q-20 -68 -68 -68h-786q-72 13 -72 72v217q-59 -93 -148 -172 q-151 -117 -315 -117h-13q-303 0 -494 344q-87 174 -87 377zM204 710q0 -274 199 -461q123 -102 262 -102h16q219 0 371 238q87 153 87 333q0 309 -232 490q-115 80 -235 80q-232 0 -384 -246q-84 -147 -84 -332z" />
<glyph unicode="&#x153;" horiz-adv-x="2025" d="M44 514q0 248 219 416q140 93 290 93q197 0 357 -149q49 -51 82 -106q64 102 187 179q127 62 238 62q290 0 451 -275q55 -108 55 -234v-19q-13 -73 -70 -73h-773q44 -146 187 -223q84 -33 158 -33q84 0 194 55h22q66 -13 66 -66v-11q0 -91 -264 -125h-26q-266 0 -427 246 q-68 -108 -199 -187q-117 -59 -227 -59h-30q-205 0 -382 193q-108 153 -108 316zM193 507q0 -204 197 -316q71 -37 152 -37h22q211 0 323 219q26 69 26 134v18q0 170 -156 286q-91 63 -208 63q-231 0 -338 -241q-18 -59 -18 -108v-18zM1069 551h704q0 75 -88 194 q-121 114 -238 114h-41q-176 0 -289 -172q-40 -69 -48 -136z" />
<glyph unicode="&#x178;" horiz-adv-x="1149" d="M40 1361q16 72 64 72h16q49 0 79 -72l345 -516h4q372 562 387 573q20 15 34 15h23q46 0 64 -72q0 -32 -129 -209l-307 -458v-611q-9 -83 -64 -83h-16q-49 0 -68 61v621q0 14 -159 251l-269 405zM331 1616q16 71 64 71h15q68 -14 68 -60v-19q0 -55 -72 -68q-75 15 -75 76z M617 1612v11q0 49 68 64h11q68 -15 68 -64v-11q0 -60 -75 -72q-72 14 -72 72z" />
<glyph unicode="&#x2c6;" horiz-adv-x="1024" d="M313 1191v12q0 38 120 168q38 60 80 60h28q48 0 136 -128q64 -64 64 -100v-12q-15 -72 -72 -72h-12q-45 0 -128 120h-4q-83 -120 -128 -120h-12q-72 15 -72 72z" />
<glyph unicode="&#x2dc;" horiz-adv-x="1024" d="M298 1597v8q0 72 139 87l15 3q79 0 189 -71l33 -4l76 23h7q72 -12 72 -72v-4q0 -70 -124 -90l-38 -4q-79 0 -181 72l-30 4l-83 -23q-75 14 -75 71z" />
<glyph unicode="&#x2000;" horiz-adv-x="916" />
<glyph unicode="&#x2001;" horiz-adv-x="1832" />
<glyph unicode="&#x2002;" horiz-adv-x="916" />
<glyph unicode="&#x2003;" horiz-adv-x="1832" />
<glyph unicode="&#x2004;" horiz-adv-x="610" />
<glyph unicode="&#x2005;" horiz-adv-x="458" />
<glyph unicode="&#x2006;" horiz-adv-x="305" />
<glyph unicode="&#x2007;" horiz-adv-x="305" />
<glyph unicode="&#x2008;" horiz-adv-x="229" />
<glyph unicode="&#x2009;" horiz-adv-x="366" />
<glyph unicode="&#x200a;" horiz-adv-x="101" />
<glyph unicode="&#x2010;" horiz-adv-x="670" d="M68 576q20 72 76 72h400q59 0 76 -80q-18 -76 -76 -76h-400q-65 0 -76 84z" />
<glyph unicode="&#x2011;" horiz-adv-x="670" d="M68 576q20 72 76 72h400q59 0 76 -80q-18 -76 -76 -76h-400q-65 0 -76 84z" />
<glyph unicode="&#x2012;" horiz-adv-x="670" d="M68 576q20 72 76 72h400q59 0 76 -80q-18 -76 -76 -76h-400q-65 0 -76 84z" />
<glyph unicode="&#x2013;" horiz-adv-x="1108" d="M84 432q13 76 72 76v4l40 -4h720l36 4q59 0 76 -80q0 -52 -64 -80l-68 4h-680l-64 -4q-68 24 -68 80z" />
<glyph unicode="&#x2014;" horiz-adv-x="2048" d="M0 500q13 76 72 76v4l40 -4h1824l36 4q59 0 76 -80q0 -52 -64 -80l-68 4h-1784l-64 -4q-68 24 -68 80z" />
<glyph unicode="&#x2018;" horiz-adv-x="557" d="M176 1295q0 134 144 256l44 16q28 -8 28 -32v-8q-59 -141 -60 -244q0 -60 48 -140l4 -20q0 -64 -84 -80q-96 0 -124 252z" />
<glyph unicode="&#x2019;" horiz-adv-x="557" d="M185 1062v12q60 144 60 236v12q0 62 -48 144v20q15 72 64 72h28q83 0 112 -236v-20q0 -129 -144 -248q-29 -16 -44 -16q-18 7 -28 24z" />
<glyph unicode="&#x201a;" horiz-adv-x="557" d="M180 -264q60 144 60 236v12q0 62 -48 144v20q15 72 64 72h28q83 0 112 -236v-20q0 -129 -144 -248q-29 -16 -44 -16q-18 7 -28 24v12z" />
<glyph unicode="&#x201c;" horiz-adv-x="910" d="M224 1316q0 134 144 256l44 16q28 -8 28 -32v-8q-59 -141 -60 -244q0 -60 48 -140l4 -20q0 -64 -84 -80q-96 0 -124 252zM512 1264v68q0 107 136 228q28 20 52 20q28 -12 28 -36q-64 -142 -64 -244q0 -61 52 -152v-12q-14 -76 -72 -76h-16q-82 0 -116 204z" />
<glyph unicode="&#x201d;" horiz-adv-x="910" d="M220 1085v12q60 144 60 236v12q0 62 -48 144v20q15 72 64 72h28q83 0 112 -236v-20q0 -129 -144 -248q-29 -16 -44 -16q-18 7 -28 24zM516 1097v4q60 141 60 248q0 62 -48 140v32q18 64 72 64h12q94 0 120 -244v-8q0 -132 -144 -252l-40 -16q-32 0 -32 32z" />
<glyph unicode="&#x201e;" horiz-adv-x="910" d="M202 -249q60 144 60 236v12q0 62 -48 144v20q15 72 64 72h28q83 0 112 -236v-20q0 -129 -144 -248q-29 -16 -44 -16q-18 7 -28 24v12zM498 -245q60 141 60 248q0 62 -48 140v32q18 64 72 64h12q94 0 120 -244v-8q0 -132 -144 -252l-40 -16q-32 0 -32 32v4z" />
<glyph unicode="&#x2022;" horiz-adv-x="1024" d="M216 718q0 123 87 209t210 86q122 0 208.5 -86.5t86.5 -208.5t-87.5 -209.5t-209.5 -87.5q-123 0 -209 87t-86 210z" />
<glyph unicode="&#x2026;" horiz-adv-x="2048" d="M130 139q0 88 100 128q14 7 39 7q105 0 135 -125v-24q0 -75 -96 -118q-14 -7 -39 -7h-4q-112 0 -135 139zM803 135q0 88 100 128q14 7 39 7q105 0 135 -125v-24q0 -75 -96 -118q-14 -7 -39 -7h-4q-112 0 -135 139zM1494 139q0 88 100 128q14 7 39 7q105 0 135 -125v-24 q0 -75 -96 -118q-14 -7 -39 -7h-4q-112 0 -135 139z" />
<glyph unicode="&#x202f;" horiz-adv-x="366" />
<glyph unicode="&#x2039;" horiz-adv-x="631" d="M168 447v44q0 38 148 144q44 48 80 48h8q76 -12 76 -76v-4q0 -52 -116 -128l-4 -4v-4q120 -82 120 -132v-4q-13 -76 -72 -76h-20q-30 0 -212 164z" />
<glyph unicode="&#x203a;" horiz-adv-x="631" d="M92 323v4q0 51 112 124l8 12q-120 84 -120 132v4q16 80 80 80q38 0 168 -120q64 -39 64 -76v-36q0 -46 -112 -124q-80 -76 -120 -76h-4q-76 14 -76 76z" />
<glyph unicode="&#x205f;" horiz-adv-x="458" />
<glyph unicode="&#x20ac;" horiz-adv-x="1193" d="M0 729q0 378 345 617q185 111 380 111q226 0 422 -138q15 -29 15 -46v-7q0 -65 -81 -73h-3l-135 69q-133 42 -218 42q-264 0 -460 -234q-43 -65 -73 -138h744q73 -12 73 -73v-4q-13 -73 -73 -73h-779l-4 -53l4 -58h779q73 -11 73 -73v-4q-13 -72 -73 -72h-744 q89 -220 299 -319q117 -50 226 -50h12q168 0 341 108h23q69 -15 69 -69v-12q0 -81 -257 -157q-80 -23 -169 -23h-19q-360 0 -602 334q-115 193 -115 395z" />
<glyph unicode="&#x2122;" horiz-adv-x="1497" d="M154 1408q8 33 30 33h435q32 -6 32 -32v-7q0 -25 -39 -30h-175v-569q0 -26 -34 -32h-1q-27 0 -34 35v566h-179q-35 7 -35 36zM761 798v603q4 39 30 39h8q27 0 39 -46l227 -509q9 11 159 355l88 189q11 11 23 11h8q26 0 30 -39v-603q-7 -36 -34 -36h-2q-34 6 -34 32v446 h-2q-200 -455 -207 -465q-14 -13 -27 -13q-31 0 -55 75l-179 401h-2v-444q0 -26 -34 -32h-2q-27 0 -34 36z" />
<glyph unicode="&#x25fc;" horiz-adv-x="1004" d="M0 0v1005h1005v-1005h-1005z" />
</font>
</defs>
</svg>
