<?xml version="1.0" standalone="no"?>
<!DOCTYPE svg PUBLIC "-//W3C//DTD SVG 1.1//EN" "http://www.w3.org/Graphics/SVG/1.1/DTD/svg11.dtd" >
<svg xmlns="http://www.w3.org/2000/svg">
<metadata></metadata>
<defs>
<font id="permianslabseriftypefaceRg" horiz-adv-x="1536" >
<font-face units-per-em="2048" ascent="1536" descent="-512" />
<missing-glyph horiz-adv-x="481" />
<glyph unicode="&#xfb01;" horiz-adv-x="1398" d="M84 0v125h164v780l-164 4v115h164v92q0 210 96.5 325t271.5 115q71 0 148.5 -19.5t105.5 -23.5l-24 -176q-52 6 -132.5 38t-135.5 32q-69 0 -104.5 -50.5t-35.5 -146.5v-186l697 10l41 -10v-897h163v-127h-518v127h164v772h-547v-774h205v-125h-559zM942 1403q0 55 39 92 t98 37q57 0 98.5 -37t41.5 -92t-40.5 -92t-99.5 -37t-98 37t-39 92z" />
<glyph unicode="&#xfb02;" horiz-adv-x="1400" d="M84 0v125h164v780l-164 4v115h164v92q0 210 96.5 325t271.5 115q67 0 145.5 -21.5t141.5 -21.5q59 0 117 11.5t86 23.5l29 11l41 -11v-1423h163v-125h-518v125h164v1251q-33 -30 -111 -30q-58 0 -149.5 32.5t-146.5 32.5q-69 0 -104.5 -50.5t-35.5 -146.5v-190l330 6 v-141l-330 10v-774h205v-125h-559z" />
<glyph unicode="&#xfb03;" horiz-adv-x="2127" d="M84 0v125h164v780l-164 4v115h164v104q0 188 97.5 298t270.5 110q74 0 164 -20t131 -23l-24 -176q-54 3 -155.5 36t-153.5 33q-69 0 -104.5 -50t-35.5 -146v-166h539v92q0 210 97 325t272 115q71 0 148 -19.5t105 -23.5l-24 -176q-52 6 -132.5 38t-135.5 32 q-69 0 -104.5 -50.5t-35.5 -146.5v-186l697 10l41 -10v-897h163v-127h-518v127h164v772h-547v-774h205v-125h-559v125h164v774h-539v-774h205v-125h-559zM1671 1403q0 55 39 92t98 37q57 0 98.5 -37t41.5 -92t-40.5 -92t-99.5 -37t-98 37t-39 92z" />
<glyph unicode="&#xfb04;" horiz-adv-x="2129" d="M84 0v125h164v780l-164 4v115h164v104q0 188 97.5 298t270.5 110q74 0 164 -20t131 -23l-24 -176q-54 3 -155.5 36t-153.5 33q-69 0 -104.5 -50t-35.5 -146v-166h539v92q0 210 97 325t272 115q67 0 145 -21.5t141 -21.5q59 0 117 11.5t87 23.5l28 11l41 -11v-1421h163 v-127h-518v127h164v1249q-32 -30 -110 -30q-58 0 -150 32.5t-147 32.5q-69 0 -104.5 -50.5t-35.5 -146.5v-190l330 6v-141l-330 10v-774h205v-125h-559v125h164v774h-539v-774h205v-125h-559z" />
<glyph horiz-adv-x="2048" />
<glyph horiz-adv-x="2048" />
<glyph unicode="&#xd;" horiz-adv-x="2048" />
<glyph unicode=" "  horiz-adv-x="481" />
<glyph unicode="&#x09;" horiz-adv-x="481" />
<glyph unicode="&#xa0;" horiz-adv-x="481" />
<glyph unicode="!" horiz-adv-x="591" d="M158 98q0 59 40 93t105 34q61 0 96 -33t35 -90q0 -62 -39 -97.5t-104 -35.5q-59 0 -96 35.5t-37 93.5zM188 1436l213 10l-20 -975h-170z" />
<glyph unicode="&#x22;" horiz-adv-x="763" d="M111 1436l213 10l-31 -498h-150zM438 1436l213 10l-30 -498h-150z" />
<glyph unicode="#" horiz-adv-x="1484" d="M96 293v151h248l131 340h-297v152h354l107 276h168l-107 -276h326l107 276h167l-106 -276h188v-152h-245l-129 -340h292v-151h-352l-110 -293h-170l112 293h-325l-111 -293h-170l113 293h-191zM514 444h324l131 340h-326z" />
<glyph unicode="$" horiz-adv-x="1067" d="M106 981q0 141 100 245t283 128l-14 295q79 29 160 0l-17 -291q79 -4 155.5 -24t113.5 -38l37 -18v-369h-133l-17 262q-102 29 -211 29q-120 0 -195 -54t-75 -145q0 -40 15 -73t36.5 -55.5t60 -44t70 -34.5t82.5 -32q155 -56 207 -83q154 -78 194 -206q17 -53 17 -115 q0 -151 -101 -250.5t-280 -125.5l18 -295q-75 -28 -159 0l12 284q-86 2 -174 22.5t-133 40.5l-45 19v369h133l16 -260q107 -35 242 -35q128 0 206 55t78 152q0 56 -21.5 96.5t-72.5 70.5t-88.5 45t-115.5 41l-13.5 4.5l-12 4l-13.5 4.5q-62 21 -103.5 39t-91.5 50t-79.5 69 t-50 94.5t-20.5 128.5z" />
<glyph unicode="%" horiz-adv-x="1843" d="M86 1059q0 186 102 294.5t299 108.5q114 0 199 -53.5t125.5 -134t40.5 -172.5q0 -186 -102 -295t-299 -109q-114 0 -199 54t-125.5 134.5t-40.5 172.5zM274 1106q0 -56 10.5 -104t33 -88.5t63 -63.5t94.5 -23q86 0 136.5 66.5t50.5 161.5q0 74 -20 135t-67.5 102 t-115.5 41q-87 0 -136 -65.5t-49 -161.5zM332 0l979 1434h198l-977 -1434h-200zM991 340q0 186 102.5 294.5t299.5 108.5q86 0 156.5 -31t115 -82.5t68.5 -115t24 -131.5q0 -186 -102 -294.5t-299 -108.5q-114 0 -199 53.5t-125.5 134t-40.5 172.5zM1180 387 q0 -56 10.5 -104t33 -88t62.5 -63t94 -23q86 0 136.5 66t50.5 161q0 74 -20 135t-67.5 102t-115.5 41q-87 0 -135.5 -65.5t-48.5 -161.5z" />
<glyph unicode="&#x26;" horiz-adv-x="1429" d="M106 322q0 68 20.5 126.5t61 108t81 85t100.5 79.5q-89 103 -139 188t-54 178q-10 175 98.5 275t290.5 100q164 0 257 -81t93 -214q0 -36 -8 -69.5t-18.5 -60t-35 -59t-41.5 -52.5t-56 -55t-60.5 -53t-70.5 -59q-19 -16 -29 -24l109 -125q181 -205 223 -248 q98 129 155 308h-217v131h475v-131h-122q-56 -217 -193 -400q164 -147 293 -147h27l-17 -123h-55q-182 0 -365 141q-183 -161 -395 -161q-183 0 -295.5 94t-112.5 248zM301 369q0 -107 59.5 -174.5t165.5 -67.5q149 0 281 106q-32 32 -70.5 73.5t-61 67t-72 83t-62.5 73.5 l-99 111q-141 -114 -141 -272zM358 1114q2 -36 13 -72t23.5 -61t39 -60t41.5 -52t49 -54q101 87 150 162t49 166q0 79 -47 126.5t-121 47.5q-90 0 -146.5 -54t-50.5 -149z" />
<glyph unicode="'" horiz-adv-x="436" d="M111 1436l213 10l-31 -498h-150z" />
<glyph unicode="(" horiz-adv-x="673" d="M80 592q0 167 36.5 324t107.5 296.5t186.5 251.5t263.5 178l51 -129q-217 -112 -341 -358.5t-124 -542.5q0 -200 55.5 -386.5t162.5 -331t247 -209.5l-59 -115q-141 53 -253.5 158t-184.5 242t-110 296t-38 326z" />
<glyph unicode=")" horiz-adv-x="681" d="M-43 -301q217 112 341 358.5t124 542.5q0 200 -55.5 387t-162.5 331.5t-247 209.5l59 114q186 -70 321 -230t200 -363t65 -428q0 -167 -36.5 -324.5t-107.5 -297t-186.5 -251.5t-263.5 -178z" />
<glyph unicode="*" horiz-adv-x="1099" d="M150 1329q-58 9 -68 65q-9 51 26 93q40 49 97 25q3 -1 6 -3l272 -137l17 12l-45 304q-6 43 23.5 70.5t70.5 27.5q43 0 73 -27.5t23 -72.5l-47 -306l14 -10l277 139q58 30 101 -19q35 -40 28 -92q-7 -57 -64 -68q-2 -1 -4 -1l-297 -51l-8 -27l209 -209q45 -47 13 -102 q-26 -44 -75 -55q-60 -14 -90 43l-133 254h-39l-133 -254q-30 -57 -90 -43q-48 11 -74 55q-32 55 13 102l203 205l-11 33z" />
<glyph unicode="+" horiz-adv-x="1030" d="M94 508v151h338v347h164v-347h340v-151h-340v-344h-164v344h-338z" />
<glyph unicode="," horiz-adv-x="512" d="M113 -317q130 120 141 290q-57 -2 -97 30.5t-40 94.5q0 59 38 93t97 34q69 0 105 -41.5t36 -120.5q0 -129 -51 -247t-147 -201z" />
<glyph unicode="-" horiz-adv-x="880" d="M143 506v162l596 20v-162z" />
<glyph unicode="." horiz-adv-x="512" d="M117 98q0 59 40 93t105 34q61 0 96 -33t35 -90q0 -62 -39 -97.5t-104 -35.5q-59 0 -96 35.5t-37 93.5z" />
<glyph unicode="/" horiz-adv-x="956" d="M-115 -354l883 1788h168l-881 -1788h-170z" />
<glyph unicode="0" horiz-adv-x="1251" d="M119 674q0 237 57.5 410t178 271.5t294.5 98.5q92 0 171 -38.5t135.5 -105.5t97.5 -155.5t60.5 -189t19.5 -205.5q0 -237 -57.5 -410t-178.5 -271.5t-295 -98.5q-114 0 -207.5 59t-152.5 157.5t-91 221.5t-32 256zM328 778q0 -132 16 -243t50.5 -204t96 -145.5 t144.5 -52.5q88 0 155 73t100.5 190.5t33.5 258.5q0 129 -18.5 242t-55 205t-98.5 145t-142 53q-91 0 -156 -73.5t-95.5 -189.5t-30.5 -259z" />
<glyph unicode="1" horiz-adv-x="878" d="M72 1331l501 115h33v-1311h228v-135h-709v135h281v1116l-324 -28z" />
<glyph unicode="2" horiz-adv-x="1071" d="M61 0v123l179 213q92 111 141.5 171.5t111.5 140.5t92 130t59.5 109.5t40.5 110.5t11 104q0 192 -233 192q-81 0 -178 -22l-21 -258h-133v368q16 8 46.5 20t126 32t192.5 20q195 0 298 -86t103 -256q0 -73 -23.5 -147.5t-60 -141.5t-104.5 -156t-132.5 -165t-167.5 -193 q-12 -13 -18 -20l-125 -144l539 23l31 201h133l-21 -369h-887z" />
<glyph unicode="3" horiz-adv-x="1089" d="M84 39l41 164q18 -6 49 -15.5t118 -25t163 -15.5q148 0 229.5 67.5t81.5 186.5q0 111 -91 187t-267 76h-74v149l86 2q144 4 233.5 81t89.5 191q0 100 -70.5 160t-180.5 60q-88 0 -193 -23l-23 -270h-133v368q19 8 53 20t134 32t194 20q194 0 305 -91.5t111 -248.5 q0 -134 -74 -230t-227 -130v-9q154 -20 243 -112.5t89 -231.5q0 -182 -134 -301.5t-380 -119.5q-88 0 -181 15t-142 29z" />
<glyph unicode="4" horiz-adv-x="1124" d="M49 399l367 1035h168l-348 -992l448 9v698h193v-696l192 2l-16 -158h-176v-127q0 -42 2.5 -89.5t4.5 -74.5l3 -26h-203v317h-590z" />
<glyph unicode="5" horiz-adv-x="1062" d="M78 39l41 162q194 -54 321 -54q150 0 224.5 69.5t74.5 184.5q0 307 -571 359l37 674h713l2 -320h-134l-16 154l-420 10l-20 -356q165 -22 285.5 -68.5t191.5 -113t104 -146t33 -174.5q0 -92 -31 -171t-90.5 -139.5t-155.5 -95t-218 -34.5q-196 0 -371 59z" />
<glyph unicode="6" horiz-adv-x="1144" d="M109 561q0 818 823 916l20 -156q-97 -14 -178 -37.5t-165.5 -69.5t-145 -109.5t-105 -163.5t-57.5 -226q52 79 149 123.5t216 44.5q167 0 279 -114.5t112 -309.5q0 -98 -30.5 -184t-88.5 -152t-149.5 -104.5t-206.5 -38.5q-144 0 -252.5 76.5t-164.5 207.5t-56 297z M336 422q0 -113 69.5 -202t186.5 -89q133 0 199.5 81.5t66.5 223.5q0 128 -66.5 206.5t-181.5 78.5q-132 0 -203 -84.5t-71 -214.5z" />
<glyph unicode="7" horiz-adv-x="946" d="M84 1014v420h821v-115q-199 -519 -459 -1331l-204 59q94 250 487 1243l-491 -16l-21 -260h-133z" />
<glyph unicode="8" horiz-adv-x="1155" d="M115 383q0 125 75.5 226.5t210.5 135.5v9q-118 38 -178.5 122.5t-60.5 202.5q0 158 112 266.5t304 108.5q193 0 304 -107t111 -266q0 -112 -58.5 -197t-178.5 -126v-8q138 -31 211 -131t73 -236q0 -178 -127 -290.5t-335 -112.5q-213 0 -338 110t-125 293zM317 406 q0 -130 73.5 -202.5t187.5 -72.5q113 0 186.5 71.5t73.5 200.5q0 117 -73 191t-187 74t-187.5 -73.5t-73.5 -188.5zM354 1069q0 -108 63 -174t161 -66q99 0 161 68t62 184q0 101 -64 161.5t-159 60.5q-96 0 -160 -62.5t-64 -171.5z" />
<glyph unicode="9" horiz-adv-x="1144" d="M88 983q0 98 30.5 184t88.5 152t149.5 104.5t206.5 38.5q144 0 252.5 -76.5t164.5 -207.5t56 -297q0 -818 -823 -916l-20 156q97 13 178.5 36.5t165.5 69.5t144.5 110t104.5 164t56 226q-51 -79 -147.5 -123.5t-215.5 -44.5q-167 0 -279 114.5t-112 309.5zM287 1020 q0 -135 66 -217t182 -82q132 0 203 84t71 211q0 74 -28 140t-88 110.5t-140 44.5q-128 0 -197 -80t-69 -211z" />
<glyph unicode=":" horiz-adv-x="561" d="M141 98q0 59 40 93t106 34q61 0 96 -33t35 -90q0 -62 -39.5 -97.5t-104.5 -35.5q-59 0 -96 35.5t-37 93.5zM141 819q0 59 40 93t106 34q61 0 96 -33t35 -90q0 -62 -39.5 -97.5t-104.5 -35.5q-59 0 -96 35.5t-37 93.5z" />
<glyph unicode=";" horiz-adv-x="561" d="M139 -317q131 121 142 290q-57 -2 -97.5 30.5t-40.5 94.5q0 58 38.5 92.5t97.5 34.5q69 0 105 -41.5t36 -120.5q0 -129 -51.5 -247t-147.5 -201zM141 819q0 59 40 93t106 34q61 0 96 -33t35 -90q0 -62 -39.5 -97.5t-104.5 -35.5q-59 0 -96 35.5t-37 93.5z" />
<glyph unicode="&#x3c;" horiz-adv-x="880" d="M78 573v19l467 450h207l-482 -458l482 -461h-207z" />
<glyph unicode="=" horiz-adv-x="1148" d="M154 311v152h841v-152h-841zM154 700v152h841v-152h-841z" />
<glyph unicode="&#x3e;" horiz-adv-x="878" d="M127 123l481 461l-481 458h207l467 -450v-19l-467 -450h-207z" />
<glyph unicode="?" horiz-adv-x="907" d="M94 1202v162q4 4 12.5 10.5t38.5 23.5t65 30t92.5 23.5t119.5 10.5q107 0 187.5 -27.5t125 -73.5t65.5 -98t21 -110q0 -60 -21.5 -115.5t-56 -97.5t-76 -79.5t-83.5 -69.5t-76.5 -60.5t-56 -58t-21.5 -56.5q0 -19 13 -36t32 -17q24 0 53 25l86 -109q-90 -78 -182 -78 q-79 0 -135.5 52.5t-56.5 134.5q0 53 20.5 101t54 84t73.5 70t80 66.5t73.5 66.5t54 77.5t20.5 91.5q0 71 -59.5 113t-165.5 42q-50 0 -99 -10t-83 -24.5t-61 -29t-40 -24.5zM272 98q0 59 40 93t106 34q61 0 96 -33t35 -90q0 -62 -39 -97.5t-104 -35.5q-59 0 -96.5 35.5 t-37.5 93.5z" />
<glyph unicode="@" horiz-adv-x="1878" d="M94 408q0 146 34.5 274.5t107 237t177 187t253 122t327.5 43.5q125 0 238 -29t209 -89.5t166.5 -146.5t110.5 -206t40 -262q0 -139 -48 -266.5t-137 -210t-196 -82.5q-154 0 -217 129q-4 -5 -12 -14t-35 -31t-57 -39t-77.5 -31t-96.5 -14q-169 0 -275 121t-106 307 q0 210 119 341.5t301 131.5q68 0 126.5 -19t83.5 -38l25 -19l148 86h22v-672q0 -40 17 -64t51 -24q53 0 90.5 58t54 140t16.5 173q0 289 -164 458.5t-454 169.5q-128 0 -234.5 -37t-180 -100.5t-125 -150t-75.5 -184.5t-24 -205q0 -123 30.5 -232.5t92.5 -197.5 t149.5 -147.5t207 -84t259.5 -6.5l17 -135q-211 -31 -390 10t-304 141t-195 256.5t-70 350.5zM698 438q0 -142 59.5 -225.5t178.5 -83.5q56 0 106 19t72 38l23 19l-2 485q-9 5 -25 12.5t-65.5 20t-98.5 12.5q-126 0 -187 -81.5t-61 -215.5z" />
<glyph unicode="A" horiz-adv-x="1454" d="M4 0v125h154q6 24 14 49.5t21 63t24.5 67t35 92t40.5 107.5l352 932l168 12l479 -1323h164v-125h-532v125h163l-112 305h-553l-14 -41q-65 -183 -80 -264h155v-125h-479zM465 555h465l-170 469q-16 45 -31.5 98.5t-22.5 83.5l-8 31h-8q-22 -111 -55 -207z" />
<glyph unicode="B" horiz-adv-x="1298" d="M109 0v125h163v1184h-163v125h540q237 0 362.5 -99.5t125.5 -265.5q0 -113 -64.5 -195.5t-177.5 -121.5v-9q134 -24 218.5 -111.5t84.5 -223.5q0 -193 -145 -300.5t-394 -107.5h-550zM473 125h209q147 0 231 79.5t84 203.5t-81 202t-226 78h-217v-563zM473 813h326 q69 27 105 93t36 149q0 254 -301 254h-166v-496z" />
<glyph unicode="C" horiz-adv-x="1329" d="M106 717q0 148 49 283t137.5 237.5t222 163.5t292.5 61q113 0 211 -20.5t140 -41.5l42 -20v-368h-133l-16 260q-104 53 -234 53q-102 0 -186.5 -34.5t-142 -93t-97.5 -136.5t-58 -163t-18 -175q0 -123 35 -233.5t100 -195.5t165.5 -135t222.5 -50q105 0 211 26l18 266 h133v-370q-17 -7 -47.5 -17t-129 -26.5t-200.5 -16.5q-326 0 -521.5 201t-195.5 545z" />
<glyph unicode="D" horiz-adv-x="1527" d="M109 0v127l163 -2v1184h-163v125h559q362 0 558.5 -190t196.5 -513q0 -225 -104 -392.5t-281.5 -253t-404.5 -85.5h-524zM473 127h162q143 0 255 46.5t181.5 127.5t105 185.5t35.5 224.5q0 130 -35.5 237.5t-106.5 189t-185.5 126.5t-263.5 45h-148v-1182z" />
<glyph unicode="E" horiz-adv-x="1247" d="M109 0v125h163v1184h-163v125h1028v-369h-133l-21 244h-510v-523l469 19v-158l-469 17v-539h510l21 244h133v-369h-1028z" />
<glyph unicode="F" horiz-adv-x="1200" d="M109 0v125h163v1184h-163v125h1028v-369h-133l-21 244h-510v-564l471 19v-158l-471 17v-498h225v-125h-589z" />
<glyph unicode="G" horiz-adv-x="1464" d="M104 717q0 120 29.5 229.5t91 203.5t149 163.5t210 109t268.5 39.5q96 0 198 -20.5t156 -41.5l54 -20v-368h-134l-18 262q-105 51 -258 51q-113 0 -205.5 -34.5t-153 -92.5t-101.5 -136.5t-59 -163t-18 -175.5q0 -124 35.5 -234t101.5 -195t170 -135t232 -50q57 0 109 5 t75 10l23 5v412h-205v125h549v-125h-143v-504q-19 -7 -54 -18t-142 -29.5t-212 -18.5q-341 0 -544.5 201t-203.5 545z" />
<glyph unicode="H" horiz-adv-x="1671" d="M109 0v125h163v1184h-163v125h528v-125h-164v-506h725v506h-164v125h529v-125h-164v-1184h164v-125h-529v125h164v547h-725v-547h164v-125h-528z" />
<glyph unicode="I" horiz-adv-x="745" d="M109 0v125h163v1184h-163v125h528v-125h-164v-1184h164v-125h-528z" />
<glyph unicode="J" horiz-adv-x="706" d="M43 -309q115 168 150 231q37 69 49 135t12 168v1084h-164v125h528v-125h-163v-1082q0 -100 -15 -169t-59 -142q-74 -122 -234 -303z" />
<glyph unicode="K" horiz-adv-x="1396" d="M109 0v125h163v1184h-163v125h528v-125h-164v-508h205l336 508h-117v125h424v-125h-119l-403 -529l467 -655h112v-125h-262l-483 678h-160v-553h164v-125h-528z" />
<glyph unicode="L" horiz-adv-x="1187" d="M109 0v125h163v1184h-163v125h528v-125h-164v-1184h510l21 244h133v-369h-1028z" />
<glyph unicode="M" horiz-adv-x="1918" d="M109 0v125h161v1184h-161v125h387l458 -789l488 789h368v-125h-161v-1184h161v-125h-518v125h166v946q0 26 2.5 61t5.5 56l2 22l-6 2q-22 -73 -67 -143l-457 -721h-25l-434 725q-19 34 -35 67.5t-22 50.5l-6 17l-6 -2q12 -63 12 -137v-944h164v-125h-477z" />
<glyph unicode="N" horiz-adv-x="1630" d="M109 0v125h163v1184h-163v125h313l706 -971q54 -75 103 -162l6 4q-8 91 -8 178v826h-164v125h477v-125h-164v-1309l-114 -25l-740 990q-65 86 -104 163l-8 -4q10 -66 10 -184v-815h164v-125h-477z" />
<glyph unicode="O" d="M109 717q0 120 26.5 230t81 204t131.5 163t185 108.5t235 39.5t235 -39.5t185 -108.5t131.5 -163t81 -204t26.5 -230t-26.5 -230t-81 -204t-131.5 -163.5t-185 -109t-235 -39.5t-235 39.5t-185 109t-131.5 163.5t-81 204t-26.5 230zM317 717q0 -78 11 -151t33.5 -142 t59.5 -125.5t87 -99.5t119 -66.5t151 -23.5q114 0 201.5 51.5t138.5 139t76 193t25 224.5q0 95 -15 181t-50 165t-87 136.5t-130.5 91.5t-176.5 34q-115 0 -203 -51.5t-139 -139t-76 -193t-25 -224.5z" />
<glyph unicode="P" horiz-adv-x="1273" d="M109 0v125h163v1184h-163v125h553q256 0 397 -114t141 -327q0 -212 -142.5 -329t-375.5 -117h-209v-422h205v-125h-569zM473 670h209q145 0 229 90.5t84 226.5q0 145 -91.5 233.5t-270.5 88.5h-160v-639z" />
<glyph unicode="Q" d="M109 717q0 120 26.5 230t81 204t131.5 163t185 108.5t235 39.5t235 -39.5t185 -108.5t131.5 -163t81 -204t26.5 -230q0 -206 -78 -377.5t-225 -267.5l176 -291q22 -36 48.5 -75t42.5 -60l16 -21l-231 -10l-222 381q-102 -25 -186 -25q-127 0 -235 39.5t-185 109 t-131.5 163.5t-81 204t-26.5 230zM317 717q0 -78 11 -151t33.5 -142t59.5 -125.5t87 -99.5t119 -66.5t151 -23.5q114 0 201.5 51.5t138.5 139t76 193t25 224.5q0 95 -15 181t-50 165t-87 136.5t-130.5 91.5t-176.5 34q-115 0 -203 -51.5t-139 -139t-76 -193t-25 -224.5z" />
<glyph unicode="R" horiz-adv-x="1361" d="M109 0v125h163v1184h-163v125h553q266 0 402 -104t136 -310q0 -132 -79.5 -233.5t-211.5 -143.5l310 -518h77l2 -125h-235l-346 598h-244v-473h174v-125h-538zM473 721h186q161 0 248.5 81.5t87.5 213.5t-89 212.5t-273 80.5h-160v-588z" />
<glyph unicode="S" horiz-adv-x="1118" d="M127 1069q0 175 129 284t350 109q93 0 182.5 -20.5t133.5 -41.5l43 -20v-368h-134l-16 264q-83 49 -209 49q-139 0 -213 -62t-74 -159q0 -47 14.5 -85t36 -64.5t65.5 -55t83 -47t109 -49.5q71 -31 121.5 -57.5t102.5 -64.5t84.5 -78.5t52.5 -95t20 -118.5 q0 -196 -140 -307t-376 -111q-93 0 -182.5 20.5t-133.5 40.5l-43 21v369h133l17 -264q95 -49 213 -49q143 0 231 61t88 178q0 59 -21 104t-68.5 81.5t-98.5 62.5t-138 61q-65 26 -114 51.5t-98 62.5t-80 78t-50.5 97.5t-19.5 122.5z" />
<glyph unicode="T" horiz-adv-x="1310" d="M57 1065v369h1196v-369h-133l-20 242h-344v-1182h184v-125h-569v125h184v1182h-344l-21 -242h-133z" />
<glyph unicode="U" horiz-adv-x="1554" d="M68 1309v125h528v-125h-166v-795q0 -191 88.5 -300.5t259.5 -109.5q186 0 281.5 109.5t95.5 300.5v795h-164v125h498v-125h-164v-795q0 -90 -20.5 -170.5t-64.5 -149t-107.5 -118t-153.5 -77.5t-199 -28q-137 0 -243.5 41t-173 115t-100.5 171.5t-34 215.5v795h-161z" />
<glyph unicode="V" horiz-adv-x="1449" d="M-4 1309v125h532v-125h-163l327 -899q16 -45 31.5 -98.5t22.5 -83.5l8 -31h8q22 110 55 206l205 580q85 240 102 326h-155v125h479v-125h-154q-6 -24 -14 -49.5t-21 -63t-24.5 -67t-35 -92t-40.5 -107.5l-352 -932l-168 -12l-479 1323h-164z" />
<glyph unicode="W" horiz-adv-x="2062" d="M2 1309v125h530v-125h-170l248 -858q17 -60 31 -120t19 -90l6 -30h8q20 107 51 240l221 976l195 9l254 -979q16 -60 29 -120.5t18 -90.5l6 -31h8q22 109 57 242l220 852h-164v125h491v-125h-164l-380 -1309l-195 -12l-252 950q-13 49 -24 104t-16 85l-5 30h-8 q-16 -114 -43 -223l-219 -934l-199 -12l-391 1321h-162z" />
<glyph unicode="X" horiz-adv-x="1384" d="M39 0v125h151l402 586l-397 598h-144v125h559v-125h-184l303 -465l307 465h-202v125h485v-125h-117l-391 -580l403 -604h144v-125h-559v125h184l-309 471l-312 -471h168v-125h-491z" />
<glyph unicode="Y" horiz-adv-x="1335" d="M-8 1309v125h538v-125h-163l335 -580l312 580h-168v125h477v-125h-137l-414 -725v-459h184v-125h-569v125h184v461l-436 723h-143z" />
<glyph unicode="Z" horiz-adv-x="1202" d="M117 0v125l757 1184h-604l-20 -244h-133v369h970v-125l-757 -1184h604l20 244h133v-369h-970z" />
<glyph unicode="[" horiz-adv-x="614" d="M184 -408v2016h365v-105h-205v-1806h205v-105h-365z" />
<glyph unicode="\" horiz-adv-x="956" d="M20 1434h168l883 -1790h-170z" />
<glyph unicode="]" horiz-adv-x="614" d="M66 -303h204v1806h-204v105h364v-2016h-364v105z" />
<glyph unicode="^" horiz-adv-x="956" d="M0 1092l449 464h59l448 -464h-213l-266 299l-266 -299h-211z" />
<glyph unicode="_" horiz-adv-x="1005" d="M31 -203h944v-151h-944v151z" />
<glyph unicode="`" horiz-adv-x="602" d="M88 1524l137 141l328 -371l-82 -86z" />
<glyph unicode="a" horiz-adv-x="1079" d="M80 254q0 81 36 142.5t93.5 97.5t139 58t164 28.5t177.5 3.5v94q0 107 -60 163t-177 56q-75 0 -152 -12.5t-117 -24.5l-39 -12v141q16 6 45 15t123 24.5t193 15.5q189 0 282.5 -96.5t90.5 -263.5q-1 -34 -5 -233t-4 -267q0 -26 13.5 -41.5t38.5 -15.5q21 0 43.5 8.5 t34.5 17.5l12 9v-123q-76 -59 -154 -59q-131 0 -166 116q-62 -52 -144.5 -84t-172.5 -32q-135 0 -215 75.5t-80 198.5zM274 276q0 -67 44.5 -104t117.5 -37q63 0 134 23t112 53q0 80 4 264q-95 -2 -164 -12t-128 -31t-89.5 -60t-30.5 -96z" />
<glyph unicode="b" horiz-adv-x="1200" d="M4 1423v113l315 23l41 -11l-2 -4l2 2l-4 -606q129 104 322 104q105 0 187.5 -39t133.5 -105.5t77 -151t26 -181.5q0 -277 -142 -432t-397 -155q-221 0 -393 81v1362h-166zM356 813q0 -4 1 -33t2 -74.5t1 -89.5v-446q11 -5 30 -13.5t77.5 -22t114.5 -13.5 q162 0 241.5 106.5t79.5 288.5q0 175 -70.5 273t-216.5 98t-260 -74z" />
<glyph unicode="c" horiz-adv-x="966" d="M96 485q0 248 140 403.5t362 155.5q76 0 158 -20t123 -23l-25 -176q-52 3 -141.5 36.5t-153.5 33.5q-71 0 -124.5 -29t-84 -79t-45 -110t-14.5 -130q0 -186 88.5 -298t243.5 -112q64 0 129.5 15t99.5 30l33 15v-136q-5 -3 -13.5 -8.5t-39 -19.5t-65.5 -24.5t-90.5 -19.5 t-115.5 -9q-217 0 -341 139.5t-124 365.5z" />
<glyph unicode="d" horiz-adv-x="1243" d="M96 492q0 249 140 400.5t364 151.5q137 0 234 -65v444h-166v113l315 23l41 -11v-1364q0 -27 13.5 -42t37.5 -15q21 0 43.5 8.5t34.5 17.5l12 9v-123q-76 -59 -153 -59q-126 0 -162 106q-60 -53 -142.5 -79.5t-166.5 -26.5q-147 0 -249 69t-149 182.5t-47 260.5zM295 520 q0 -112 30 -199t96 -141.5t161 -54.5q134 0 254 78q-2 115 -2 205v411q-37 35 -96 59.5t-130 24.5q-152 0 -232.5 -107.5t-80.5 -275.5z" />
<glyph unicode="e" horiz-adv-x="1099" d="M96 479q0 260 138.5 412.5t355.5 152.5q219 0 331 -139t80 -399h-710q19 -365 381 -365q64 0 136 15t112 30l41 15v-140q-17 -9 -47.5 -22.5t-121.5 -36t-178 -22.5q-250 0 -384 134t-134 365zM295 631l512 8q2 55 -8 100t-35 82t-71.5 57.5t-110.5 20.5 q-69 0 -122 -21.5t-86 -59.5t-52 -84t-27 -103z" />
<glyph unicode="f" horiz-adv-x="811" d="M84 0v125h164v780l-164 4v115h164v92q0 210 96.5 325t271.5 115q74 0 164 -20t131 -23l-24 -176q-54 3 -155.5 36.5t-153.5 33.5q-69 0 -104.5 -50.5t-35.5 -146.5v-186h330v-135l-330 10v-774h205v-125h-559z" />
<glyph unicode="g" horiz-adv-x="1130" d="M80 -221q0 55 19.5 101.5t51.5 76.5t55 46t48 28q-55 47 -55 127q0 118 114 174q-103 42 -157 127t-54 196q0 184 118 286.5t335 102.5q99 0 178 -28l369 39l-8 -152h-222q39 -32 64 -87t25 -118q0 -174 -118 -286.5t-335 -112.5q-52 0 -96 6q-52 -32 -52 -82 q0 -76 95 -82l229 -12q354 -21 354 -295q0 -170 -133 -271t-350 -104q-101 -2 -186 16.5t-150.5 56t-102 101t-36.5 146.5zM260 -174q0 -99 83 -163t239 -64q305 0 305 196q0 66 -54.5 110t-146.5 48l-223 12q-68 6 -121 21q-82 -66 -82 -160zM297 694q0 -276 246 -276 q102 0 162.5 66.5t60.5 174.5q0 267 -246 267q-108 0 -165.5 -64.5t-57.5 -167.5z" />
<glyph unicode="h" horiz-adv-x="1280" d="M59 1421v115l316 20l41 -10l-4 -622q153 120 315 120q168 0 255 -97.5t87 -274.5v-545h164v-127h-498v127h144v532q0 222 -205 222q-122 0 -262 -70q4 -46 4 -195v-489h143v-127h-498v127h164v1294h-166z" />
<glyph unicode="i" horiz-adv-x="665" d="M86 899v125l315 10l41 -10v-897h164v-127h-518v127h164v772h-166zM199 1382q0 55 39 92t98 37q57 0 98 -37t41 -92t-40 -92t-99 -37t-98 37t-39 92z" />
<glyph unicode="j" horiz-adv-x="593" d="M20 -436q15 19 46.5 56.5t44 53.5t32 43.5t31.5 52t23 54.5q28 83 28 221v854h-166v125l316 10l41 -10v-971q0 -141 -43 -243q-28 -66 -83.5 -138.5t-164.5 -197.5zM168 1382q0 55 39 92t98 37q57 0 98 -37t41 -92t-40 -92t-99 -37t-98 37t-39 92z" />
<glyph unicode="k" horiz-adv-x="1210" d="M59 1423v113l316 23l41 -11v-973h131l284 324h-133v125h449v-125h-129l-324 -330l361 -442h100v-127h-242l-370 461h-127v-334h133v-127h-488v127h164v1296h-166z" />
<glyph unicode="l" horiz-adv-x="641" d="M59 1423v113l316 23l41 -11v-1421h164v-127h-519v127h164v1296h-166z" />
<glyph unicode="m" horiz-adv-x="1890" d="M86 899v125l315 10l41 -10l-4 -100q147 120 324 120q83 0 152 -34.5t104 -94.5q143 129 317 129q171 0 256.5 -97.5t85.5 -246.5v-573h166v-127h-497v127h141v537q0 100 -51 158.5t-158 58.5q-96 0 -225 -70q10 -58 10 -111v-573h141v-127h-477v127h145v537 q0 101 -49 159t-151 58q-98 0 -234 -70q4 -46 4 -195v-489h144v-127h-498v127h164v772h-166z" />
<glyph unicode="n" horiz-adv-x="1306" d="M86 899v125l315 10l41 -10l-4 -100q153 120 316 120q168 0 255 -97.5t87 -274.5v-545h164v-127h-498v127h143v532q0 222 -205 222q-122 0 -262 -70q4 -46 4 -195v-489h144v-127h-498v127h164v772h-166z" />
<glyph unicode="o" horiz-adv-x="1185" d="M96 487q0 257 140 407t382 150q220 0 344.5 -137t124.5 -375q0 -253 -140 -402.5t-382 -149.5q-220 0 -344.5 136.5t-124.5 370.5zM291 537q0 -199 80.5 -307.5t224.5 -108.5q140 0 218.5 100.5t78.5 265.5q0 201 -80.5 308.5t-226.5 107.5q-144 0 -219.5 -100 t-75.5 -266z" />
<glyph unicode="p" horiz-adv-x="1241" d="M59 899v125l316 10l41 -10l-2 -84q117 104 313 104q102 0 183.5 -40t131.5 -108.5t76.5 -156t26.5 -186.5q0 -253 -137.5 -413t-341.5 -160q-151 0 -250 67v-436h164v-125h-519v125h164v1288h-166zM412 813q0 -4 1 -33t2 -74.5t1 -89.5v-411q97 -82 229 -82 q104 0 173 52.5t98.5 136.5t29.5 196q0 180 -72.5 282.5t-224.5 102.5q-130 0 -237 -80z" />
<glyph unicode="q" horiz-adv-x="1224" d="M96 489q0 255 139 405t363 150q151 0 274 -88l68 68h107v-1411h163v-125h-518v125h164v483q-143 -116 -309 -116q-146 0 -249.5 68.5t-152.5 181.5t-49 259zM295 514q0 -171 78 -277t219 -106q138 0 264 90v580q-20 21 -46.5 41.5t-85 42.5t-122.5 22 q-150 0 -228.5 -108.5t-78.5 -284.5z" />
<glyph unicode="r" horiz-adv-x="950" d="M86 899v125l315 10l41 -10l-4 -125q143 143 277 143q46 0 102 -18t103 -23l-27 -178q-48 5 -122 27t-124 22q-49 0 -95.5 -19t-113.5 -60q4 -36 4 -177v-489h205v-127h-559v127h164v772h-166z" />
<glyph unicode="s" horiz-adv-x="880" d="M84 25l41 172q63 -8 163 -44t171 -36q72 0 114.5 37t42.5 96q0 32 -13.5 58t-30.5 42.5t-52.5 33.5t-59 26t-69.5 24q-59 20 -104 43.5t-89.5 61.5t-69 94t-24.5 127q0 128 100 206t255 78q57 0 113 -8t113 -20.5t85 -16.5l-41 -172q-68 9 -159 43.5t-146 34.5 q-62 0 -100.5 -34.5t-38.5 -86.5q0 -29 7.5 -52.5t25 -42.5t33.5 -32t47.5 -26.5t50.5 -20.5t57 -20q47 -16 83 -32t76.5 -43.5t66.5 -60t43.5 -81t17.5 -107.5q0 -71 -30 -126.5t-80.5 -90t-113.5 -52t-133 -17.5q-73 0 -138 8t-128 21t-86 16z" />
<glyph unicode="t" horiz-adv-x="815" d="M72 903v113l121 8l116 238h86l-2 -238h355v-141l-355 10v-555q0 -197 174 -197q40 0 89.5 9.5t78.5 19.5l29 10v-131q-13 -8 -35.5 -19.5t-91.5 -30.5t-137 -19q-295 0 -295 337v437q0 34 2 70t4 56l2 19z" />
<glyph unicode="u" horiz-adv-x="1275" d="M47 899v125l315 10l41 -10v-649q0 -232 205 -232q124 0 260 68q-2 97 -2 197v491h-166v125l316 10l41 -10v-840q0 -27 13.5 -42t37.5 -15q21 0 43.5 8.5t34.5 17.5l12 9v-123q-76 -59 -154 -59q-128 0 -165 122q-160 -122 -340 -122q-150 0 -238 97t-88 259v563h-166z " />
<glyph unicode="v" horiz-adv-x="1163" d="M16 899v125h492v-125h-139l213 -559q13 -33 24.5 -76t17.5 -68.5t7 -25.5h8q22 90 49 170l189 559h-144v125h410v-125h-123l-330 -899l-170 -10l-358 909h-146z" />
<glyph unicode="w" horiz-adv-x="1718" d="M20 899v125h492v-125h-147l172 -549l36 -147h5q18 88 34 147l183 674l170 10l215 -692q11 -35 21.5 -73.5t14.5 -59.5l5 -21h6q18 76 41 156l164 555h-123v125h385v-125h-123l-291 -899l-172 -8l-203 657q-13 42 -23 85.5t-13.5 67t-2.5 23.5h-8q-12 -98 -41 -196 l-180 -629l-172 -8l-301 907h-144z" />
<glyph unicode="x" horiz-adv-x="1224" d="M59 0v127h107l336 371l-326 401h-117v125h490v-125h-131l229 -283l236 283h-127v125h407v-125h-106l-330 -381l320 -391h116v-127h-489v125h133l-225 276l-238 -274h154v-127h-439z" />
<glyph unicode="y" horiz-adv-x="1159" d="M20 899v125h498v-125h-153l206 -522q13 -34 24.5 -76.5t16.5 -68.5l6 -25h9q26 92 55 170l190 522h-143v125h410v-125h-123l-320 -836q-64 -168 -112 -311.5t-64 -203.5l-16 -60h-228q93 220 252 489l-372 922h-136z" />
<glyph unicode="z" horiz-adv-x="1007" d="M94 0v109l580 794l-416 -10l-10 -156h-135v287h782v-111l-584 -796l451 12l10 158h135v-287h-813z" />
<glyph unicode="{" horiz-adv-x="669" d="M23 625q80 22 125 52.5t69.5 90.5t24.5 158v379q0 152 60.5 227.5t193.5 75.5h110v-105h-47q-91 0 -124.5 -50.5t-33.5 -147.5v-424q0 -154 -106 -246q106 -78 106 -223v-516q0 -97 33.5 -148t124.5 -51h47v-105h-110q-132 0 -193 76t-61 228v464q0 148 -56 207 q-71 -26 -145 -32z" />
<glyph unicode="|" horiz-adv-x="528" d="M184 -530v2097h160v-2097h-160z" />
<glyph unicode="}" horiz-adv-x="671" d="M63 -303h48q91 0 124 51t33 148v423q0 150 105 244q-105 80 -105 225v517q0 97 -33 147.5t-124 50.5h-48v105h111q133 0 193.5 -75.5t60.5 -227.5v-465q0 -151 55 -209q60 25 146 35l18 -91q-80 -22 -125 -52.5t-69.5 -90.5t-24.5 -158v-378q0 -152 -61 -228t-193 -76 h-111v105z" />
<glyph unicode="~" horiz-adv-x="1216" d="M106 575q3 8 9 20.5t30 44.5t54.5 57t84.5 45t117 20q69 0 128.5 -21t96 -45.5t88 -45.5t105.5 -21q37 0 70 13.5t53 32t35 37.5t21 32l6 14l108 -109q-1 -4 -4 -10.5t-15 -26t-26.5 -37t-39 -39t-53.5 -37t-70 -26t-87 -10.5q-69 0 -129.5 21t-96.5 45.5t-87 45.5 t-105 21q-37 0 -70 -13.5t-53 -32t-34.5 -37.5t-20.5 -33l-6 -13z" />
<glyph unicode="&#xa1;" horiz-adv-x="559" d="M131 915q0 58 43 98t105 40q61 0 103 -39.5t42 -98.5q0 -58 -41.5 -97.5t-103.5 -39.5q-60 0 -104 39.5t-44 97.5zM174 -414l21 965h170l22 -965h-213z" />
<glyph unicode="&#xa2;" horiz-adv-x="993" d="M90 485q0 224 116 374.5t306 178.5l-8 232h160l-9 -230q42 -4 107 -20t110 -19l-24 -176q-52 3 -141.5 36.5t-153.5 33.5q-71 0 -124.5 -29t-84 -79t-45 -110t-14.5 -130q0 -186 88 -298t243 -112q64 0 129.5 15t99.5 30l34 15v-136q-9 -6 -26 -16t-75.5 -30.5 t-122.5 -28.5l9 -219h-160l6 215q-197 15 -308.5 152t-111.5 351z" />
<glyph unicode="&#xa3;" horiz-adv-x="1157" d="M100 575v152h187l-17 260q-6 100 19 186t79 151.5t144.5 102.5t208.5 37q64 0 137 -10t114 -20l40 -11v-368h-133l-17 245q-63 13 -127 13q-282 0 -266 -316l16 -270h387v-152h-376l2 -26q4 -70 -5 -131t-27 -103t-40.5 -75.5t-45.5 -53.5t-42.5 -33.5t-31.5 -18.5 l-13 -5h586l16 240h133v-369h-926v129q5 1 12.5 4t30 15.5t42.5 30t43.5 50.5t39.5 73.5t25 102.5t4 134l-2 36h-197z" />
<glyph unicode="&#xa5;" horiz-adv-x="1484" d="M76 1309v125h538v-125h-163l335 -580l312 580h-168v125h477v-125h-137l-369 -645h277v-152h-322v-137h322v-152h-322v-98h164v-125h-528v125h163v98h-319v152h319v137h-319v152h272l-389 645h-143z" />
<glyph unicode="&#xa6;" horiz-adv-x="462" d="M152 293h159v-823h-159v823zM152 764v803h159v-803h-159z" />
<glyph unicode="&#xa7;" horiz-adv-x="1026" d="M106 766q0 143 138 258q-47 63 -47 156q0 132 107 208t278 76q72 0 170 -19t145 -22l-16 -166q-61 4 -157.5 25t-160.5 21q-93 0 -142.5 -31t-49.5 -84q0 -44 30 -75.5t78 -51t107 -38t117.5 -44t107 -60.5t79 -96.5t30.5 -144.5q0 -142 -140 -258q49 -65 49 -156 q0 -132 -107 -208t-278 -76q-72 0 -170 18.5t-145 21.5l16 166q61 -4 157.5 -24.5t160.5 -20.5q93 0 142.5 31t49.5 84q0 44 -30 75.5t-78 51t-107 38t-117.5 44t-107 60.5t-79 96.5t-30.5 144.5zM281 788q0 -42 18 -76t46 -55.5t70 -42t81.5 -34t89 -33.5t84.5 -39 q13 10 28 26.5t31 51t16 69.5q0 50 -24 87.5t-68.5 63t-89.5 43t-107.5 41t-101.5 44.5q-24 -18 -48.5 -56.5t-24.5 -89.5z" />
<glyph unicode="&#xa8;" horiz-adv-x="1028" d="M184 1401q0 53 36.5 84t94.5 31q55 0 87 -30t32 -81q0 -56 -35 -88.5t-94 -32.5q-53 0 -87 32.5t-34 84.5zM594 1401q0 53 36.5 84t94.5 31q55 0 87 -30t32 -81q0 -56 -35 -88.5t-94 -32.5q-53 0 -87 32.5t-34 84.5z" />
<glyph unicode="&#xa9;" horiz-adv-x="1656" d="M96 725q0 204 95.5 374.5t264.5 269.5t373 99q203 0 371.5 -99t264.5 -269.5t96 -374.5q0 -151 -57.5 -288t-155 -236.5t-233.5 -158t-286 -58.5q-153 0 -289.5 57.5t-233.5 156.5t-153.5 236t-56.5 291zM276 725q0 -162 71.5 -296.5t198.5 -212t283 -77.5 q152 0 279.5 78.5t200.5 213t73 294.5q0 162 -72 297t-199 213t-282 78q-156 0 -283 -78t-198.5 -213t-71.5 -297zM463 713q0 191 112.5 313.5t276.5 122.5q60 0 117.5 -8.5t84.5 -16.5l27 -8v-328h-112l-17 220q-58 10 -110 10q-100 0 -155.5 -71t-55.5 -197 q0 -131 62.5 -207t185.5 -76q50 0 100 10.5t75 20.5l25 10v-131q-10 -6 -28 -14.5t-80.5 -22.5t-130.5 -14q-176 0 -276.5 107t-100.5 280z" />
<glyph unicode="&#xab;" horiz-adv-x="1087" d="M51 473v59l103 95q190 175 292 360l132 -69q-31 -68 -102.5 -167.5t-151.5 -170.5l-86 -78l86 -76q80 -71 151.5 -170.5t102.5 -167.5l-132 -70q-104 187 -292 361zM481 473v59l103 95q182 170 274 329l133 -69q-40 -73 -103.5 -158.5t-133.5 -148.5l-86 -78l86 -76 q69 -62 132.5 -146t102.5 -155l-133 -72q-100 168 -272 326z" />
<glyph unicode="&#xac;" horiz-adv-x="1155" d="M154 508v151h843v-378h-137v227h-706z" />
<glyph unicode="&#xad;" horiz-adv-x="880" d="M143 506v162l596 20v-162z" />
<glyph unicode="&#xae;" horiz-adv-x="970" d="M96 1077q0 163 113 275t276 112t276 -112t113 -275q0 -161 -113.5 -273t-275.5 -112q-163 0 -276 111.5t-113 273.5zM219 1077q0 -119 76 -199.5t190 -80.5q126 0 203 100l-127 -4l-57 135h-55v-131h-168v70h69v252h-69v41q-62 -78 -62 -183zM303 1286h203 q77 0 119.5 -34t42.5 -93q0 -72 -72 -104l43 -88h63v-52q48 74 48 162q0 119 -76 201t-189 82q-105 0 -182 -74zM449 1098h40q74 0 74 59q0 27 -21 42t-57 15h-36v-116z" />
<glyph unicode="&#xaf;" horiz-adv-x="745" d="M92 1104v151h561v-151h-561z" />
<glyph unicode="&#xb0;" horiz-adv-x="813" d="M90 1223q0 154 84.5 243.5t247.5 89.5q94 0 164.5 -44.5t103.5 -110.5t33 -141q0 -154 -84.5 -244t-247.5 -90q-71 0 -129.5 25.5t-95 68t-56.5 95t-20 108.5zM229 1260q0 -91 44.5 -151t140.5 -60q77 0 122.5 50.5t45.5 123.5q0 88 -47 150.5t-138 62.5q-78 0 -123 -51 t-45 -125z" />
<glyph unicode="&#xb1;" horiz-adv-x="1128" d="M143 123v151h842v-151h-842zM143 631v151h338v285h164v-285h340v-151h-340v-283h-164v283h-338z" />
<glyph unicode="&#xb4;" horiz-adv-x="602" d="M88 1294l328 371l137 -141l-383 -316z" />
<glyph unicode="&#xb5;" horiz-adv-x="1200" d="M168 1024h201v-649q0 -115 48.5 -173.5t157.5 -58.5q130 0 256 68v643q0 33 -2.5 75.5t-4.5 68.5l-3 26h201v-811q0 -46 3 -99t6 -82l3 -30l-190 -10l-8 108q-150 -120 -324 -120q-109 0 -188 57l-9 -8q24 -69 40 -172t16 -191v-80h-193v1268q0 33 -2.5 75.5t-5.5 68.5z " />
<glyph unicode="&#xb6;" horiz-adv-x="1581" d="M115 510q0 243 162 378.5t481 135.5h153v-1403h222v1403h364v-135h-205v-1268h205v-135h-950v135h205v379h-74q-271 0 -417 138t-146 372zM313 532q0 -187 98 -283.5t287 -96.5h54v735h-50q-191 0 -290 -96.5t-99 -258.5z" />
<glyph unicode="&#xb7;" horiz-adv-x="509" d="M133 567q0 50 37.5 85.5t87.5 35.5t84.5 -35t34.5 -86q0 -50 -36.5 -85.5t-86.5 -35.5t-85.5 35t-35.5 86z" />
<glyph unicode="&#xb8;" horiz-adv-x="491" d="M0 -340l35 82q100 -43 180 -43q45 0 72.5 14.5t27.5 38.5q0 27 -30 43t-66.5 16t-66.5 -8l-43 52l84 190l65 -8l16 -127q94 -6 149.5 -46t55.5 -106q0 -70 -63.5 -119t-159.5 -49q-139 0 -256 70z" />
<glyph unicode="&#xbb;" horiz-adv-x="1087" d="M96 887l133 69q91 -157 275 -329l102 -95v-59l-102 -94q-174 -160 -273 -326l-133 72q38 70 102.5 154.5t133.5 146.5l84 76l-84 78q-70 63 -134 149t-104 158zM510 88q31 68 102.5 167.5t151.5 170.5l84 76l-84 78q-80 71 -151.5 170.5t-102.5 167.5l131 69 q101 -183 293 -360l102 -95v-59l-102 -94q-190 -176 -293 -361z" />
<glyph unicode="&#xbc;" horiz-adv-x="1591" d="M111 664v116h182v537l-174 -19l-6 86l299 66l28 -4v-666h174v-116h-503zM291 72l983 1386l108 -67l-983 -1391zM889 250l201 518h127l-181 -477h195v293h147v-293h129l-8 -109h-121v-96l4 -106h-149v202h-322z" />
<glyph unicode="&#xbd;" horiz-adv-x="1630" d="M100 664v116h183v537l-174 -19l-7 86l299 66l29 -4v-666h174v-116h-504zM281 72l983 1386l108 -67l-983 -1391zM979 0v109q110 96 171.5 153t113 114t71 99.5t19.5 85.5q0 113 -146 113q-9 0 -78 -6l-16 -156h-100v238q94 38 229 38q256 0 256 -215q0 -102 -84 -208.5 t-268 -262.5l270 19l19 127h102l-10 -248h-549z" />
<glyph unicode="&#xbe;" horiz-adv-x="1574" d="M106 684l33 115q82 -27 180 -27q83 0 125.5 31.5t42.5 85.5q0 55 -42.5 81.5t-137.5 26.5h-49v111h49q166 0 166 115q0 116 -154 116q-35 0 -65 -6l-14 -135h-101v217q92 39 215 39q124 0 196.5 -57t72.5 -156q0 -62 -38.5 -111.5t-115.5 -68.5q83 -15 127.5 -62.5 t44.5 -121.5q0 -90 -81.5 -157t-235.5 -67q-51 0 -105.5 7.5t-83.5 15.5zM254 72l983 1386l109 -67l-984 -1391zM874 250l201 518h127l-180 -477h195v293h147v-293h129l-8 -109h-121v-96l4 -106h-149v202h-322z" />
<glyph unicode="&#xbf;" horiz-adv-x="897" d="M100 -147q0 81 43 154.5t104 126.5t122 99.5t104 91t43 83.5q0 28 -18 46.5t-47 18.5q-24 0 -47.5 -11.5t-35.5 -22.5l-12 -11l-69 104q90 78 182 78q79 0 136 -52t57 -134q0 -56 -19.5 -105t-51 -85t-69.5 -69.5t-76.5 -65.5t-70 -65t-51 -76t-19.5 -91 q0 -73 60.5 -120.5t164.5 -47.5q50 0 99 10t83 24.5t61 29t41 24.5l13 10v-149q-4 -4 -12.5 -10.5t-38.5 -24t-64.5 -30.5t-92 -23.5t-119.5 -10.5q-107 0 -188 27.5t-125 73t-65.5 97t-21.5 106.5zM344 905q0 58 43 97.5t105 39.5t103.5 -39.5t41.5 -97.5t-41.5 -97.5 t-103.5 -39.5q-60 0 -104 39.5t-44 97.5z" />
<glyph unicode="&#xc0;" horiz-adv-x="1454" d="M4 0v125h154q6 24 14 49.5t21 63t24.5 67t35 92t40.5 107.5l352 932l168 12l479 -1323h164v-125h-532v125h163l-112 305h-553l-14 -41q-65 -183 -80 -264h155v-125h-479zM401 1872l138 141l327 -371l-82 -86zM465 555h465l-170 469q-16 45 -31.5 98.5t-22.5 83.5l-8 31 h-8q-22 -111 -55 -207z" />
<glyph unicode="&#xc1;" horiz-adv-x="1454" d="M4 0v125h154q6 24 14 49.5t21 63t24.5 67t35 92t40.5 107.5l352 932l168 12l479 -1323h164v-125h-532v125h163l-112 305h-553l-14 -41q-65 -183 -80 -264h155v-125h-479zM465 555h465l-170 469q-16 45 -31.5 98.5t-22.5 83.5l-8 31h-8q-22 -111 -55 -207zM545 1642 l327 371l138 -141l-383 -316z" />
<glyph unicode="&#xc2;" horiz-adv-x="1454" d="M4 0v125h154q6 24 14 49.5t21 63t24.5 67t35 92t40.5 107.5l352 932l168 12l479 -1323h164v-125h-532v125h163l-112 305h-553l-14 -41q-65 -183 -80 -264h155v-125h-479zM399 1661l314 260h35l313 -256l-94 -109l-236 160l-237 -160zM465 555h465l-170 469 q-16 45 -31.5 98.5t-22.5 83.5l-8 31h-8q-22 -111 -55 -207z" />
<glyph unicode="&#xc3;" horiz-adv-x="1454" d="M4 0v125h154q6 24 14 49.5t21 63t24.5 67t35 92t40.5 107.5l352 932l168 12l479 -1323h164v-125h-532v125h163l-112 305h-553l-14 -41q-65 -183 -80 -264h155v-125h-479zM377 1636q19 115 81.5 173.5t145.5 58.5q45 0 85 -18t64.5 -39.5t57 -39.5t63.5 -18q76 0 97 100 l131 -32q-19 -117 -78 -174.5t-141 -57.5q-45 0 -85.5 18t-65 39.5t-55.5 39.5t-59 18q-36 0 -64.5 -24.5t-41.5 -75.5zM465 555h465l-170 469q-16 45 -31.5 98.5t-22.5 83.5l-8 31h-8q-22 -111 -55 -207z" />
<glyph unicode="&#xc4;" horiz-adv-x="1454" d="M4 0v125h154q6 24 14 49.5t21 63t24.5 67t35 92t40.5 107.5l352 932l168 12l479 -1323h164v-125h-532v125h163l-112 305h-553l-14 -41q-65 -183 -80 -264h155v-125h-479zM403 1704q0 53 37 84t95 31q55 0 86.5 -30t31.5 -81q0 -56 -35 -88.5t-94 -32.5q-53 0 -87 32.5 t-34 84.5zM465 555h465l-170 469q-16 45 -31.5 98.5t-22.5 83.5l-8 31h-8q-22 -111 -55 -207zM813 1704q0 53 36.5 84t94.5 31q55 0 87 -30t32 -81q0 -56 -35 -88.5t-94 -32.5q-53 0 -87 32.5t-34 84.5z" />
<glyph unicode="&#xc5;" horiz-adv-x="1454" d="M4 0v125h154q6 24 14 49.5t21 63t24.5 67t35 92t40.5 107.5l352 932l168 12l479 -1323h164v-125h-532v125h163l-112 305h-553l-14 -41q-65 -183 -80 -264h155v-125h-479zM465 555h465l-170 469q-16 45 -31.5 98.5t-22.5 83.5l-8 31h-8q-22 -111 -55 -207zM473 1763 q0 103 73 165.5t183 62.5t182 -62t72 -166q0 -103 -72 -165t-182 -62t-183 62t-73 165zM621 1763q0 -48 29.5 -79t78.5 -31t78 31t29 79t-29 79.5t-78 31.5t-78.5 -31.5t-29.5 -79.5z" />
<glyph unicode="&#xc6;" horiz-adv-x="1882" d="M-27 0v125h142q12 29 31.5 68t39.5 75t59 106t72 130l451 805h-184v125h1188v-369h-134l-20 244h-510v-523l469 19v-158l-469 17v-539h510l20 244h134v-369h-1029v125h164v285h-479q-112 -204 -139 -285h164v-125h-480zM504 549h403v737h-12q-47 -111 -98 -205z" />
<glyph unicode="&#xc7;" horiz-adv-x="1331" d="M109 717q0 148 49 283t137 237.5t221.5 163.5t292.5 61q113 0 211 -20.5t140 -41.5l42 -20v-368h-133l-16 260q-104 53 -234 53q-102 0 -186.5 -34.5t-142 -93t-97.5 -136.5t-58 -163t-18 -175q0 -123 35 -233.5t100 -195.5t165.5 -135t222.5 -50q105 0 211 26l18 266 h133v-370q-17 -7 -47.5 -17t-129 -26.5t-200.5 -16.5q-4 0 -10.5 1t-9.5 1l8 -63q94 -6 149.5 -46t55.5 -106q0 -70 -63.5 -119t-159.5 -49q-139 0 -256 70l34 82q100 -43 181 -43q45 0 72.5 14.5t27.5 38.5q0 27 -30.5 43t-66.5 16t-67 -8l-43 52l55 125 q-274 37 -433.5 232.5t-159.5 504.5z" />
<glyph unicode="&#xc8;" horiz-adv-x="1247" d="M109 0v125h163v1184h-163v125h1028v-369h-133l-21 244h-510v-523l469 19v-158l-469 17v-539h510l21 244h133v-369h-1028zM375 1872l137 141l328 -371l-82 -86z" />
<glyph unicode="&#xc9;" horiz-adv-x="1247" d="M109 0v125h163v1184h-163v125h1028v-369h-133l-21 244h-510v-523l469 19v-158l-469 17v-539h510l21 244h133v-369h-1028zM532 1645l328 370l137 -141l-383 -315z" />
<glyph unicode="&#xca;" horiz-adv-x="1247" d="M109 0v125h163v1184h-163v125h1028v-369h-133l-21 244h-510v-523l469 19v-158l-469 17v-539h510l21 244h133v-369h-1028zM352 1675l314 260h34l314 -256l-94 -108l-236 160l-238 -160z" />
<glyph unicode="&#xcb;" horiz-adv-x="1247" d="M109 0v125h163v1184h-163v125h1028v-369h-133l-21 244h-510v-523l469 19v-158l-469 17v-539h510l21 244h133v-369h-1028zM350 1706q0 53 36.5 84t94.5 31q55 0 87 -30t32 -81q0 -56 -35 -88.5t-94 -32.5q-53 0 -87 32.5t-34 84.5zM760 1706q0 53 36.5 84t94.5 31 q55 0 87 -30t32 -81q0 -56 -35 -88.5t-94 -32.5q-53 0 -87 32.5t-34 84.5z" />
<glyph unicode="&#xcc;" horiz-adv-x="745" d="M84 1872l137 141l328 -371l-82 -86zM109 0v125h163v1184h-163v125h528v-125h-164v-1184h164v-125h-528z" />
<glyph unicode="&#xcd;" horiz-adv-x="745" d="M109 0v125h163v1184h-163v125h528v-125h-164v-1184h164v-125h-528zM229 1634l328 371l137 -141l-383 -316z" />
<glyph unicode="&#xce;" horiz-adv-x="745" d="M43 1665l313 260h35l314 -256l-95 -108l-235 159l-238 -159zM109 0v125h163v1184h-163v125h528v-125h-164v-1184h164v-125h-528z" />
<glyph unicode="&#xcf;" horiz-adv-x="745" d="M47 1706q0 53 36.5 84t94.5 31q55 0 87 -30t32 -81q0 -56 -35 -88.5t-94 -32.5q-53 0 -87 32.5t-34 84.5zM109 0v125h163v1184h-163v125h528v-125h-164v-1184h164v-125h-528zM457 1706q0 53 36.5 84t94.5 31q55 0 87 -30t32 -81q0 -56 -35 -88.5t-94 -32.5 q-53 0 -87 32.5t-34 84.5z" />
<glyph unicode="&#xd0;" horiz-adv-x="1527" d="M109 0v127l163 -2v481h-163v152h163v551h-163v125h559q362 0 558.5 -190t196.5 -513q0 -225 -104 -392.5t-281.5 -253t-404.5 -85.5h-524zM473 127h162q143 0 255 46.5t181.5 127.5t105 185.5t35.5 224.5q0 130 -35.5 237.5t-106.5 189t-185.5 126.5t-263.5 45h-148v-551 h197v-152h-197v-479z" />
<glyph unicode="&#xd1;" horiz-adv-x="1630" d="M109 0v125h163v1184h-163v125h313l706 -971q54 -75 103 -162l6 4q-8 91 -8 178v826h-164v125h477v-125h-164v-1309l-114 -25l-740 990q-65 86 -104 163l-8 -4q10 -66 10 -184v-815h164v-125h-477zM473 1634q19 115 81.5 173.5t145.5 58.5q45 0 85 -18t65 -39.5 t57.5 -39.5t63.5 -18q75 0 96 100l131 -32q-19 -117 -78 -174.5t-141 -57.5q-45 0 -85 18t-64.5 39.5t-55.5 39.5t-59 18q-36 0 -65 -24.5t-42 -75.5z" />
<glyph unicode="&#xd2;" d="M109 717q0 120 26.5 230t81 204t131.5 163t185 108.5t235 39.5t235 -39.5t185 -108.5t131.5 -163t81 -204t26.5 -230t-26.5 -230t-81 -204t-131.5 -163.5t-185 -109t-235 -39.5t-235 39.5t-185 109t-131.5 163.5t-81 204t-26.5 230zM317 717q0 -78 11 -151t33.5 -142 t59.5 -125.5t87 -99.5t119 -66.5t151 -23.5q114 0 201.5 51.5t138.5 139t76 193t25 224.5q0 95 -15 181t-50 165t-87 136.5t-130.5 91.5t-176.5 34q-115 0 -203 -51.5t-139 -139t-76 -193t-25 -224.5zM469 1870l137 141l328 -371l-82 -86z" />
<glyph unicode="&#xd3;" d="M109 717q0 120 26.5 230t81 204t131.5 163t185 108.5t235 39.5t235 -39.5t185 -108.5t131.5 -163t81 -204t26.5 -230t-26.5 -230t-81 -204t-131.5 -163.5t-185 -109t-235 -39.5t-235 39.5t-185 109t-131.5 163.5t-81 204t-26.5 230zM317 717q0 -78 11 -151t33.5 -142 t59.5 -125.5t87 -99.5t119 -66.5t151 -23.5q114 0 201.5 51.5t138.5 139t76 193t25 224.5q0 95 -15 181t-50 165t-87 136.5t-130.5 91.5t-176.5 34q-115 0 -203 -51.5t-139 -139t-76 -193t-25 -224.5zM612 1636l328 371l137 -141l-383 -316z" />
<glyph unicode="&#xd4;" d="M109 717q0 120 26.5 230t81 204t131.5 163t185 108.5t235 39.5t235 -39.5t185 -108.5t131.5 -163t81 -204t26.5 -230t-26.5 -230t-81 -204t-131.5 -163.5t-185 -109t-235 -39.5t-235 39.5t-185 109t-131.5 163.5t-81 204t-26.5 230zM317 717q0 -78 11 -151t33.5 -142 t59.5 -125.5t87 -99.5t119 -66.5t151 -23.5q114 0 201.5 51.5t138.5 139t76 193t25 224.5q0 95 -15 181t-50 165t-87 136.5t-130.5 91.5t-176.5 34q-115 0 -203 -51.5t-139 -139t-76 -193t-25 -224.5zM446 1669l314 260h35l313 -256l-94 -108l-236 159l-237 -159z" />
<glyph unicode="&#xd5;" d="M109 717q0 120 26.5 230t81 204t131.5 163t185 108.5t235 39.5t235 -39.5t185 -108.5t131.5 -163t81 -204t26.5 -230t-26.5 -230t-81 -204t-131.5 -163.5t-185 -109t-235 -39.5t-235 39.5t-185 109t-131.5 163.5t-81 204t-26.5 230zM317 717q0 -78 11 -151t33.5 -142 t59.5 -125.5t87 -99.5t119 -66.5t151 -23.5q114 0 201.5 51.5t138.5 139t76 193t25 224.5q0 95 -15 181t-50 165t-87 136.5t-130.5 91.5t-176.5 34q-115 0 -203 -51.5t-139 -139t-76 -193t-25 -224.5zM414 1636q19 115 81.5 173.5t145.5 58.5q45 0 85 -18t64.5 -39.5 t57 -39.5t63.5 -18q76 0 97 100l131 -32q-19 -117 -78 -174.5t-141 -57.5q-45 0 -85.5 18t-65 39.5t-55.5 39.5t-59 18q-36 0 -64.5 -24.5t-41.5 -75.5z" />
<glyph unicode="&#xd6;" d="M109 717q0 120 26.5 230t81 204t131.5 163t185 108.5t235 39.5t235 -39.5t185 -108.5t131.5 -163t81 -204t26.5 -230t-26.5 -230t-81 -204t-131.5 -163.5t-185 -109t-235 -39.5t-235 39.5t-185 109t-131.5 163.5t-81 204t-26.5 230zM317 717q0 -78 11 -151t33.5 -142 t59.5 -125.5t87 -99.5t119 -66.5t151 -23.5q114 0 201.5 51.5t138.5 139t76 193t25 224.5q0 95 -15 181t-50 165t-87 136.5t-130.5 91.5t-176.5 34q-115 0 -203 -51.5t-139 -139t-76 -193t-25 -224.5zM436 1704q0 53 36.5 84t94.5 31q55 0 87 -30t32 -81q0 -56 -35 -88.5 t-94 -32.5q-53 0 -87 32.5t-34 84.5zM846 1704q0 53 36.5 84t94.5 31q55 0 87 -30t32 -81q0 -56 -35 -88.5t-94 -32.5q-53 0 -87 32.5t-34 84.5z" />
<glyph unicode="&#xd7;" horiz-adv-x="1058" d="M123 295l291 291l-291 291l117 116l288 -291l291 291l117 -116l-291 -291l291 -291l-115 -115l-293 291l-290 -291z" />
<glyph unicode="&#xd8;" d="M109 717q0 120 26.5 230t81 204t131.5 163t185 108.5t235 39.5q236 0 403 -135l117 168l129 -78l-141 -200q151 -201 151 -500q0 -120 -26.5 -230t-81 -204t-131.5 -163.5t-185 -109t-235 -39.5q-170 0 -311 72l-135 -193l-129 76l143 205q-112 102 -169.5 254.5 t-57.5 331.5zM317 717q0 -277 119 -443l637 914q-117 137 -313 137q-115 0 -203 -51.5t-139 -139t-76 -193t-25 -224.5zM545 172q97 -63 233 -63q114 0 201.5 51.5t138.5 139t76 193t25 224.5q0 189 -60 332z" />
<glyph unicode="&#xd9;" horiz-adv-x="1554" d="M68 1309v125h528v-125h-166v-795q0 -191 88.5 -300.5t259.5 -109.5q186 0 281.5 109.5t95.5 300.5v795h-164v125h498v-125h-164v-795q0 -90 -20.5 -170.5t-64.5 -149t-107.5 -118t-153.5 -77.5t-199 -28q-137 0 -243.5 41t-173 115t-100.5 171.5t-34 215.5v795h-161z M469 1870l137 141l328 -371l-82 -86z" />
<glyph unicode="&#xda;" horiz-adv-x="1554" d="M68 1309v125h528v-125h-166v-795q0 -191 88.5 -300.5t259.5 -109.5q186 0 281.5 109.5t95.5 300.5v795h-164v125h498v-125h-164v-795q0 -90 -20.5 -170.5t-64.5 -149t-107.5 -118t-153.5 -77.5t-199 -28q-137 0 -243.5 41t-173 115t-100.5 171.5t-34 215.5v795h-161z M664 1640l327 371l137 -141l-383 -316z" />
<glyph unicode="&#xdb;" horiz-adv-x="1554" d="M68 1309v125h528v-125h-166v-795q0 -191 88.5 -300.5t259.5 -109.5q186 0 281.5 109.5t95.5 300.5v795h-164v125h498v-125h-164v-795q0 -90 -20.5 -170.5t-64.5 -149t-107.5 -118t-153.5 -77.5t-199 -28q-137 0 -243.5 41t-173 115t-100.5 171.5t-34 215.5v795h-161z M467 1665l313 260h35l313 -256l-94 -108l-235 159l-238 -159z" />
<glyph unicode="&#xdc;" horiz-adv-x="1554" d="M68 1309v125h528v-125h-166v-795q0 -191 88.5 -300.5t259.5 -109.5q186 0 281.5 109.5t95.5 300.5v795h-164v125h498v-125h-164v-795q0 -90 -20.5 -170.5t-64.5 -149t-107.5 -118t-153.5 -77.5t-199 -28q-137 0 -243.5 41t-173 115t-100.5 171.5t-34 215.5v795h-161z M451 1706q0 53 36.5 84t94.5 31q55 0 86.5 -30t31.5 -81q0 -56 -35 -88.5t-94 -32.5q-53 0 -86.5 32.5t-33.5 84.5zM860 1706q0 53 36.5 84t94.5 31q55 0 87 -30t32 -81q0 -56 -35 -88.5t-94 -32.5q-53 0 -87 32.5t-34 84.5z" />
<glyph unicode="&#xdd;" horiz-adv-x="1335" d="M-8 1309v125h538v-125h-163l335 -580l312 580h-168v125h477v-125h-137l-414 -725v-459h184v-125h-569v125h184v461l-436 723h-143zM606 1659l328 371l137 -142l-383 -315z" />
<glyph unicode="&#xde;" horiz-adv-x="1275" d="M109 0v125h163v1184h-163v125h569v-125h-205v-107h168q267 0 413 -122t146 -339q0 -216 -148.5 -341.5t-400.5 -125.5h-178v-149h205v-125h-569zM473 397h162q174 0 267 98.5t93 239.5q0 95 -37.5 170.5t-121.5 123.5t-203 48h-160v-680z" />
<glyph unicode="&#xdf;" horiz-adv-x="1349" d="M104 2v139h136v742l-136 2v139h138v96q0 436 444 436q188 0 319.5 -97.5t131.5 -231.5q0 -60 -16.5 -111t-43 -87.5t-58 -68t-63.5 -57.5t-58.5 -50.5t-43 -52t-16.5 -57.5q0 -36 25 -65.5t65 -52t88.5 -44.5t97 -49.5t88.5 -60t65 -82t25 -110.5q0 -137 -86 -218 t-225 -81q-71 0 -180.5 19.5t-151.5 23.5l17 167q44 -4 149 -26.5t160 -22.5q67 0 105 31.5t38 91.5q0 38 -25 68t-65 51t-88.5 41.5t-97 46.5t-88.5 59t-65 86t-25 121q0 64 28 116.5t68 89.5t80 73t68 83t28 103q0 89 -70 141t-196 52q-75 0 -125 -17.5t-74 -51t-32.5 -70 t-8.5 -87.5v-1169h-190z" />
<glyph unicode="&#xe0;" horiz-adv-x="1079" d="M80 254q0 81 36 142.5t93.5 97.5t139 58t164 28.5t177.5 3.5v94q0 107 -60 163t-177 56q-75 0 -152 -12.5t-117 -24.5l-39 -12v141q16 6 45 15t123 24.5t193 15.5q189 0 282.5 -96.5t90.5 -263.5q-1 -34 -5 -233t-4 -267q0 -26 13.5 -41.5t38.5 -15.5q21 0 43.5 8.5 t34.5 17.5l12 9v-123q-76 -59 -154 -59q-131 0 -166 116q-62 -52 -144.5 -84t-172.5 -32q-135 0 -215 75.5t-80 198.5zM248 1536l137 141l328 -370l-82 -86zM274 276q0 -67 44.5 -104t117.5 -37q63 0 134 23t112 53q0 80 4 264q-95 -2 -164 -12t-128 -31t-89.5 -60 t-30.5 -96z" />
<glyph unicode="&#xe1;" horiz-adv-x="1079" d="M80 254q0 81 36 142.5t93.5 97.5t139 58t164 28.5t177.5 3.5v94q0 107 -60 163t-177 56q-75 0 -152 -12.5t-117 -24.5l-39 -12v141q16 6 45 15t123 24.5t193 15.5q189 0 282.5 -96.5t90.5 -263.5q-1 -34 -5 -233t-4 -267q0 -26 13.5 -41.5t38.5 -15.5q21 0 43.5 8.5 t34.5 17.5l12 9v-123q-76 -59 -154 -59q-131 0 -166 116q-62 -52 -144.5 -84t-172.5 -32q-135 0 -215 75.5t-80 198.5zM274 276q0 -67 44.5 -104t117.5 -37q63 0 134 23t112 53q0 80 4 264q-95 -2 -164 -12t-128 -31t-89.5 -60t-30.5 -96zM340 1294l328 371l137 -141 l-383 -316z" />
<glyph unicode="&#xe2;" horiz-adv-x="1079" d="M80 254q0 81 36 142.5t93.5 97.5t139 58t164 28.5t177.5 3.5v94q0 107 -60 163t-177 56q-75 0 -152 -12.5t-117 -24.5l-39 -12v141q16 6 45 15t123 24.5t193 15.5q189 0 282.5 -96.5t90.5 -263.5q-1 -34 -5 -233t-4 -267q0 -26 13.5 -41.5t38.5 -15.5q21 0 43.5 8.5 t34.5 17.5l12 9v-123q-76 -59 -154 -59q-131 0 -166 116q-62 -52 -144.5 -84t-172.5 -32q-135 0 -215 75.5t-80 198.5zM199 1350l313 260h35l313 -256l-94 -109l-236 160l-237 -160zM274 276q0 -67 44.5 -104t117.5 -37q63 0 134 23t112 53q0 80 4 264q-95 -2 -164 -12 t-128 -31t-89.5 -60t-30.5 -96z" />
<glyph unicode="&#xe3;" horiz-adv-x="1079" d="M80 254q0 81 36 142.5t93.5 97.5t139 58t164 28.5t177.5 3.5v94q0 107 -60 163t-177 56q-75 0 -152 -12.5t-117 -24.5l-39 -12v141q16 6 45 15t123 24.5t193 15.5q189 0 282.5 -96.5t90.5 -263.5q-1 -34 -5 -233t-4 -267q0 -26 13.5 -41.5t38.5 -15.5q21 0 43.5 8.5 t34.5 17.5l12 9v-123q-76 -59 -154 -59q-131 0 -166 116q-62 -52 -144.5 -84t-172.5 -32q-135 0 -215 75.5t-80 198.5zM150 1300q19 115 81.5 173.5t145.5 58.5q45 0 85 -18t64.5 -39.5t57 -39.5t63.5 -18q75 0 96 101l131 -33q-19 -117 -78 -174.5t-141 -57.5q-45 0 -85 18 t-64.5 39.5t-55.5 39.5t-59 18q-36 0 -64.5 -24.5t-41.5 -75.5zM274 276q0 -67 44.5 -104t117.5 -37q63 0 134 23t112 53q0 80 4 264q-95 -2 -164 -12t-128 -31t-89.5 -60t-30.5 -96z" />
<glyph unicode="&#xe4;" horiz-adv-x="1079" d="M80 254q0 81 36 142.5t93.5 97.5t139 58t164 28.5t177.5 3.5v94q0 107 -60 163t-177 56q-75 0 -152 -12.5t-117 -24.5l-39 -12v141q16 6 45 15t123 24.5t193 15.5q189 0 282.5 -96.5t90.5 -263.5q-1 -34 -5 -233t-4 -267q0 -26 13.5 -41.5t38.5 -15.5q21 0 43.5 8.5 t34.5 17.5l12 9v-123q-76 -59 -154 -59q-131 0 -166 116q-62 -52 -144.5 -84t-172.5 -32q-135 0 -215 75.5t-80 198.5zM180 1368q0 53 36.5 84t94.5 31q55 0 87 -30t32 -81q0 -56 -35 -88.5t-94 -32.5q-53 0 -87 32.5t-34 84.5zM274 276q0 -67 44.5 -104t117.5 -37 q63 0 134 23t112 53q0 80 4 264q-95 -2 -164 -12t-128 -31t-89.5 -60t-30.5 -96zM590 1368q0 53 36.5 84t94.5 31q55 0 87 -30t32 -81q0 -56 -35 -88.5t-94 -32.5q-53 0 -87 32.5t-34 84.5z" />
<glyph unicode="&#xe5;" horiz-adv-x="1079" d="M80 254q0 81 36 142.5t93.5 97.5t139 58t164 28.5t177.5 3.5v94q0 107 -60 163t-177 56q-75 0 -152 -12.5t-117 -24.5l-39 -12v141q16 6 45 15t123 24.5t193 15.5q189 0 282.5 -96.5t90.5 -263.5q-1 -34 -5 -233t-4 -267q0 -26 13.5 -41.5t38.5 -15.5q21 0 43.5 8.5 t34.5 17.5l12 9v-123q-76 -59 -154 -59q-131 0 -166 116q-62 -52 -144.5 -84t-172.5 -32q-135 0 -215 75.5t-80 198.5zM246 1442q0 103 73 165t183 62t182 -62t72 -165q0 -104 -72 -166t-182 -62t-183 62.5t-73 165.5zM274 276q0 -67 44.5 -104t117.5 -37q63 0 134 23 t112 53q0 80 4 264q-95 -2 -164 -12t-128 -31t-89.5 -60t-30.5 -96zM393 1442q0 -48 30 -79.5t79 -31.5q48 0 77 31.5t29 79.5t-28.5 79t-77.5 31t-79 -31t-30 -79z" />
<glyph unicode="&#xe6;" horiz-adv-x="1691" d="M80 254q0 82 33.5 145.5t91.5 101t136 61t166.5 26.5t182.5 -4v94q0 107 -60 163t-177 56q-75 0 -152 -12.5t-117 -24.5l-39 -12v141q16 6 45 15t123 24.5t193 15.5q231 0 323 -149q137 149 353 149q219 0 331 -139t80 -399h-710q19 -365 381 -365q64 0 136 15t112 30 l40 15v-140q-17 -9 -47.5 -22.5t-121 -36t-177.5 -22.5q-281 0 -415 170q-75 -66 -181.5 -114t-234.5 -48q-134 0 -214.5 75t-80.5 191zM274 276q0 -61 41.5 -101t120.5 -40q153 0 297 107q-45 99 -45 235l-2 -2q-58 1 -104.5 -1t-95.5 -8.5t-85.5 -21t-66 -36t-45 -55 t-15.5 -77.5zM887 631l512 8q2 55 -8 100t-35 82t-71.5 57.5t-110.5 20.5q-69 0 -122 -21.5t-86 -59.5t-52 -84t-27 -103z" />
<glyph unicode="&#xe7;" horiz-adv-x="966" d="M96 485q0 248 140 403.5t362 155.5q76 0 158 -20t123 -23l-25 -176q-52 3 -141.5 36.5t-153.5 33.5q-71 0 -124.5 -29t-84 -79t-45 -110t-14.5 -130q0 -186 88.5 -298t243.5 -112q64 0 129.5 15t99.5 30l33 15v-136q-11 -8 -33.5 -20.5t-99 -34.5t-162.5 -26l10 -70 q94 -6 149.5 -46t55.5 -106q0 -70 -63.5 -119t-159.5 -49q-139 0 -256 70l34 82q100 -43 181 -43q45 0 72.5 14.5t27.5 38.5q0 27 -30.5 43t-66.5 16t-67 -8l-43 52l55 129q-185 23 -289 159t-104 342z" />
<glyph unicode="&#xe8;" horiz-adv-x="1099" d="M96 479q0 260 138.5 412.5t355.5 152.5q219 0 331 -139t80 -399h-710q19 -365 381 -365q64 0 136 15t112 30l41 15v-140q-17 -9 -47.5 -22.5t-121.5 -36t-178 -22.5q-250 0 -384 134t-134 365zM285 1513l137 142l328 -371l-82 -86zM295 631l512 8q2 55 -8 100t-35 82 t-71.5 57.5t-110.5 20.5q-69 0 -122 -21.5t-86 -59.5t-52 -84t-27 -103z" />
<glyph unicode="&#xe9;" horiz-adv-x="1099" d="M96 479q0 260 138.5 412.5t355.5 152.5q219 0 331 -139t80 -399h-710q19 -365 381 -365q64 0 136 15t112 30l41 15v-140q-17 -9 -47.5 -22.5t-121.5 -36t-178 -22.5q-250 0 -384 134t-134 365zM295 631l512 8q2 55 -8 100t-35 82t-71.5 57.5t-110.5 20.5 q-69 0 -122 -21.5t-86 -59.5t-52 -84t-27 -103zM434 1298l328 371l137 -141l-383 -316z" />
<glyph unicode="&#xea;" horiz-adv-x="1099" d="M96 479q0 260 138.5 412.5t355.5 152.5q219 0 331 -139t80 -399h-710q19 -365 381 -365q64 0 136 15t112 30l41 15v-140q-17 -9 -47.5 -22.5t-121.5 -36t-178 -22.5q-250 0 -384 134t-134 365zM256 1327l313 260h35l314 -256l-95 -108l-235 159l-238 -159zM295 631l512 8 q2 55 -8 100t-35 82t-71.5 57.5t-110.5 20.5q-69 0 -122 -21.5t-86 -59.5t-52 -84t-27 -103z" />
<glyph unicode="&#xeb;" horiz-adv-x="1099" d="M96 479q0 260 138.5 412.5t355.5 152.5q219 0 331 -139t80 -399h-710q19 -365 381 -365q64 0 136 15t112 30l41 15v-140q-17 -9 -47.5 -22.5t-121.5 -36t-178 -22.5q-250 0 -384 134t-134 365zM256 1366q0 53 36.5 84t94.5 31q55 0 87 -30t32 -81q0 -56 -35 -88.5 t-94 -32.5q-53 0 -87 32.5t-34 84.5zM295 631l512 8q2 55 -8 100t-35 82t-71.5 57.5t-110.5 20.5q-69 0 -122 -21.5t-86 -59.5t-52 -84t-27 -103zM666 1366q0 53 36.5 84t94.5 31q55 0 86.5 -30t31.5 -81q0 -56 -35 -88.5t-94 -32.5q-53 0 -86.5 32.5t-33.5 84.5z" />
<glyph unicode="&#xec;" horiz-adv-x="665" d="M-29 1524l138 141l327 -371l-82 -86zM86 899v125l315 10l41 -10v-897h164v-127h-518v127h164v772h-166z" />
<glyph unicode="&#xed;" horiz-adv-x="665" d="M86 899v125l315 10l41 -10v-897h164v-127h-518v127h164v772h-166zM147 1294l328 371l137 -141l-383 -316z" />
<glyph unicode="&#xee;" horiz-adv-x="665" d="M-16 1329l313 260h35l313 -256l-94 -108l-236 159l-237 -159zM86 899v125l315 10l41 -10v-897h164v-127h-518v127h164v772h-166z" />
<glyph unicode="&#xef;" horiz-adv-x="665" d="M-6 1366q0 53 36.5 84t94.5 31q55 0 87 -30t32 -81q0 -56 -35 -88.5t-94 -32.5q-53 0 -87 32.5t-34 84.5zM86 899v125l315 10l41 -10v-897h164v-127h-518v127h164v772h-166zM403 1366q0 53 37 84t95 31q55 0 86.5 -30t31.5 -81q0 -56 -35 -88.5t-94 -32.5q-53 0 -87 32.5 t-34 84.5z" />
<glyph unicode="&#xf0;" horiz-adv-x="1198" d="M98 471q0 203 124 338t323 135q65 0 120.5 -12.5t93 -33t60 -38t39.5 -35.5q-46 339 -283 488l-262 -223l-90 108l215 180q-131 48 -274 64l31 139q213 -28 376 -90l201 170l88 -107l-151 -129q177 -108 270.5 -300t93.5 -496q0 -98 -20.5 -191.5t-63.5 -176.5 t-104 -145.5t-146.5 -99t-185.5 -36.5q-141 0 -246 67.5t-157 177.5t-52 246zM297 467q0 -158 72 -252t192 -94q150 0 229.5 136t79.5 364v41q-127 120 -268 120q-152 0 -228.5 -89.5t-76.5 -225.5z" />
<glyph unicode="&#xf1;" horiz-adv-x="1306" d="M86 899v125l315 10l41 -10l-4 -100q153 120 316 120q168 0 255 -97.5t87 -274.5v-545h164v-127h-498v127h143v532q0 222 -205 222q-122 0 -262 -70q4 -46 4 -195v-489h144v-127h-498v127h164v772h-166zM291 1296q19 115 81.5 173.5t145.5 58.5q45 0 85 -18t64.5 -39.5 t57 -39.5t63.5 -18q76 0 97 100l131 -32q-19 -117 -78 -174.5t-141 -57.5q-45 0 -85.5 18t-65 39.5t-55.5 39.5t-59 18q-36 0 -64.5 -24.5t-41.5 -75.5z" />
<glyph unicode="&#xf2;" horiz-adv-x="1185" d="M96 487q0 257 140 407t382 150q220 0 344.5 -137t124.5 -375q0 -253 -140 -402.5t-382 -149.5q-220 0 -344.5 136.5t-124.5 370.5zM291 537q0 -199 80.5 -307.5t224.5 -108.5q140 0 218.5 100.5t78.5 265.5q0 201 -80.5 308.5t-226.5 107.5q-144 0 -219.5 -100 t-75.5 -266zM303 1524l137 141l328 -371l-82 -86z" />
<glyph unicode="&#xf3;" horiz-adv-x="1185" d="M96 487q0 257 140 407t382 150q220 0 344.5 -137t124.5 -375q0 -253 -140 -402.5t-382 -149.5q-220 0 -344.5 136.5t-124.5 370.5zM291 537q0 -199 80.5 -307.5t224.5 -108.5q140 0 218.5 100.5t78.5 265.5q0 201 -80.5 308.5t-226.5 107.5q-144 0 -219.5 -100 t-75.5 -266zM418 1292l327 371l138 -141l-383 -316z" />
<glyph unicode="&#xf4;" horiz-adv-x="1185" d="M96 487q0 257 140 407t382 150q220 0 344.5 -137t124.5 -375q0 -253 -140 -402.5t-382 -149.5q-220 0 -344.5 136.5t-124.5 370.5zM260 1335l313 260h35l314 -256l-95 -108l-235 160l-238 -160zM291 537q0 -199 80.5 -307.5t224.5 -108.5q140 0 218.5 100.5t78.5 265.5 q0 201 -80.5 308.5t-226.5 107.5q-144 0 -219.5 -100t-75.5 -266z" />
<glyph unicode="&#xf5;" horiz-adv-x="1185" d="M96 487q0 257 140 407t382 150q220 0 344.5 -137t124.5 -375q0 -253 -140 -402.5t-382 -149.5q-220 0 -344.5 136.5t-124.5 370.5zM233 1298q19 114 82 173t146 59q45 0 85 -18t64.5 -39.5t57 -39.5t63.5 -18q75 0 96 101l131 -33q-19 -117 -78 -174.5t-141 -57.5 q-45 0 -85 18t-64.5 39.5t-55.5 39.5t-59 18q-36 0 -64.5 -24.5t-41.5 -75.5zM291 537q0 -199 80.5 -307.5t224.5 -108.5q140 0 218.5 100.5t78.5 265.5q0 201 -80.5 308.5t-226.5 107.5q-144 0 -219.5 -100t-75.5 -266z" />
<glyph unicode="&#xf6;" horiz-adv-x="1185" d="M96 487q0 257 140 407t382 150q220 0 344.5 -137t124.5 -375q0 -253 -140 -402.5t-382 -149.5q-220 0 -344.5 136.5t-124.5 370.5zM268 1364q0 53 36.5 84t94.5 31q55 0 87 -30t32 -81q0 -56 -35 -88.5t-94 -32.5q-53 0 -87 32.5t-34 84.5zM291 537q0 -199 80.5 -307.5 t224.5 -108.5q140 0 218.5 100.5t78.5 265.5q0 201 -80.5 308.5t-226.5 107.5q-144 0 -219.5 -100t-75.5 -266zM678 1364q0 53 36.5 84t94.5 31q55 0 87 -30t32 -81q0 -56 -35 -88.5t-94 -32.5q-53 0 -87 32.5t-34 84.5z" />
<glyph unicode="&#xf7;" horiz-adv-x="1107" d="M123 508v151h862v-151h-862zM410 231q0 59 40 93t105 34q61 0 96 -32.5t35 -89.5q0 -62 -39 -98t-104 -36q-59 0 -96 35.5t-37 93.5zM410 940q0 59 40 93t105 34q61 0 96 -33t35 -90q0 -62 -39 -97.5t-104 -35.5q-59 0 -96 35.5t-37 93.5z" />
<glyph unicode="&#xf8;" horiz-adv-x="1185" d="M96 487q0 257 140 407t382 150q134 0 234 -53l133 193l129 -78l-143 -207q116 -134 116 -367q0 -253 -140 -402.5t-382 -149.5q-117 0 -207 38l-120 -172l-129 76l124 180q-137 137 -137 385zM291 537q0 -166 57 -271l408 586q-68 51 -170 51q-144 0 -219.5 -100 t-75.5 -266zM453 156q62 -35 143 -35q140 0 218.5 100.5t78.5 265.5q0 147 -43 240z" />
<glyph unicode="&#xf9;" horiz-adv-x="1275" d="M47 899v125l315 10l41 -10v-649q0 -232 205 -232q124 0 260 68q-2 97 -2 197v491h-166v125l316 10l41 -10v-840q0 -27 13.5 -42t37.5 -15q21 0 43.5 8.5t34.5 17.5l12 9v-123q-76 -59 -154 -59q-128 0 -165 122q-160 -122 -340 -122q-150 0 -238 97t-88 259v563h-166z M322 1530l137 141l327 -371l-81 -86z" />
<glyph unicode="&#xfa;" horiz-adv-x="1275" d="M47 899v125l315 10l41 -10v-649q0 -232 205 -232q124 0 260 68q-2 97 -2 197v491h-166v125l316 10l41 -10v-840q0 -27 13.5 -42t37.5 -15q21 0 43.5 8.5t34.5 17.5l12 9v-123q-76 -59 -154 -59q-128 0 -165 122q-160 -122 -340 -122q-150 0 -238 97t-88 259v563h-166z M487 1296l328 371l137 -141l-383 -316z" />
<glyph unicode="&#xfb;" horiz-adv-x="1275" d="M47 899v125l315 10l41 -10v-649q0 -232 205 -232q124 0 260 68q-2 97 -2 197v491h-166v125l316 10l41 -10v-840q0 -27 13.5 -42t37.5 -15q21 0 43.5 8.5t34.5 17.5l12 9v-123q-76 -59 -154 -59q-128 0 -165 122q-160 -122 -340 -122q-150 0 -238 97t-88 259v563h-166z M301 1331l313 260h35l314 -256l-95 -108l-235 159l-238 -159z" />
<glyph unicode="&#xfc;" horiz-adv-x="1275" d="M47 899v125l315 10l41 -10v-649q0 -232 205 -232q124 0 260 68q-2 97 -2 197v491h-166v125l316 10l41 -10v-840q0 -27 13.5 -42t37.5 -15q21 0 43.5 8.5t34.5 17.5l12 9v-123q-76 -59 -154 -59q-128 0 -165 122q-160 -122 -340 -122q-150 0 -238 97t-88 259v563h-166z M295 1368q0 53 36.5 84t94.5 31q55 0 87 -30t32 -81q0 -56 -35 -88.5t-94 -32.5q-53 0 -87 32.5t-34 84.5zM705 1368q0 53 36.5 84t94.5 31q55 0 86.5 -30t31.5 -81q0 -56 -35 -88.5t-94 -32.5q-53 0 -86.5 32.5t-33.5 84.5z" />
<glyph unicode="&#xfd;" horiz-adv-x="1159" d="M20 899v125h498v-125h-153l206 -522q13 -34 24.5 -76.5t16.5 -68.5l6 -25h9q26 92 55 170l190 522h-143v125h410v-125h-123l-320 -836q-64 -168 -112 -311.5t-64 -203.5l-16 -60h-228q93 220 252 489l-372 922h-136zM481 1294l328 371l137 -141l-383 -316z" />
<glyph unicode="&#xfe;" horiz-adv-x="1191" d="M12 1409v125l316 10l41 -10l-2 -594q70 55 142.5 79.5t170.5 24.5q84 0 153.5 -26t117.5 -71.5t80.5 -108.5t47.5 -134t15 -151q0 -255 -133 -414t-343 -159q-150 0 -249 67v-436h163v-125h-518v125h164v1798h-166zM365 813q0 -4 1 -33t2 -74.5t1 -89.5v-411 q97 -82 229 -82q81 0 140 29.5t92.5 83t49 121t15.5 151.5q0 385 -277 385q-130 0 -253 -80z" />
<glyph unicode="&#xff;" horiz-adv-x="1159" d="M20 899v125h498v-125h-153l206 -522q13 -34 24.5 -76.5t16.5 -68.5l6 -25h9q26 92 55 170l190 522h-143v125h410v-125h-123l-320 -836q-64 -168 -112 -311.5t-64 -203.5l-16 -60h-228q93 220 252 489l-372 922h-136zM274 1366q0 53 37 84t95 31q55 0 86.5 -30t31.5 -81 q0 -56 -35 -88.5t-94 -32.5q-53 0 -87 32.5t-34 84.5zM684 1366q0 53 36.5 84t94.5 31q55 0 87 -30t32 -81q0 -56 -35 -88.5t-94 -32.5q-53 0 -87 32.5t-34 84.5z" />
<glyph unicode="&#x152;" horiz-adv-x="2050" d="M106 717q0 156 52 292.5t145 236.5t229 158t295 58q69 0 133 -7t94 -14l29 -7h856v-369h-133l-20 244h-510v-523l469 19v-158l-469 17v-539h510l20 244h133v-369h-856q-100 -29 -256 -29q-142 0 -260.5 37.5t-203 104.5t-143 160.5t-86.5 205t-28 238.5zM315 717 q0 -101 17 -188.5t56 -166t99 -133.5t151 -87.5t206 -32.5q123 0 231 28v1145q-125 43 -231 43q-120 0 -220.5 -49t-167.5 -132.5t-104 -194t-37 -232.5z" />
<glyph unicode="&#x153;" horiz-adv-x="1824" d="M96 487q0 257 140 407t382 150q222 0 349 -143q137 143 348 143q219 0 331 -139t80 -399h-710q19 -365 381 -365q64 0 136 15t113 30l40 15v-140q-17 -9 -47.5 -22.5t-121.5 -36t-178 -22.5q-258 0 -397 145q-139 -145 -377 -145q-220 0 -344.5 136.5t-124.5 370.5z M291 537q0 -199 80.5 -307.5t224.5 -108.5q89 0 153.5 42.5t100.5 119.5q-29 86 -29 196q0 130 37 234q-74 190 -272 190q-144 0 -219.5 -100t-75.5 -266zM1020 631l512 8q2 55 -8 100t-35 82t-71.5 57.5t-110.5 20.5q-69 0 -122 -21.5t-86 -59.5t-52 -84t-27 -103z" />
<glyph unicode="&#x178;" horiz-adv-x="1335" d="M-8 1309v125h538v-125h-163l335 -580l312 580h-168v125h477v-125h-137l-414 -725v-459h184v-125h-569v125h184v461l-436 723h-143zM356 1706q0 53 36.5 84t94.5 31q55 0 87 -30t32 -81q0 -56 -35 -88.5t-94 -32.5q-53 0 -87 32.5t-34 84.5zM766 1706q0 53 36.5 84 t94.5 31q55 0 87 -30t32 -81q0 -56 -35 -88.5t-94 -32.5q-53 0 -87 32.5t-34 84.5z" />
<glyph unicode="&#x2c6;" horiz-adv-x="786" d="M61 1206l314 260h35l313 -256l-94 -108l-236 160l-237 -160z" />
<glyph unicode="&#x2dc;" horiz-adv-x="868" d="M78 1135q19 114 81.5 172.5t145.5 58.5q45 0 85 -18t64.5 -39.5t57 -39.5t63.5 -18q76 0 97 101l131 -33q-19 -117 -78 -174.5t-141 -57.5q-45 0 -85.5 18t-65 39.5t-55.5 39.5t-59 18q-36 0 -64.5 -24.5t-41.5 -75.5z" />
<glyph unicode="&#x2000;" horiz-adv-x="1015" />
<glyph unicode="&#x2001;" horiz-adv-x="2030" />
<glyph unicode="&#x2002;" horiz-adv-x="1015" />
<glyph unicode="&#x2003;" horiz-adv-x="2030" />
<glyph unicode="&#x2004;" horiz-adv-x="676" />
<glyph unicode="&#x2005;" horiz-adv-x="507" />
<glyph unicode="&#x2006;" horiz-adv-x="338" />
<glyph unicode="&#x2007;" horiz-adv-x="338" />
<glyph unicode="&#x2008;" horiz-adv-x="253" />
<glyph unicode="&#x2009;" horiz-adv-x="406" />
<glyph unicode="&#x200a;" horiz-adv-x="112" />
<glyph unicode="&#x2010;" horiz-adv-x="880" d="M143 506v162l596 20v-162z" />
<glyph unicode="&#x2011;" horiz-adv-x="880" d="M143 506v162l596 20v-162z" />
<glyph unicode="&#x2012;" horiz-adv-x="880" d="M143 506v162l596 20v-162z" />
<glyph unicode="&#x2013;" horiz-adv-x="1234" d="M145 530v152h945v-152h-945z" />
<glyph unicode="&#x2014;" horiz-adv-x="1447" d="M150 537v151h1148v-151h-1148z" />
<glyph unicode="&#x2018;" horiz-adv-x="479" d="M100 1034q0 129 51.5 247.5t147.5 201.5l82 -68q-130 -120 -141 -291q57 2 97 -30.5t40 -94.5q0 -59 -38 -93t-97 -34q-69 0 -105.5 41.5t-36.5 120.5z" />
<glyph unicode="&#x2019;" horiz-adv-x="473" d="M104 920q131 121 142 290q-57 -2 -97 30.5t-40 94.5q0 59 38 93t97 34q69 0 105 -41.5t36 -120.5q0 -129 -51.5 -247t-147.5 -201z" />
<glyph unicode="&#x201a;" horiz-adv-x="512" d="M113 -317q130 120 141 290q-57 -2 -97 30.5t-40 94.5q0 59 38 93t97 34q69 0 105 -41.5t36 -120.5q0 -129 -51 -247t-147 -201z" />
<glyph unicode="&#x201c;" horiz-adv-x="897" d="M100 1034q0 129 51.5 247.5t147.5 201.5l82 -68q-130 -120 -141 -291q57 2 97 -30.5t40 -94.5q0 -59 -38 -93t-97 -34q-69 0 -105.5 41.5t-36.5 120.5zM518 1034q0 129 51.5 247.5t147.5 201.5l82 -68q-131 -121 -142 -291q57 2 97.5 -30.5t40.5 -94.5q0 -58 -38.5 -92.5 t-97.5 -34.5q-69 0 -105 41.5t-36 120.5z" />
<glyph unicode="&#x201d;" horiz-adv-x="890" d="M104 920q131 121 142 290q-57 -2 -97 30.5t-40 94.5q0 59 38 93t97 34q69 0 105 -41.5t36 -120.5q0 -129 -51.5 -247t-147.5 -201zM522 920q131 121 142 290q-57 -2 -97.5 30.5t-40.5 94.5q0 58 38.5 92.5t97.5 34.5q69 0 105 -41.5t36 -120.5q0 -129 -51.5 -247 t-147.5 -201z" />
<glyph unicode="&#x201e;" horiz-adv-x="929" d="M113 -317q130 120 141 290q-57 -2 -97 30.5t-40 94.5q0 59 38 93t97 34q69 0 105 -41.5t36 -120.5q0 -129 -51 -247t-147 -201zM530 -317q131 121 142 290q-57 -2 -97 30.5t-40 94.5q0 59 38 93t97 34q69 0 105 -41.5t36 -120.5q0 -129 -51.5 -247t-147.5 -201z" />
<glyph unicode="&#x2022;" horiz-adv-x="585" d="M123 612q0 70 47.5 119t124.5 49q79 0 124.5 -48.5t45.5 -117.5q0 -68 -48 -118t-122 -50q-83 0 -127.5 49t-44.5 117z" />
<glyph unicode="&#x2026;" horiz-adv-x="1554" d="M117 98q0 59 40 93t105 34q61 0 96 -33t35 -90q0 -62 -39 -97.5t-104 -35.5q-59 0 -96 35.5t-37 93.5zM637 98q0 59 40 93t105 34q61 0 96 -33t35 -90q0 -62 -39 -97.5t-104 -35.5q-59 0 -96 35.5t-37 93.5zM1159 98q0 59 40 93t106 34q61 0 96 -33t35 -90 q0 -62 -39.5 -97.5t-104.5 -35.5q-59 0 -96 35.5t-37 93.5z" />
<glyph unicode="&#x202f;" horiz-adv-x="406" />
<glyph unicode="&#x2039;" horiz-adv-x="700" d="M47 492v59l467 491l107 -102l-408 -420l401 -411l-100 -109z" />
<glyph unicode="&#x203a;" horiz-adv-x="700" d="M80 940l106 102l467 -491v-59l-467 -492l-100 109l401 411z" />
<glyph unicode="&#x205f;" horiz-adv-x="507" />
<glyph unicode="&#x20ac;" horiz-adv-x="1474" d="M80 475v152h199q-6 76 0 155h-199v152h223q28 113 84.5 208t138.5 167t196 112.5t249 40.5q93 0 187.5 -20.5t143.5 -41.5l48 -20v-348h-113l-20 240q-117 43 -234 43q-188 0 -313.5 -100.5t-165.5 -280.5h631l-50 -152h-600v-4q0 -80 9 -151h548l-49 -152h-458 q65 -173 198 -261.5t295 -88.5q94 0 186 18l23 254h113v-360q-16 -7 -46 -18t-131 -29.5t-210 -18.5q-154 0 -286.5 55.5t-232 171t-141.5 277.5h-223z" />
<glyph unicode="&#x2122;" horiz-adv-x="2000" d="M94 1198v238h701v-238h-119l-14 127h-134v-422h127v-119h-411v119h127v422h-146l-12 -127h-119zM850 784v119h125v418h-123v117h256l195 -279q14 -20 27.5 -43t20.5 -36l7 -13h4q26 47 57 92l180 279v2h265v-119h-111v-418h111v-119h-377v119h112v184q0 37 2.5 71.5 t4.5 50.5l2 16l-6 2q-25 -49 -76 -121l-166 -248h-23l-155 217q-20 29 -38.5 60t-27.5 47l-8 16l-6 -2q6 -65 6 -143v-150h100v-119h-358z" />
<glyph unicode="&#xe000;" horiz-adv-x="1024" d="M0 0v1024h1024v-1024h-1024z" />
</font>
</defs>
</svg>
