<?xml version="1.0" standalone="no"?>
<!DOCTYPE svg PUBLIC "-//W3C//DTD SVG 1.1//EN" "http://www.w3.org/Graphics/SVG/1.1/DTD/svg11.dtd" >
<svg xmlns="http://www.w3.org/2000/svg">
<metadata></metadata>
<defs>
<font id="eb_garamond12_regular" horiz-adv-x="817" >
<font-face units-per-em="2048" ascent="1454" descent="-594" />
<missing-glyph horiz-adv-x="409" />
<glyph horiz-adv-x="0" />
<glyph unicode="&#xd;" horiz-adv-x="681" />
<glyph unicode=" "  horiz-adv-x="409" />
<glyph unicode="&#x09;" horiz-adv-x="409" />
<glyph unicode="&#xa0;" horiz-adv-x="409" />
<glyph unicode="!" horiz-adv-x="583" d="M205 94q0 51 35.5 87t87 36t87.5 -36t36 -87t-36 -87t-87.5 -36t-87 36t-35.5 87zM233 1225q0 43 28 73.5t69 30.5t66.5 -30.5t25.5 -73.5q0 -147 -62 -725q-8 -80 -36.5 -80t-36.5 80q-54 506 -54 725z" />
<glyph unicode="&#x22;" horiz-adv-x="632" d="M127 1257v13q0 37 39 71q53 43 88 43q29 0 29 -65q0 -141 -97 -358q-20 -51 -39 -52q-14 0 -14 47v117q0 20 -1 48t-1 52.5t-1 47t-3 36.5zM395 1270q0 37 39 71q53 43 88 43q29 0 29 -65q0 -141 -96 -358q-20 -51 -39 -52q-14 0 -15 47v117q0 20 -1 48t-2 52.5t-1 47 v36.5z" />
<glyph unicode="#" horiz-adv-x="958" d="M35 436q0 96 49 99l137 6l70 282l-131 -6q-29 0 -29 25q0 96 49 98l142 6l86 350q8 35 67 35q16 0 17 -24q0 -2 -1.5 -5.5t-1.5 -5.5l-83 -346l231 13l88 356q8 35 68 35q16 0 16 -25q0 -2 -1 -5t-1 -5l-86 -352l121 6q27 0 26 -23q0 -25 -17 -61.5t-46 -38.5l-115 -6 l-69 -283l124 6q27 0 27 -24.5t-17.5 -60.5t-45.5 -38l-119 -6l-88 -360q-6 -31 -62 -31q-20 0 -20 25v6l88 356l-234 -12l-90 -367q-6 -31 -61 -30q-20 0 -21 24v6l91 363l-130 -6q-29 0 -28 24zM305 545l234 12l67 283l-231 -13z" />
<glyph unicode="$" horiz-adv-x="937" d="M109 324q0 12 12 22t29 10q4 0 31.5 -59t79.5 -135t118 -109q2 0 4 -1t4 -1q8 0 8 6l68 551q0 16 -25 35q-127 88 -197.5 175t-70.5 200q0 106 96 213.5t269 118.5q20 4 20 12l8 53q6 35 60 35q10 0 18 -10t8 -21q-2 -10 -5 -29.5t-3 -27.5q0 -12 12 -14q29 -2 162 -29 q29 -6 37 -45q29 -162 29 -219q0 -14 -6.5 -32.5t-14.5 -18.5q-10 0 -28.5 15t-24.5 36q-23 82 -73 146.5t-97 64.5q-8 0 -8 -11l-58 -464q-2 -12 2.5 -18.5t24.5 -20.5q4 -4 42 -30t51.5 -36t49 -39t52 -47t42 -50t38 -59.5t22.5 -64.5t10 -76q0 -145 -106.5 -267 t-315.5 -122q-16 0 -18 -12l-19 -156q-2 -31 -51 -31q-12 0 -22.5 9.5t-10.5 19.5q2 29 9.5 83t11.5 81q0 14 -12 14q-43 8 -101.5 26.5t-69 20.5t-16.5 5.5t-7 5.5t-3 7t-2 7q-16 35 -38.5 131t-24.5 152zM328 1059q0 -106 145 -217q8 -4 10 -4q8 0 9 8l53 422 q-1 16 -15 16q-86 -8 -144 -75.5t-58 -149.5zM479 53q0 -20 17 -20q119 8 172 68.5t53 201.5q0 53 -66.5 143.5t-109.5 118.5q-2 2 -2 -6q-2 -4 -2 -6z" />
<glyph unicode="%" horiz-adv-x="1505" d="M100 918q0 143 82 257.5t215 114.5q121 0 188.5 -104.5t67.5 -245.5q0 -158 -77.5 -274.5t-215.5 -116.5q-125 0 -192.5 107.5t-67.5 261.5zM244 948q0 -125 37.5 -237.5t101.5 -112.5q61 0 94 96.5t33 211t-38 222t-97 107.5q-55 0 -93 -92t-38 -195zM276 -29q1 4 3 6 l843 1330q23 35 80 34q10 0 19.5 -8t9.5 -18q0 -6 -2 -8l-844 -1330q-18 -31 -74 -30q-12 0 -23.5 8t-11.5 16zM852 340q0 143 82 258t215 115q121 0 188.5 -104.5t67.5 -246.5q0 -158 -78 -274.5t-215 -116.5q-125 0 -192.5 107.5t-67.5 261.5zM995 371q0 -125 38 -238 t102 -113q61 0 94 96.5t33 211t-38.5 222t-97.5 107.5q-55 0 -93 -92t-38 -194z" />
<glyph unicode="&#x26;" horiz-adv-x="1613" d="M76 252q0 291 344 448l41 19l-31 33q-2 2 -22.5 24.5t-28.5 33.5t-26.5 37.5t-28 46t-16.5 49.5t-7 58q0 102 84 164t197 62q100 0 176 -58.5t76 -152.5q0 -96 -52.5 -169t-146.5 -108l-29 -10l19 -20q25 -29 122 -128.5t144 -168.5l24 -37l37 39q74 80 150 182t76 125 q0 14 -16.5 33.5t-41.5 23.5q-6 2 -15 10.5t-9 12.5q0 23 45 22q4 0 65.5 -5t79.5 -5q33 0 103.5 15.5t93.5 15.5q6 0 15 -6.5t9 -12.5q0 -12 -18.5 -24.5t-32.5 -14.5q-84 -6 -149 -63l-367 -385l35 -49q47 -68 64.5 -90.5t56.5 -62.5t80 -53t96 -13q10 0 19 1t16.5 2 t16.5 4t13 4t13.5 7t12.5 8t15.5 10.5t16.5 10.5q16 10 35 10q20 0 20 -45q0 -10 -38 -37t-99.5 -51.5t-112.5 -24.5q-106 0 -166.5 50.5t-148.5 187.5l-27 43l-12 -12q-12 -12 -52 -57.5t-54.5 -58.5t-49.5 -47t-56.5 -45.5t-56 -29.5t-69.5 -24.5t-74 -6.5 q-145 0 -251.5 77t-106.5 206zM240 322q0 -92 69.5 -156t165.5 -64q104 0 182 40t158 126l19 19l-25 39q-31 47 -72 95t-116.5 127t-104.5 109l-24 27l-43 -16q-68 -27 -113 -67t-64.5 -90t-25.5 -92t-6 -97zM424 1051q0 -100 117 -246l30 -35l27 12q113 51 113 228 q0 59 -41 109t-103 50q-57 0 -100 -33.5t-43 -84.5z" />
<glyph unicode="'" horiz-adv-x="364" d="M127 1257v13q0 37 39 71q53 43 88 43q29 0 29 -65q0 -141 -97 -358q-20 -51 -39 -52q-14 0 -14 47q2 43 2 117q0 20 -1 48t-2 52.5t-2 47t-3 36.5z" />
<glyph unicode="(" horiz-adv-x="645" d="M82 551q0 240 115.5 490.5t244.5 379.5q23 23 56 23q12 0 28.5 -10.5t16.5 -22.5t-27 -39q-125 -125 -218 -340t-93 -457q0 -254 95 -535.5t208 -393.5q33 -33 33 -39q0 -20 -16.5 -32.5t-39.5 -12.5q-20 0 -34 14q-121 121 -245 426t-124 549z" />
<glyph unicode=")" horiz-adv-x="647" d="M74 -399q0 8 20 28q117 117 222.5 393.5t105.5 524.5q0 242 -100.5 481.5t-223.5 362.5q-16 16 -16 24q0 27 55 27q29 0 49 -21q131 -131 245 -369.5t114 -476.5q0 -244 -127 -561t-248 -438q-12 -12 -34.5 -12t-42 11t-19.5 26z" />
<glyph unicode="*" horiz-adv-x="696" d="M70 1182q0 29 34 28q10 0 17 -2q37 -16 96 -39.5t82 -31.5q-10 88 -12 190q0 45 35 45q31 0 34 -37l27 -188q55 39 162 102q8 8 22 8q37 0 37 -28q0 -16 -18 -35l-150 -119q96 -45 168 -86q25 -10 25 -37q0 -29 -35 -28q-10 0 -16 2q-37 16 -96.5 39.5t-82.5 31.5 q10 -88 13 -190q0 -45 -35 -45q-31 0 -35 37l-27 188q-55 -39 -161 -102q-8 -8 -23 -8q-37 0 -37 28q0 16 19 35l149 119q-96 45 -168 86q-24 10 -24 37z" />
<glyph unicode="+" horiz-adv-x="1208" d="M102 479q0 23 12.5 50.5t37.5 27.5h387q14 0 14 16v351q0 29 37 46t57 17q10 0 19.5 -8t9.5 -18v-392q0 -12 4 -12h420q27 0 26 -20q0 -29 -18 -55.5t-45 -26.5h-379q-8 0 -8 -9v-413q0 -27 -35 -38t-63 -11q-8 0 -16.5 9t-8.5 19v432q0 10 -8 11h-414q-10 0 -19.5 7 t-9.5 17z" />
<glyph unicode="," horiz-adv-x="466" d="M37 -279q0 18 29 25q80 16 138 70.5t58 152.5q0 27 -24.5 57.5t-55.5 32.5q-45 4 -70.5 28t-25.5 58q0 41 34 68t79 27q74 0 122 -56.5t48 -142.5q0 -141 -101.5 -241.5t-193.5 -100.5q-37 0 -37 22z" />
<glyph unicode="-" horiz-adv-x="561" d="M59 360q0 37 9.5 73t23.5 38q262 37 393 51q16 0 17 -12q0 -104 -43 -111q-276 -41 -387 -51q-12 0 -13 12z" />
<glyph unicode="." horiz-adv-x="471" d="M123 84q0 47 32.5 80t80 33t80 -33t32.5 -80t-32.5 -80t-80 -33t-80 33t-32.5 80z" />
<glyph unicode="/" d="M59 -102l2 2v4l609 1423q16 35 80 35q10 0 19 -8t9 -19v-4l-2 -4l-608 -1423q-12 -31 -74 -31q-35 0 -35 25z" />
<glyph unicode="0" horiz-adv-x="1038" d="M82 418q0 178 128 303t306 125q182 0 311 -126t129 -304q0 -184 -128 -315.5t-308 -131.5q-182 0 -310 132t-128 317zM242 418q0 -141 72.5 -253t191.5 -112q133 0 212 89t79 274q0 137 -72 241.5t-195 104.5q-125 0 -206.5 -97.5t-81.5 -246.5z" />
<glyph unicode="1" horiz-adv-x="591" d="M51 23q0 23 23 22q31 2 48 5t45 11.5t42 28.5t14 49v543q0 18 -4 32.5t-8 24t-14.5 17.5t-16.5 12t-21.5 7t-20.5 4t-23.5 4t-20.5 3q-14 0 -14 22.5t14 22.5q68 0 118 -3t85 -3q33 0 83 3t116 3q16 0 16 -20t-16 -25q-6 -2 -29 -6t-31 -6t-24.5 -9t-22.5 -16.5 t-12 -26.5t-6 -40v-543q0 -39 21.5 -58.5t42 -23.5t81.5 -12q25 -4 25 -27q0 -25 -25 -24q-61 0 -120.5 5t-98.5 5q-41 0 -103.5 -5t-119.5 -5q-23 0 -23 29z" />
<glyph unicode="2" horiz-adv-x="864" d="M45 10q0 10 14 25q82 82 125 117q279 227 279 395q0 72 -37 116t-96 44q-150 0 -238 -99q-14 -14 -26 -14q-14 0 -15 29q0 8 11.5 30.5t39 55t64.5 63.5t96.5 52.5t126.5 21.5q94 0 153.5 -75t59.5 -177q0 -100 -84 -203q-41 -49 -134 -138t-114 -103q-14 -10 11 -15 l8 -2h317q57 0 109.5 35t81.5 94q12 20 39 21q8 0 8 -13q0 -8 -2 -12q-68 -190 -68 -233q0 -12 -12.5 -22.5t-18.5 -10.5l-133 4q-135 4 -217 4q-57 0 -138 -1t-138 -3l-58 -2q-14 0 -14 16z" />
<glyph unicode="3" horiz-adv-x="761" d="M74 639q0 43 96.5 125t200.5 82q100 0 160.5 -58.5t60.5 -154.5q0 -68 -43 -149t-150 -142q-10 -8 2 -12q129 -2 190.5 -71t61.5 -150q0 -289 -336 -455q-86 -43 -141 -43t-55 29q0 18 18.5 39.5t36.5 21.5q98 0 137 20q92 49 138.5 114t46.5 200q0 43 -11.5 82 t-53.5 75.5t-111 36.5q-29 0 -59 -10t-48 -20.5t-20 -10.5q-35 0 -35 19q0 12 21.5 34.5t41.5 34.5q78 47 144 105q82 74 82 217q0 59 -36 97t-96 38q-63 0 -105 -24.5t-91 -77.5q-12 -16 -33 -17q-14 0 -14 25z" />
<glyph unicode="4" horiz-adv-x="1007" d="M43 98q0 8 8 17l586 657q12 12 32.5 37t34 39t15.5 14q6 0 6 -24q0 -121 -4 -307.5t-4 -307.5q0 -12 10 -12q31 -2 82 -2q31 0 121 4q23 0 22 -14q0 -25 -16 -57.5t-27 -32.5q-14 0 -49 1t-51 1q-31 0 -64 -5q-27 -6 -26 -12v-366q0 -33 -50.5 -66t-68.5 -33 q-31 0 -31 27v428q0 8 -13 13t-17 5q-84 0 -222.5 -6t-246.5 -8q-27 0 -27 10zM238 220q4 -7 10 -7h297q25 0 24 16v346q0 4 -8 5.5t-12 -2.5l-311 -347q-4 -4 0 -11z" />
<glyph unicode="5" horiz-adv-x="735" d="M106 -362q0 23 68 34q295 51 295 328q0 96 -70.5 187.5t-177.5 154.5q-102 61 -102 113q0 121 63 256q23 47 74 67q57 20 165.5 46t135.5 26q23 0 23 -29q0 -41 -33 -91t-72 -58q-84 -16 -250 -39q-12 -2 -25.5 -20.5t-13.5 -47.5q0 -27 41 -49q156 -86 279 -209 q49 -49 88 -123.5t39 -148.5q0 -186 -144.5 -304t-312.5 -118q-70 0 -70 25z" />
<glyph unicode="6" horiz-adv-x="1001" d="M84 395q0 305 235 582q86 98 233.5 192.5t321.5 139.5h11q18 0 18 -9q0 -6 -4 -13t-12 -11t-14.5 -8t-14.5 -6l-8 -5q-268 -117 -414 -323q-182 -262 -182 -545q0 -141 70 -227q33 -41 92 -79t119 -38q82 0 135 43q88 68 88 203q0 96 -56.5 168.5t-136.5 72.5 q-104 0 -164 -30q-18 -8 -22 1t8 21q25 27 55 49q29 23 89.5 45.5t111.5 22.5q106 0 181 -71.5t75 -180.5q0 -174 -110.5 -296t-313.5 -122q-195 0 -293 116t-98 308z" />
<glyph unicode="7" horiz-adv-x="942" d="M49 592q0 4 8 45q25 102 25 172q0 23 20 22q2 0 23.5 -2t52.5 -4t53 -2q59 -2 220 -2q365 0 421 13q14 0 15 -29q0 -14 -13.5 -40t-37 -61.5t-27.5 -41.5l-573 -1002q-31 -55 -39 -55q-23 0 -40.5 15t-17.5 38q0 8 43 84l523 899q6 8 3 13t-24 8q-240 6 -422 6h-26 q-86 0 -123 -47q-37 -45 -54 -46q-10 0 -10 17z" />
<glyph unicode="8" horiz-adv-x="925" d="M125 270q0 59 22.5 109.5t67.5 89.5t77 60.5t83 48.5q12 10 10 13t-16 13q-72 59 -112 100t-75 109t-35 143q0 111 106.5 180.5t242.5 69.5q119 0 210 -71.5t91 -182.5q0 -102 -99 -186q-33 -29 -102 -80q-25 -18 -25.5 -24.5t15.5 -16.5q125 -82 182 -149.5t57 -173.5 q0 -145 -112.5 -247t-257.5 -102q-133 0 -231.5 85t-98.5 212zM268 301q0 -100 60.5 -176t154.5 -76q86 0 142.5 55.5t56.5 137.5q0 135 -225 288q-23 16 -31 17q-7 0 -23 -12q-51 -41 -73.5 -65t-42 -67t-19.5 -102zM291 995q0 -43 8 -74.5t35.5 -64.5t43 -48t68 -55 t72.5 -57q13 -8 25 0q111 90 110 271q0 74 -49 132t-119 58q-76 0 -135 -47t-59 -115z" />
<glyph unicode="9" horiz-adv-x="954" d="M84 -371q0 18 29 27q86 27 229 141.5t211 202.5q156 207 156 465q0 129 -76 219t-187 90q-92 0 -144 -70.5t-52 -156.5q0 -96 60.5 -176t140.5 -80q29 0 54 5t38.5 11t37 19.5t33.5 17.5q8 2 13.5 -7t1.5 -15q-20 -37 -68 -72q-92 -68 -188 -68q-109 0 -186.5 75 t-77.5 183q0 152 114.5 280t290.5 128q150 0 254 -119t104 -299q0 -272 -258 -526q-90 -88 -245.5 -179.5t-255.5 -105.5h-11q-18 0 -18 10z" />
<glyph unicode=":" horiz-adv-x="507" d="M143 84q0 47 33 80t80 33t80 -33t33 -80t-33 -80t-80 -33t-80 33t-33 80zM143 651q0 45 33 79t80 34t80 -34t33 -79t-33 -78.5t-80 -33.5t-80 33.5t-33 78.5z" />
<glyph unicode=";" horiz-adv-x="466" d="M37 -279q0 18 29 25q80 16 138 70.5t58 152.5q0 27 -24.5 57.5t-55.5 32.5q-45 4 -70.5 28t-25.5 58q0 41 34 68t79 27q74 0 122 -56.5t48 -142.5q0 -141 -101.5 -241.5t-193.5 -100.5q-37 0 -37 22zM104 651q0 45 34 79t79 34t79 -34t34 -79t-34 -78.5t-79 -33.5 t-79 33.5t-34 78.5z" />
<glyph unicode="&#x3c;" horiz-adv-x="1208" d="M109 455q0 18 20.5 50t46.5 44l895 409h2l4 3q20 0 21 -21q0 -23 -17.5 -57.5t-46.5 -46.5l-764 -357q-6 -4 2 -10l779 -356q25 -12 37 -44t12 -55q0 -8 -7.5 -17t-15.5 -9h-2q-2 2 -4 2l-878 409q-84 39 -84 56z" />
<glyph unicode="=" horiz-adv-x="1208" d="M102 317q0 23 12.5 50.5t37.5 27.5h927q10 0 19.5 -7t9.5 -15l-2 -2v-4q-8 -25 -13.5 -36.5t-18.5 -24.5t-32 -13h-911q-10 0 -19.5 7t-9.5 17zM102 668q0 23 12.5 50t37.5 27h927q10 0 19.5 -7t9.5 -15q0 -2 -2 -6q-8 -25 -13.5 -36t-18.5 -24.5t-32 -13.5h-911 q-10 0 -19.5 8t-9.5 17z" />
<glyph unicode="&#x3e;" horiz-adv-x="1208" d="M109 934q0 8 7 17.5t15 9.5l2 -3h4l879 -409q84 -39 84 -55q0 -18 -20.5 -50t-47.5 -45l-895 -409q-2 0 -6 -2q-20 0 -20 20q0 23 17 57.5t46 47.5l764 356q6 4 -2 10l-778 357q-25 12 -37 43.5t-12 54.5z" />
<glyph unicode="?" horiz-adv-x="792" d="M205 1280q0 29 27.5 51.5t54.5 22.5q119 0 221 -103q84 -84 137 -198.5t53 -196.5q0 -125 -86 -172q-100 -55 -176 -104q-61 -39 -65 -162q0 -47 -31 -47q-10 0 -24.5 17.5t-20.5 41.5q-33 115 -33 178q0 49 49 89t158 96q49 25 87 64.5t38 80.5q0 104 -53.5 168.5 t-153.5 67.5q-18 0 -47 -4.5t-49 -4.5q-33 0 -59.5 37t-26.5 78zM246 94q0 51 35.5 87t87 36t87.5 -36t36 -87t-36 -87t-87.5 -36t-87 36t-35.5 87z" />
<glyph unicode="@" horiz-adv-x="1533" d="M102 371q0 313 217.5 490t528.5 177q231 0 407.5 -164.5t176.5 -392.5q0 -172 -126 -278.5t-298 -106.5q-37 0 -59.5 19.5t-34 38t-17.5 18.5t-39 -18.5t-87 -38t-112 -19.5q-104 0 -172.5 59.5t-68.5 163.5q0 180 128 294t304 114q84 0 133 -16q37 -12 47 -12.5t25.5 19 t25.5 19.5q29 -4 37 -16q-29 -76 -45 -164l-43 -270q0 -6 -2 -17.5t-3 -20.5t-1 -18q0 -59 37 -59q113 0 193.5 78t80.5 201q0 211 -156.5 358t-371.5 147q-252 0 -430 -156.5t-178 -408.5q0 -242 179 -409.5t427 -167.5q98 0 222 46t202 111q25 20 37 21q29 0 28.5 -26.5 t-80 -82t-204.5 -103.5t-228 -48q-281 0 -480.5 181t-199.5 458zM563 358q0 -100 50.5 -146t119.5 -46q59 0 123 45q41 27 55 100l39 211q2 8 2 25q0 55 -39.5 87t-107.5 32q-94 0 -168 -83t-74 -225z" />
<glyph unicode="A" horiz-adv-x="1417" d="M-4 16q0 25 67 47q123 37 177 158q197 451 383 963q14 37 20 66.5t6 41t2 11.5q55 18 74 30q12 8 20.5 26.5t13.5 32t9 13.5t20 -49q152 -477 365 -1094q39 -113 86 -152.5t121 -52.5q67 -12 67 -46q0 -21 -59 -21q-25 0 -129 6t-156 6q-43 0 -118.5 -1t-96.5 -1 q-59 0 -59 25q0 29 68 38q124 20 124 92q0 62 -77 322q-6 23 -56 23h-391q-23 0 -35 -37q-82 -238 -82 -285q0 -43 34 -73.5t85 -43.5q68 -18 68 -40.5t-60 -22.5q-14 0 -78.5 2t-107.5 2q-47 0 -131 -6t-115 -6q-59 0 -59 26zM494 602q0 -14 43 -14h317q29 0 29 10 q0 4 -4 20l-162 490q-12 37 -19 37q-4 0 -16 -35l-184 -492q-4 -12 -4 -16z" />
<glyph unicode="B" horiz-adv-x="1183" d="M39 12q0 25 67 37q82 14 121 49t39 105v921q0 74 -31.5 109t-105.5 41q-68 6 -68 41q0 23 57 23h2q60 0 117.5 -1.5t96.5 -1.5q33 0 97.5 5.5t129.5 5.5q231 0 343 -71t112 -235q0 -127 -70 -196q-61 -57 -137 -88q-8 -4 -8 -10.5t8 -10.5q61 -18 100 -36.5t89.5 -56.5 t76 -99.5t25.5 -145.5q0 -80 -19.5 -139t-57.5 -98t-64.5 -57.5t-71.5 -41.5q-137 -69 -323 -69h-5q-12 0 -79.5 4t-114.5 4q-51 0 -128 -5t-139 -5q-59 0 -59 22zM426 221q0 -82 39 -113.5t123 -31.5q123 0 221 91t98 220q0 180 -151 264q-92 51 -213 51q-59 0 -88 -23.5 t-29 -49.5v-408zM426 836q0 -76 94 -76q129 0 228 59q33 18 62.5 67.5t29.5 127.5q0 111 -61.5 190.5t-217.5 79.5q-80 0 -107.5 -21.5t-27.5 -70.5v-356z" />
<glyph unicode="C" horiz-adv-x="1310" d="M94 662q0 293 221.5 494.5t524.5 201.5q143 0 216.5 -24.5t155.5 -37.5q23 -2 27 -61q14 -111 16 -223q2 -16 -3 -32.5t-19 -14.5q-41 4 -53 75q-12 94 -72 150q-104 104 -301 104q-219 0 -363.5 -175t-144.5 -408q0 -170 61.5 -324t183.5 -254t275 -100q254 0 381 248 q6 10 16.5 17t21.5 13t13 8.5t4 2.5q14 0 15 -39q0 -4 -1 -9.5t-1 -7.5q-23 -145 -68 -213q-8 -14 -100 -43q-131 -41 -344 -41q-276 0 -469 205t-193 488z" />
<glyph unicode="D" horiz-adv-x="1544" d="M59 12q0 25 68 37q78 14 107.5 47t29.5 107v921q0 72 -29.5 104t-107.5 46q-68 12 -68 41q0 23 57 23h2q60 0 117.5 -2.5t96.5 -2.5h14q47 0 186.5 8.5t163.5 8.5q395 0 586 -180.5t191 -469.5q0 -295 -210 -504.5t-503 -209.5q-6 0 -168 7t-258 7q-37 0 -97.5 -5 t-117.5 -5q-59 0 -60 22zM428 248q0 -59 24.5 -99t72.5 -58.5t96.5 -26t113.5 -7.5q240 0 391.5 170t151.5 439q0 281 -173 450.5t-398 169.5q-66 0 -99 -1t-74.5 -7t-60 -19.5t-32 -37t-13.5 -60.5v-913z" />
<glyph unicode="E" horiz-adv-x="1095" d="M47 12q0 25 68 37q80 14 115.5 48t35.5 106v921q0 72 -29.5 104t-107.5 46q-68 12 -68 41q0 22 55 22h5q78 0 185.5 -3t176.5 -3q82 0 190.5 2t184.5 3t80 1q35 0 37 -18q31 -166 31 -211q0 -31 -29 -31q-16 0 -23 21q-31 96 -45 112q-49 55 -137 56h-268 q-20 0 -47 -19.5t-27 -46.5v-434q0 -18 11.5 -31.5t25.5 -13.5h197q90 0 124 80q4 8 17.5 21.5t19.5 13.5q8 0 17.5 -9.5t9.5 -23.5q0 -8 -3 -51t-3 -62q0 -23 2 -78t2 -61q0 -35 -19 -35q-33 0 -47 47q-31 92 -94 92h-190q-39 0 -54.5 -10t-15.5 -43v-393q0 -76 32 -106.5 t103 -30.5h213q109 0 156 37q39 31 86 129q12 23 29 20q27 -4 26 -22q0 -82 -35 -211q-8 -35 -28 -35q-139 0 -356.5 6t-313.5 6q-43 0 -110.5 -6t-125.5 -6q-59 0 -59 22z" />
<glyph unicode="F" horiz-adv-x="1048" d="M61 12q0 25 68 37q78 14 107.5 48t29.5 108v864q0 98 -25.5 145.5t-99.5 59.5q-67 12 -67 40q0 23 54 23h5q76 0 179.5 -3t172.5 -3l461 6q35 0 37 -18q10 -60 10 -205q0 -43 -18 -43q-25 0 -31 25q-25 74 -47 100q-49 55 -137 55h-260q-31 0 -46.5 -16t-18.5 -34.5 t-5 -51.5q-2 -51 -2 -192.5t2 -190.5q0 -45 21 -45q47 0 132 3t105 3q90 0 125 80q4 8 17.5 21.5t19.5 13.5q8 0 18.5 -10.5t8.5 -22.5q-6 -72 -7 -113q0 -49 7 -139q0 -35 -19 -35q-33 0 -47 47q-27 80 -96 80q-18 0 -52 1t-51 1q-47 0 -133 -4q-49 -4 -49 -51 q0 -254 6 -389q4 -70 33 -108t102 -50q68 -12 68 -37q0 -23 -57 -23q0 1 -2 1q-60 0 -113 7t-88 7q-49 0 -125 -7t-133 -7q-59 0 -60 22z" />
<glyph unicode="G" horiz-adv-x="1492" d="M92 637q0 301 222.5 511t531.5 210q86 0 255 -30t171 -50q22 -151 22 -223v-6q0 -16 -9 -28.5t-21 -12.5q-29 0 -47 55q-23 61 -64 108q-29 37 -114 73t-212 36q-231 0 -381.5 -183.5t-150.5 -432.5q0 -279 159.5 -448t376.5 -169q174 0 250 76q61 61 62 158q0 16 2 58 t2 60q0 49 -10 62q-23 31 -90.5 47t-110.5 16q-10 0 -25.5 10.5t-15.5 24.5t15.5 24.5t25.5 10.5q49 0 125 -4t133 -4q35 0 90 4t92 4q43 0 43 -33q0 -12 -16.5 -23.5t-26.5 -13.5q-43 -12 -61.5 -34.5t-24.5 -65.5q-10 -74 -10 -154v-55q0 -8 12 -33q4 -6 15.5 -17 t11.5 -18q0 -35 -29 -38q-8 -2 -79.5 -37t-182 -68t-225.5 -33q-289 0 -500 192.5t-211 473.5z" />
<glyph unicode="H" horiz-adv-x="1658" d="M76 12q0 25 67 37q74 14 98.5 46t24.5 108v925q0 76 -18.5 105t-89.5 41q-68 12 -68 41q0 23 57 23h3q60 0 117 -3.5t93 -3.5q39 0 98.5 3t119 3t59.5 -22q0 -29 -68 -41q-139 -25 -139 -146v-393q0 -18 29 -18h760q14 0 14 24v389q0 119 -135 144q-68 12 -68 41 q0 22 55 22h5q57 0 125.5 -3t111.5 -3q33 0 80 3t106.5 3t59.5 -22q0 -29 -68 -41q-70 -12 -89 -44t-19 -100v-925q0 -80 19.5 -112t92.5 -44q68 -12 68 -37q0 -23 -57 -23q0 1 -2 1q-60 0 -117.5 5t-96 5t-100 -5t-119.5 -5q-59 0 -59 22q0 25 68 37q139 27 139 150v389 q0 31 -10 30h-783q-10 0 -10 -22v-379q0 -63 45 -109.5t117 -58.5q67 -12 67 -36q0 -23 -54 -23h-5q-57 0 -125.5 5t-114.5 5q-41 0 -104 -5t-121 -5q-59 0 -59 22z" />
<glyph unicode="I" horiz-adv-x="696" d="M39 12q0 25 67 37q82 14 121 48t39 104v925q0 72 -29.5 103t-107.5 45q-68 12 -68 41q0 22 55 22h5q57 0 125.5 -3t113.5 -3q41 0 103.5 3t120.5 3q59 0 59 -22q0 -29 -68 -41q-80 -14 -112.5 -46t-32.5 -102v-925q0 -70 40 -104t122 -48q67 -12 67 -36q0 -23 -54 -23h-5 q-57 0 -125.5 5t-114.5 5q-49 0 -126.5 -5t-135.5 -5q-59 0 -59 22z" />
<glyph unicode="J" horiz-adv-x="614" d="M-141 -324q0 41 23.5 77t49.5 36q68 0 103 -53q39 -60 96 -60q135 0 135 324v1128q0 70 -29.5 101t-105.5 45q-68 12 -68 41q0 22 55 22h5q57 0 125.5 -3t113.5 -3q33 0 83.5 3t109.5 3t59 -22q0 -29 -67 -41q-74 -14 -95.5 -43t-21.5 -103v-837q0 -154 -7 -254 t-27.5 -162.5t-32 -83t-41.5 -65.5q-94 -135 -252 -136q-94 0 -152.5 26t-58.5 60z" />
<glyph unicode="K" horiz-adv-x="1394" d="M63 12q0 25 68 37q78 14 107.5 48t29.5 110v921q0 70 -29.5 101t-107.5 45q-68 12 -68 41q0 22 55 22h5q57 0 121.5 -2t107.5 -2q35 0 87.5 2t111.5 2t59 -22q0 -29 -67 -41q-72 -12 -91.5 -45t-19.5 -101v-383q0 -39 10 -38q23 0 56 36l409 418q31 31 31 62q0 37 -39 47 q-63 16 -63 41q0 22 54 22h5h111q70 0 199.5 4t131.5 4q45 0 45 -22q0 -29 -67 -41q-193 -35 -311 -135q-197 -166 -394 -383q-12 -14 11 -37l495 -528q72 -80 106.5 -103.5t118.5 -42.5q68 -14 68 -36.5t-59 -22.5q-61 0 -145.5 5t-139.5 5q-20 0 -67.5 -1t-98.5 -1 q-59 0 -59 22.5t55 34.5q57 14 57 41q0 16 -30 51l-435 480q-35 35 -47 35q-8 0 -8 -44q0 -121 10 -393q6 -154 131 -176q68 -12 68 -37q0 -23 -57 -23q0 1 -2 1q-60 0 -113 7t-88 7q-49 0 -125 -7t-133 -7q-59 0 -60 22z" />
<glyph unicode="L" horiz-adv-x="1196" d="M55 14q0 23 45 35q84 16 125 49t41 99v950q0 72 -22.5 92.5t-102.5 34.5q-67 12 -67 40q0 23 54 23h5q57 0 121.5 -3t107.5 -3q49 0 125 3t134 3q59 0 59 -22q0 -29 -68 -41q-49 -8 -73.5 -14.5t-54 -18.5t-42 -31.5t-12.5 -48.5v-964q0 -68 31 -96.5t127 -28.5h299 q12 0 51 16t63 37q66 57 107 145q23 61 45 62q25 0 25 -37q0 -2 -2 -6v-4q-47 -176 -56 -260q-4 -35 -28 -35q-145 0 -377 5t-326 5l-276 -10q-57 0 -58 24z" />
<glyph unicode="M" horiz-adv-x="1845" d="M39 12q0 25 67 37q104 18 127 160q84 629 84 893q0 12 -1 26.5t-1 20.5q0 29 -30 65q-12 14 -27.5 24.5t-37 18t-36 11.5t-39 9t-30.5 7q-29 10 -29 35q0 23 47 22q41 0 178.5 -8t161.5 -8q16 0 29.5 -34t26 -87t18.5 -69l323 -822q12 -31 25 -30q10 0 23 24l403 840 q12 27 20.5 74t16.5 76.5t20 29.5h74q49 0 131 8t96 8h7q43 0 43 -20q0 -29 -54 -47q-53 -16 -78.5 -24.5t-58.5 -33t-33 -55.5q0 -170 7.5 -329.5t20.5 -357t17 -281.5q2 -63 39 -97.5t115 -48.5q68 -12 68 -37q0 -22 -55 -22h-5q-57 0 -125.5 5t-113.5 5q-39 0 -97.5 -5 t-118 -5t-59.5 22q0 29 68 37q59 8 81.5 41t22.5 107q0 201 -24 753q0 33 -11 33q-6 0 -22 -33l-455 -921q-23 -49 -35 -49q-10 0 -28 53q-115 344 -367 932q-20 47 -27 0q-65 -478 -65 -748v-8q0 -49 32.5 -98.5t100.5 -61.5t68 -37q0 -23 -57 -23q0 1 -2 1q-60 0 -110.5 5 t-83 5t-79.5 -5t-106.5 -5t-59.5 22z" />
<glyph unicode="N" horiz-adv-x="1576" d="M4 1320q0 28 47 28q63 -2 148.5 -6.5t167.5 -4.5q23 0 49 -34q27 -37 384 -486.5t396 -497.5q34 -40 50 -40h1q18 0 21 43q4 131 4 655v178q-2 37 -42 72t-77 41q-68 12 -68 41q0 22 55 22h5h117q45 0 107.5 3t127.5 3q59 0 59 -22q0 -29 -67 -41q-76 -14 -101.5 -37 t-27.5 -74q-4 -98 -4 -1147q0 -51 -43 -51q-23 0 -72 34t-94 95q-55 76 -729 897q-27 33 -43 33q-18 0 -19 -43q-10 -508 -10 -768q0 -139 131 -164q68 -12 68 -37q0 -23 -57 -23q0 1 -2 1q-60 0 -110 5t-83 5t-80 -5t-106.5 -5t-59.5 22q0 20 68 39q104 29 118 168 q37 346 37 819q0 100 -50 149.5t-152 82.5q-64 21 -64 50z" />
<glyph unicode="O" horiz-adv-x="1562" d="M92 655q0 190 79 347t243 257.5t385 100.5q274 0 472.5 -189.5t198.5 -484.5q0 -139 -45 -267t-130 -228.5t-218 -160t-295 -59.5q-276 0 -483 198.5t-207 485.5zM291 717q0 -270 148.5 -468t369.5 -198q225 0 344 152.5t119 421.5q0 299 -131 477t-373 178 q-217 0 -347 -168t-130 -395z" />
<glyph unicode="P" horiz-adv-x="1130" d="M49 12q0 25 68 37q80 14 114.5 48t34.5 108v864q0 98 -25.5 145.5t-99.5 59.5q-67 12 -67 40q0 23 57 24h3q60 0 110.5 -1.5t89.5 -1.5q43 0 123 6.5t104 6.5q231 0 378.5 -98.5t147.5 -262.5q0 -201 -120.5 -334t-345.5 -133q-41 0 -67 12.5t-26 26.5q0 8 11.5 15.5 t21.5 7.5l31 -4q31 -6 63 -7q248 0 248 367q0 180 -92 266t-250 86q-131 0 -131 -86v-977q0 -154 137 -178q68 -12 68 -37q0 -23 -57 -23q0 1 -2 1q-60 0 -113 7t-88 7q-51 0 -131 -7t-135 -7q-59 0 -60 22z" />
<glyph unicode="Q" horiz-adv-x="1650" d="M92 629q0 307 208 517t523 210q184 0 349 -71t276 -220.5t111 -347.5q0 -139 -38 -258t-94.5 -197t-132 -137t-142.5 -91t-134 -50q-29 -8 -29 -18.5t8 -18.5q96 -102 246 -211q102 -74 190.5 -101.5t208.5 -27.5q82 0 115 14q25 8 39 8q23 0 23 -16q0 -31 -37 -53 q-117 -68 -240 -68q-139 0 -241.5 38t-210.5 116q-148 104 -324 243q-31 25 -121 75t-115 56q-61 16 -133.5 65.5t-142.5 125.5t-116 186.5t-46 231.5zM285 725q0 -274 174 -487t422 -213q147 0 260.5 101t168 244.5t54.5 293.5q0 244 -168 431t-412 187q-219 0 -359 -167 t-140 -390z" />
<glyph unicode="R" horiz-adv-x="1460" d="M49 12q0 25 68 37q80 14 114.5 48t34.5 108v864q0 98 -25.5 145.5t-99.5 59.5q-67 12 -67 40q0 23 57 24h3q60 0 110.5 -1.5t89.5 -1.5q35 0 102.5 5.5t132.5 5.5q461 0 461 -336q0 -221 -242 -344q-14 -6 0 -27q92 -139 128 -191.5t117 -149.5t171 -179 q49 -43 100.5 -55.5t135.5 -11.5q31 0 30 -23q0 -39 -54 -55.5t-111 -16.5q-193 0 -283 111l-55 66t-60.5 73.5t-51.5 69t-69.5 100.5t-74.5 117q-31 51 -88 79q-74 35 -162 45q-16 2 -23.5 -9t-7.5 -31v-353q0 -152 137 -176q68 -12 68 -37q0 -23 -57 -23q0 1 -2 1 q-60 0 -113 7t-88 7q-51 0 -131 -7t-135 -7q-59 0 -60 22zM430 745q0 -47 24.5 -59t84.5 -12q137 0 222 90t85 213q0 143 -58.5 225t-218.5 82q-78 0 -103.5 -28.5t-27.5 -81.5q-8 -199 -8 -429z" />
<glyph unicode="S" horiz-adv-x="952" d="M84 287q0 16 13.5 37.5t29.5 21.5q18 0 61 -135q29 -88 101 -132t168 -44q113 0 174 63.5t61 171.5q0 172 -311 381q-125 84 -192.5 169t-67.5 198q0 139 116.5 240.5t294.5 101.5q57 0 113.5 -10.5t90.5 -20.5t40 -10q25 0 35 -47q2 -4 6 -32t8 -70t4 -70q0 -51 -14 -51 q-59 0 -72 57q-14 88 -77.5 137t-151.5 49q-98 0 -166.5 -60.5t-68.5 -160.5q0 -47 24.5 -91t76.5 -87t80.5 -64.5t90.5 -60.5q313 -203 313 -440q0 -141 -106.5 -251t-319.5 -110q-170 0 -274 49q-35 16 -43 35q-37 78 -37 236z" />
<glyph unicode="T" horiz-adv-x="1372" d="M55 1106q0 20 11 41q45 94 63 227q6 47 35 47q16 0 51 -65q23 -41 143 -41h781q78 0 118 28q14 10 36 31t37.5 32t29.5 11t14 -47q0 -4 -1 -10t-1 -8q-33 -135 -33 -203v-25q0 -20 -9 -42.5t-23 -22.5q-23 0 -39 84q-16 94 -189 94h-194q-78 0 -96.5 -15.5t-18.5 -78.5 v-934q0 -131 162 -160q67 -12 67 -36q0 -23 -54 -23h-5q-57 0 -126 5t-114 5q-49 0 -126.5 -5t-135.5 -5q-59 0 -59 22q0 25 67 37q80 14 120 51t40 109v932q0 82 -37 88q-39 8 -151 8h-96q-53 0 -100.5 -20.5t-67.5 -59.5q-12 -25 -38 -51.5t-46 -26.5q-14 0 -15 27z" />
<glyph unicode="U" horiz-adv-x="1511" d="M49 1315q0 22 55 22h5q29 0 93 -3t103 -3q35 0 90.5 2t73.5 2q59 0 59 -22q0 -18 -67 -41q-29 -8 -57.5 -50t-28.5 -98v-575q0 -238 116.5 -356.5t313.5 -118.5q205 0 306 142t101 390q0 125 -8 441q-4 201 -84 223q-68 18 -68 40q0 23 60 23q31 0 78 -1t76 -1q35 0 90 3 t76 3q59 0 59 -22q0 -27 -68 -41q-96 -19 -102 -154q-2 -23 -21 -608q-8 -238 -159.5 -389.5t-378.5 -151.5q-268 0 -409.5 139.5t-141.5 381.5v628q0 123 -94 150q-68 18 -68 45z" />
<glyph unicode="V" horiz-adv-x="1376" d="M0 1315q0 22 54 22h5q29 0 114 -3t136 -3q45 0 120 2t89 2q59 0 60 -22q0 -29 -68 -41q-49 -10 -89 -34t-40 -50q0 -41 18 -96l260 -689q20 -57 37 -57q12 0 37 57l289 717q16 33 16 66q0 43 -137 84q-68 18 -68 40q0 23 60 23q25 0 92.5 -1t110.5 -1t127 3t106 3 q59 0 60 -22q0 -27 -68 -41q-70 -16 -122 -66.5t-79 -111.5l-385 -934q-2 -4 -10 -30t-17.5 -50.5t-19.5 -52t-21.5 -44t-19.5 -16.5q-10 0 -61 146l-375 1005q-45 121 -143 150q-68 20 -68 45z" />
<glyph unicode="W" horiz-adv-x="1875" d="M0 1315q0 22 54 22h5q31 0 89.5 -3t93.5 -3q43 0 108.5 2t81.5 2q60 0 60 -23q0 -22 -68 -40q-41 -10 -41 -68q0 -18 4 -40.5t8 -35.5l4 -12q158 -403 336 -805q18 -39 31 -2l160 396q12 31 12 47t-16 59l-117 291q-25 61 -80 106t-115 62q-67 20 -67 44q0 23 59 23 q31 0 92.5 -3t100.5 -3q33 0 86 2t71 2q59 0 60 -22q0 -16 -42 -39t-42 -47q0 -4 4 -17q41 -125 92 -231q12 -27 18.5 -27t18.5 27q41 92 82 231q2 6 2 15q0 27 -38 49t-38 39q0 22 54 22h5q33 0 62 -2t45 -2q23 0 59.5 3t61.5 3q59 0 59 -22q0 -27 -67 -41 q-61 -14 -86 -32.5t-54 -65.5q-41 -72 -108 -252q-14 -37 -15 -64q0 -10 2 -14l211 -543q8 -20 23 12q78 207 250 793q12 37 12 74q0 72 -61 88q-68 18 -68 40.5t59 22.5q27 0 74 -1t74 -1q35 0 98.5 3t85.5 3q59 0 60 -22q0 -27 -68 -41q-109 -25 -168 -180l-330 -975 q-51 -143 -65 -144q-18 0 -35 39q-63 143 -147 362.5t-105 270.5q-8 20 -18 0q-2 -4 -4 -12q-115 -268 -234 -604q-23 -63 -45 -64q-6 0 -29 58l-442 1110q-49 106 -147 135q-68 20 -68 45z" />
<glyph unicode="X" horiz-adv-x="1447" d="M-10 12q0 25 67 45q63 18 149.5 71.5t143.5 125.5l256 319q37 51 37 76q0 12 -4 17l-297 417q-49 68 -93 109t-73 55.5t-72 26.5q-67 20 -67 44q0 23 54 23h5q29 0 133.5 -5t159.5 -5q47 0 119 2t84 2q59 0 59 -22q0 -20 -67 -41q-33 -10 -46.5 -14.5t-31 -12.5 t-22.5 -16t-5 -21q0 -33 68 -127l186 -262q20 -31 33 -31q10 0 29 25l219 289q53 66 53 104q0 47 -92 64q-68 14 -68 41q0 22 55 22h5q23 0 78 -1t88 -1q43 0 125.5 6t107.5 6q59 0 59 -22.5t-67 -40.5q-86 -23 -266 -236l-236 -278q-37 -43 -37 -61q0 -4 8 -21l318 -457 q96 -141 219 -174q68 -18 68 -40.5t-60 -22.5q-25 0 -132 6t-161 6q-47 0 -118.5 -1t-92.5 -1q-59 0 -59 22.5t68 40.5q35 10 62.5 36t27.5 61t-25 67l-213 310q-25 35 -45 10l-276 -357q-18 -25 -19 -47q0 -61 92 -82q68 -18 68 -40.5t-60 -22.5q-14 0 -77.5 2t-104.5 2 q-49 0 -138 -6t-120 -6q-59 0 -59 22z" />
<glyph unicode="Y" horiz-adv-x="1183" d="M0 1315q0 22 54 22h5q27 0 108 -3t132 -3q35 0 90 2t74 2q59 0 59 -22q0 -27 -67 -41q-66 -16 -66 -51q0 -27 27 -74l188 -338q45 -78 58 -78q18 0 67 78q76 115 172 285q37 61 37 104q0 59 -84 72q-23 4 -45.5 16t-22.5 25q0 22 55 22h5q31 0 78 -1t75 -1q47 0 121 3 t92 3q59 0 60 -22q0 -20 -109 -51q-49 -14 -82.5 -51t-97.5 -136q-121 -186 -227 -368q-37 -63 -44 -92t-7 -93v-303q0 -70 41.5 -114t119.5 -58q68 -12 68 -37q0 -22 -55 -22h-5q-57 0 -125.5 5t-113.5 5q-49 0 -128 -5t-134 -5q-59 0 -60 22q0 25 68 37q160 29 160 172 v303q0 59 -52 152l-239 393q-113 180 -182 201q-68 20 -68 45z" />
<glyph unicode="Z" horiz-adv-x="1234" d="M57 16v7q0 31 119 190q481 657 701 991q8 12 8 17q0 14 -39 16q-147 4 -299 4q-158 0 -209 -4q-57 -4 -110.5 -38t-77.5 -103q-27 -66 -58 -66q-18 0 -18 23q0 16 14 55q47 141 55 227q2 35 31 35q14 0 51 -29q23 -16 150 -16q106 -2 297 -2q246 0 473 6q10 0 19.5 -14.5 t2.5 -22.5l-125 -166q-442 -596 -692 -983q-6 -10 -6 -24q0 -31 23 -35q98 -10 231 -10q129 0 289 10q172 14 254 207q16 43 45 43q18 0 18 -27q0 -18 -29.5 -133t-46.5 -149q-18 -35 -36 -35q-123 0 -329 3t-290 3q-41 0 -123 -1t-121 -1h-157q-6 0 -9.5 7t-5.5 15z" />
<glyph unicode="[" horiz-adv-x="763" d="M229 -358v1726q0 49 12.5 59.5t65.5 10.5l338 -2q37 0 37 -27t-53 -31l-221 -12q-25 0 -52.5 -29.5t-27.5 -58.5v-1493q0 -41 21.5 -68.5t49.5 -31.5l230 -27q53 -8 53 -37q0 -31 -53 -31h-336q-39 0 -51.5 8.5t-12.5 43.5z" />
<glyph unicode="\" d="M57 1331v4q0 10 9.5 18.5t19.5 8.5q63 0 80 -35l608 -1423v-2l2 -4q0 -25 -35 -25q-61 0 -73 31l-609 1423z" />
<glyph unicode="]" horiz-adv-x="763" d="M74 -379q0 29 53 37l229 27q29 4 50.5 31.5t21.5 68.5v1493q0 29 -27.5 58.5t-52.5 29.5l-221 12q-53 4 -53 31t37 27l338 2q51 0 64 -10.5t13 -59.5v-1726q0 -35 -12 -43.5t-51 -8.5h-336q-53 0 -53 31z" />
<glyph unicode="^" horiz-adv-x="1024" d="M98 604q0 10 6 21q51 88 201 309t207 301q301 -428 408 -610q6 -10 6 -21q0 -23 -19 -22h-4q-55 14 -76 36q-25 29 -71.5 92.5t-83.5 118t-90.5 133t-61.5 91.5q-12 14 -20 0q-274 -401 -303 -435q-25 -25 -76 -36h-4q-18 0 -19 22z" />
<glyph unicode="_" horiz-adv-x="1024" d="M0 -348q0 23 12 50.5t37 27.5h948q10 0 19.5 -7.5t9.5 -15.5q0 -2 -2 -6q-8 -25 -13 -36t-18.5 -24.5t-31.5 -13.5h-932q-10 0 -19.5 8.5t-9.5 16.5z" />
<glyph unicode="`" horiz-adv-x="571" d="M82 1303q0 23 22.5 40t49.5 17q68 0 102 -55q45 -74 117.5 -206t72.5 -153q0 -27 -26 -26q-23 0 -55 45q-70 96 -142.5 175t-106.5 113t-34 50z" />
<glyph unicode="a" d="M72 133q0 123 149 184l209 86q39 16 47 28.5t10 53.5l5 131v6q0 48 -33 86q-35 40 -88 40q-35 0 -74 -21.5t-51 -44.5q-8 -14 -8 -39q0 -4 1 -14.5t1 -14.5q0 -18 -58.5 -44.5t-83.5 -26.5q-16 0 -16 18q0 70 82 141q59 53 145 99.5t160 46.5q72 0 121 -54 q47 -51 47 -122v-6l-10 -443q-1 -157 73 -157q51 0 82 28q8 8 20.5 1t12.5 -19q0 -18 -56.5 -61.5t-107.5 -43.5t-85 27t-48 53.5t-18 26.5q-8 0 -37 -26.5t-85 -53.5t-130 -27q-63 0 -119.5 51.5t-56.5 110.5zM236 178q0 -53 32.5 -82.5t67.5 -29.5q59 0 123 55 q23 18 24 82l4 100v7q0 36 -18 36q-14 0 -29 -6q-204 -70 -204 -162z" />
<glyph unicode="b" horiz-adv-x="1054" d="M41 1335q0 20 14 25q47 10 87 24.5t84 33t61 24.5h2l2 2q12 0 12 -14q0 -2 -2 -33t-3 -81t-1 -102v-419q0 -66 18 -68q72 59 156 90t143 31q158 0 263.5 -118t105.5 -286q0 -197 -116.5 -335t-336.5 -138q-76 0 -186.5 30t-112.5 30q-14 0 -34.5 -18.5t-24.5 -18.5 q-12 0 -22.5 7t-10.5 17v11q2 12 5 29.5t5.5 41t3.5 54t1 61.5v944q0 129 -97 150q-16 4 -16 26zM297 270q0 -104 84 -169.5t197 -65.5q115 0 183 103.5t68 260.5q0 135 -75.5 250t-210.5 115q-49 0 -110.5 -18.5t-92.5 -53.5q-43 -45 -43 -174v-248z" />
<glyph unicode="c" horiz-adv-x="772" d="M72 369q0 195 123.5 336t308.5 141q166 0 246 -98q10 -14 10 -25q0 -25 -30 -47.5t-48 -22.5q-31 0 -51 21q-55 59 -88 77.5t-105 18.5q-106 0 -165.5 -92t-59.5 -215q0 -154 91 -269.5t235 -115.5q61 0 99 23.5t81 78.5q10 10 18 10t16.5 -9t8.5 -19q0 -61 -107.5 -126 t-232.5 -65q-152 0 -251 118t-99 280z" />
<glyph unicode="d" horiz-adv-x="1036" d="M72 389q0 186 127 322.5t333 136.5q41 0 95.5 -15.5t64.5 -27.5q14 -18 21 -19q8 0 8 50v323q0 78 -23.5 107.5t-81.5 42.5q-16 4 -16 26.5t14 24.5q63 14 121 35.5t88.5 34t40.5 12.5q12 0 15 -12q0 -6 -3.5 -38t-7.5 -95.5t-4 -145.5v-926q0 -133 43 -133q63 0 94 6 t31 -26q0 -29 -28 -29q-106 -14 -240 -70q-25 -12 -49 -12q-6 0 -6 8q0 12 5 64.5t5 70.5v13q-37 -57 -106.5 -101.5t-161.5 -44.5q-168 0 -273.5 127t-105.5 291zM223 436q0 -109 34 -187.5t85 -115.5t97 -53.5t87 -16.5q84 0 139.5 53.5t55.5 129.5v276q0 94 -69.5 174 t-182.5 80q-35 0 -73 -15.5t-79 -50t-67.5 -106.5t-26.5 -168z" />
<glyph unicode="e" horiz-adv-x="798" d="M61 416q0 176 118 304t290 128q123 0 195.5 -59.5t72.5 -170.5q0 -92 -71 -92h-426q-29 0 -40.5 -13t-11.5 -62q0 -143 88.5 -250t221.5 -107q47 0 103 22.5t93 69.5q14 14 23 15q23 0 12 -41q-18 -66 -106 -127.5t-217 -61.5q-143 0 -244 123t-101 322zM227 621 q0 -31 39 -31h168q96 0 150 10q20 2 20 57q0 57 -51 92t-117 35q-80 0 -144.5 -58t-64.5 -105z" />
<glyph unicode="f" horiz-adv-x="651" d="M49 12q0 20 47 37q88 27 88 90v578q-63 0 -106 4q-6 2 -17.5 14.5t-11.5 22.5q0 4 14 12q31 8 121 53q0 168 44 295t115 194.5t144.5 100.5t147.5 33q225 0 225 -123q0 -33 -20 -57.5t-49 -24.5q-16 0 -39 18.5t-43.5 42t-63.5 42t-96 18.5q-100 0 -160.5 -95.5 t-60.5 -293.5v-109q0 -45 51 -45h246q8 0 8 -22q0 -25 -8.5 -50.5t-18.5 -25.5h-196q-51 0 -66.5 -8t-15.5 -27v-547q0 -63 88 -90q47 -16 47 -37q0 -18 -41 -18q-43 0 -85 5t-77 5t-81 -5t-89 -5q-41 0 -41 18z" />
<glyph unicode="g" horiz-adv-x="890" d="M23 -360q0 63 31.5 109t68.5 67q113 74 143 121q-70 14 -127 52t-57 101q0 39 47 76q12 8 40 24.5t47.5 33t33.5 36.5q-37 8 -103.5 89t-66.5 179q0 139 106.5 231.5t249.5 92.5q53 0 122 -24.5t97 -30.5q41 -8 109 -9q18 0 59 3.5t49 3.5q18 0 19 -45q0 -35 -19 -35 q-41 0 -65.5 -2t-31.5 -4t-14 -5.5t-16 -5.5q-8 -22 -8 -94q0 -158 -98 -272.5t-236 -114.5q-68 0 -110 25q-90 -70 -90 -101q0 -66 196 -84q86 -8 127 -13t105.5 -15.5t95.5 -23.5t66.5 -35.5t49 -53.5t13.5 -74q0 -164 -148.5 -300t-308.5 -136q-154 0 -265 55.5 t-111 178.5zM168 -274q0 -104 70.5 -171t189.5 -67q123 0 213 82t90 207q0 51 -50 86t-114 47q-76 14 -200 20h-48q-25 -16 -102 -94q-49 -57 -49 -110zM227 553q0 -102 56.5 -183t140.5 -81q76 0 128 75.5t52 178.5q0 96 -55 172t-139 76q-82 0 -132.5 -77t-50.5 -161z" />
<glyph unicode="h" horiz-adv-x="1054" d="M39 12q0 20 47 37q27 8 42 15.5t30.5 24.5t15.5 44v1026q0 131 -92 150q-16 4 -16 26q0 20 14 25q51 12 237 82l5 2q4 0 14 -14q0 -4 -4 -30t-9.5 -89.5t-5.5 -159.5v-356q0 -55 17 -76q174 129 309 129q100 0 167 -80t67 -199v-430q0 -66 84 -90q47 -16 47 -37 q0 -18 -41 -18q-43 0 -84 5t-76 5t-76 -5t-84 -5q-41 0 -41 18q0 20 47 37q80 25 80 90v418q0 74 -60.5 129t-129.5 55q-113 0 -170 -45q-33 -27 -44.5 -56.5t-11.5 -90.5v-416q2 -61 78 -84q47 -16 47 -37q0 -18 -41 -18q-43 0 -81.5 5t-73.5 5t-79 -5t-87 -5q-41 0 -41 18 z" />
<glyph unicode="i" horiz-adv-x="501" d="M49 12q0 20 47 37q68 20 82 45q6 14 6 33v444q0 129 -96 150q-16 4 -16 27q0 20 14 24q59 14 117.5 44t91.5 51.5t37 21.5q14 0 14 -10q-18 -188 -18 -277v-475q0 -20 6 -33.5t24.5 -23t24.5 -11.5t33 -10q47 -16 47 -37q0 -18 -41 -18q-39 0 -85 5t-81 5t-80 -5t-86 -5 t-41 18zM135 1157q0 45 29.5 75t72.5 30q45 0 75 -30t30 -75q0 -43 -30 -72.5t-75 -29.5q-43 0 -72.5 29.5t-29.5 72.5z" />
<glyph unicode="j" horiz-adv-x="434" d="M-72 -567q0 23 23 35q84 20 135 129q59 125 59 544v430q0 131 -94 150q-16 4 -16 27q0 20 14 24q59 14 117.5 44t91.5 51.5t37 21.5q14 0 14 -10q-14 -148 -14 -316v-377q0 -328 -62 -497q-39 -104 -119.5 -190.5t-142.5 -86.5q-43 0 -43 21zM104 1155q0 45 29.5 75 t72.5 30q45 0 75 -30t30 -75q0 -43 -30 -72.5t-75 -29.5q-43 0 -72.5 29.5t-29.5 72.5z" />
<glyph unicode="k" horiz-adv-x="960" d="M39 12q0 20 47 37q27 8 42 15.5t30.5 24.5t15.5 44v1026q0 72 -21.5 105.5t-72.5 44.5q-16 4 -17 26q0 20 15 25q61 14 241 82h3l2 2q12 0 12 -19q0 -8 -4 -40.5t-9.5 -95t-5.5 -138.5v-678q0 -18 13 -14q29 6 71 43q184 162 234 231q2 2 2 6q0 23 -53 35q-25 8 -25 17 q0 29 45 28h101q43 0 116.5 12.5t79.5 12.5q16 0 17 -15q0 -12 -13.5 -25t-27.5 -18q-59 -12 -144 -63q-47 -29 -262 -217q-23 -18 -6 -35q74 -88 169 -191.5t132 -136.5q74 -70 168 -98q47 -16 47 -37q0 -18 -41 -18q-51 0 -178 5t-195 5q-47 0 -47 18q0 23 45 39.5 t45 36.5q0 10 -14 29l-258 297q-4 6 -12.5 3t-8.5 -15q-2 -39 -2 -132q0 -96 2 -143q0 -63 72 -84q47 -16 47 -37q0 -18 -47 -18q-41 0 -74.5 5t-68.5 5t-77 -5t-83 -5q-47 0 -47 18z" />
<glyph unicode="l" horiz-adv-x="491" d="M39 12q0 20 47 37q68 20 82 45q6 14 6 33v1032q0 129 -94 150q-16 4 -17 26q0 20 15 25q51 12 237 82h2l2 2q12 0 13 -14q0 -6 -4 -38t-7.5 -95.5t-3.5 -145.5v-1024q0 -20 6.5 -33.5t25 -23t24.5 -11.5t33 -10q47 -16 47 -37q0 -18 -41 -18t-86 5t-80 5t-80 -5t-86 -5 t-41 18z" />
<glyph unicode="m" horiz-adv-x="1593" d="M49 12q0 20 47 37q68 20 82 45q6 14 6 33v440q0 63 -16 100.5t-64 47.5q-16 4 -16 26q0 20 14 25q27 6 50.5 14t40 15.5t39 20.5t31.5 19.5t34 24t33 21.5q14 0 14 -15q0 -6 -5 -57t-5 -74q0 -20 4 -24q147 137 324 137q137 0 190 -123q6 -16 13 -19.5t16.5 3t29.5 24.5 q125 115 295 115q94 0 149.5 -85t55.5 -200v-436q0 -20 6 -33.5t24.5 -23t25 -11.5l32.5 -10q47 -16 47 -37q0 -18 -41 -18q-43 0 -85 5t-76.5 5t-80.5 -5t-89 -5q-41 0 -41 18q0 20 47 37q2 0 8 2q68 20 78 55q2 8 2 21v430q0 76 -49.5 135.5t-114.5 59.5q-109 0 -178 -56 q-57 -43 -58 -147v-422q0 -8 1 -16.5t6.5 -14.5t7.5 -11t10 -9t11 -7t14.5 -6.5t13.5 -4.5t14 -5t15 -4q47 -16 47 -37q0 -18 -41 -18q-43 0 -88 5t-80 5t-81 -5t-89 -5q-41 0 -41 18q0 20 47 37q68 20 82 45q8 12 8 33v430q0 76 -49 135.5t-115 59.5q-109 0 -178 -56 q-55 -41 -55 -147v-422q0 -20 6 -33.5t24.5 -23t24.5 -11.5t33 -10q47 -16 47 -37q0 -18 -41 -18q-43 0 -87 5t-79 5t-79 -5t-87 -5q-41 0 -41 18z" />
<glyph unicode="n" horiz-adv-x="1081" d="M49 12q0 20 47 37q68 20 82 45q6 14 6 33v440q0 63 -16 100.5t-64 47.5q-16 4 -16 26q0 20 14 25q27 6 50.5 14t40 15.5t39 20.5t31.5 19.5t34 24t33 21.5q14 0 14 -15q0 -6 -5 -57t-5 -74q0 -20 4 -24q143 137 330 137q98 0 164.5 -82t66.5 -203v-436q0 -20 6 -33.5 t24.5 -23t25 -11.5l32.5 -10q47 -16 47 -37q0 -18 -41 -18q-43 0 -86 5t-77.5 5t-79.5 -5t-88 -5q-41 0 -41 18q0 20 47 37q2 0 8 2q68 20 78 55q2 8 2 21v430q0 88 -50.5 139.5t-134.5 53.5q-123 0 -188 -54q-55 -41 -55 -147v-422q0 -20 6 -33.5t24.5 -23t24.5 -11.5 t33 -10q47 -16 47 -37q0 -18 -41 -18q-43 0 -87 5t-79 5t-79 -5t-87 -5q-41 0 -41 18z" />
<glyph unicode="o" horiz-adv-x="1013" d="M72 383q0 176 132 320.5t316 144.5q176 0 299 -122t123 -290q0 -193 -122 -329t-341 -136q-174 0 -290.5 117t-116.5 295zM240 430q0 -158 81.5 -277.5t200.5 -119.5q154 0 211 112q41 80 41 242q0 154 -82 275.5t-207 121.5q-117 0 -180 -82q-65 -81 -65 -266v-6z" />
<glyph unicode="p" horiz-adv-x="1062" d="M39 -565q0 20 47 37q68 20 82 45q6 14 6 32v1039q0 35 -24.5 87t-69.5 62q-16 4 -17 27q0 20 15 24q86 20 237 82l2 2h2q12 0 13 -18q0 -10 -5 -57t-5 -66q0 -16 2 -18q39 39 142 87t189 48q152 0 244 -117t92 -270q0 -188 -136 -339t-325 -151q-45 0 -110.5 19.5 t-93.5 46.5q-8 0 -9 -105v-383q0 -16 7.5 -27t24 -20.5t27.5 -13.5t33.5 -9t26.5 -7q47 -16 47 -37q0 -18 -45 -19q-41 0 -99 5.5t-93 5.5t-79 -5.5t-85 -5.5q-43 0 -43 19zM317 420q0 -98 5 -184q6 -109 49 -150q55 -51 190 -51q35 0 77 18.5t86 57.5t73.5 113.5 t29.5 170.5q0 111 -29.5 189t-77.5 111.5t-89 47t-82 13.5q-98 0 -176 -60q-47 -35 -54 -145q0 -16 -1 -60.5t-1 -70.5z" />
<glyph unicode="q" horiz-adv-x="1069" d="M72 365q0 217 140 350t366 133q61 0 123.5 -11.5t101.5 -21.5l37 -12q20 0 30.5 11t22.5 40q8 8 14 8q10 0 21.5 -6t11.5 -14q0 -2 -12.5 -85t-12.5 -153v-1055q0 -12 6.5 -23t12.5 -18.5t20.5 -13.5t21.5 -9t25.5 -8t20.5 -5q47 -16 47 -37q0 -18 -41 -19h-7 q-38 0 -87 6q-53 5 -90 5q-35 0 -79 -5.5t-87 -5.5q-41 0 -41 19q0 20 47 37q2 0 8 2q68 20 78 55q2 8 2 20v441q0 61 -12 61q-8 0 -19 -10q-80 -70 -260 -70q-170 0 -289.5 105.5t-119.5 288.5zM240 420q0 -184 101 -277.5t216 -93.5t176 47q41 29 41 254q0 162 -2 213 q-4 92 -75 155.5t-171 63.5q-119 0 -202.5 -97t-83.5 -265z" />
<glyph unicode="r" horiz-adv-x="684" d="M59 12q0 20 47 37q27 8 39.5 13.5t25.5 21.5t13 43v440q0 129 -84 148q-20 4 -20 26q0 20 18 25q37 8 74 23.5t57.5 28.5t53 33.5t43.5 27.5q2 0 2 1t2 1q8 0 12 -15q0 -55 -6 -153q0 -4 2 -4q4 0 12 10t19.5 23.5t17.5 17.5q98 88 188 88q43 0 71 -18.5t28 -47.5 q0 -33 -25.5 -69.5t-54.5 -36.5q-16 0 -59 18.5t-64 18.5q-59 0 -101 -39t-42 -133v-404q2 -55 110 -88q47 -16 47 -37q0 -18 -41 -18q-43 0 -93 5t-85 5t-79 -5t-87 -5q-41 0 -41 18z" />
<glyph unicode="s" horiz-adv-x="661" d="M61 170q0 18 35 18q29 0 31 -14q10 -53 69.5 -100t120.5 -47q72 0 108 38.5t36 104.5q0 49 -37 89t-119 97q-92 66 -144 124.5t-52 125.5q0 100 67.5 171t206.5 71q106 0 154 -47q34 -42 34 -154v-6q0 -8 -12 -8q-16 0 -43 15.5t-27 27.5q-2 45 -41 82t-88 37 q-59 0 -94 -37t-35 -99q0 -37 35 -77.5t60.5 -58t79.5 -50.5q51 -33 81.5 -55.5t71.5 -80.5t41 -120q0 -246 -295 -246q-76 0 -141.5 26t-75.5 48q-23 47 -27 125z" />
<glyph unicode="t" horiz-adv-x="643" d="M72 762q0 8 10 14q47 14 97 59.5t82 84t38 38.5q37 0 35 -20l-17 -90q-2 -12 13.5 -20.5t38.5 -8.5h233q20 0 20.5 -49t-20.5 -49h-203q-55 0 -68.5 -8t-13.5 -49v-388q0 -104 39 -148t97 -44q102 0 153 39q8 6 14.5 -3t6.5 -24q0 -12 -33 -41.5t-91.5 -56.5t-115.5 -27 q-100 0 -156.5 60.5t-56.5 183.5v475q0 18 -15.5 24.5t-62.5 6.5q-6 0 -15 15.5t-9 25.5z" />
<glyph unicode="u" horiz-adv-x="1079" d="M59 778q0 29 31 35q72 2 211 35q14 2 22.5 -6t6.5 -23q-12 -94 -13 -157v-400q0 -74 53.5 -130t118.5 -56q119 0 173 41q92 68 92 153v375q0 55 -43 77.5t-90 25.5q-47 0 -48 34q0 16 17.5 23.5t30.5 7.5q61 2 98 5t63.5 7t35.5 5t32 8.5t35 11.5h4q14 0 23.5 -12.5 t0.5 -24.5q-16 -29 -16 -145v-435q0 -141 37 -141q63 0 94 6t31 -26q0 -29 -29 -29q-106 -14 -239 -70q-25 -12 -50 -12q-6 0 -6 8q0 12 5 64.5t5 70.5v13q-147 -145 -337 -146q-104 0 -169 63.5t-65 180.5v416q0 82 -88 117q-27 8 -27 30z" />
<glyph unicode="v" horiz-adv-x="897" d="M10 811q0 18 41 18t78 -5t72 -5t73.5 5t79.5 5t41 -18q0 -20 -47 -37q-41 -12 -41 -84q0 -33 8 -55l152 -408q8 -23 12 -22.5t13 20.5l147 379q14 37 14 74q0 82 -51 96q-47 16 -47 37q0 18 41 18q10 0 59.5 -5t90 -5t73.5 5t47 5q41 0 41 -18q0 -20 -47 -37 q-33 -10 -69.5 -49t-57.5 -88l-160 -385l-75 -205q-45 -92 -56 -92q-14 0 -41 80l-249 639q-35 82 -95 100q-47 16 -47 37z" />
<glyph unicode="w" horiz-adv-x="1402" d="M10 811q0 18 41 18l150 -10q156 10 170 10q41 0 41 -18q0 -20 -47 -37q-43 -12 -43 -82q0 -27 10 -53l155 -401q14 -39 31 2l135 329q12 33 13 62q0 53 -33 93t-70 50q-47 12 -47 37q0 18 41 18q14 0 62.5 -5t91.5 -5q41 0 97 5t75 5q41 0 41 -18q0 -20 -47 -37 q-70 -23 -70 -74q0 -27 14 -61l154 -395q16 -39 33 -2l155 362q14 31 15 64q0 41 -22.5 69.5t-49.5 36.5q-47 16 -47 37q0 18 41 18q29 0 71.5 -5t81.5 -5q41 0 71 5t48 5q41 0 41 -18q0 -20 -47 -37q-58 -16 -109 -135l-280 -672q-6 -14 -19 -14q-8 0 -16 14l-213 529 q-12 31 -27 -2l-223 -527q-8 -14 -16 -14q-10 0 -14 14l-285 707q-31 78 -107 100q-47 16 -47 37z" />
<glyph unicode="x" horiz-adv-x="880" d="M20 10q0 25 48 37q55 16 137 117l174 217q18 23 4 47l-166 258q-43 72 -94 86q-47 12 -47 37q0 18 47 18q37 0 72.5 -3.5t89.5 -4.5q25 0 53.5 2t50.5 3q47 0 47 -19q0 -16 -40 -29.5t-40 -34.5q0 -23 27 -65l82 -127q10 -18 16 -10l101 153q16 23 16 45q0 25 -27 33 q-47 16 -47 37q0 18 47 18q8 0 46 -3t57 -3q43 0 80 5t49 5q41 0 41 -18q0 -20 -47 -37q-98 -29 -146 -96l-133 -189q-8 -12 2 -26l199 -330q43 -72 94 -86q47 -12 47 -37q0 -18 -41 -18q-39 0 -79 4t-93 4q-25 0 -76 -1t-73 -1q-47 0 -47 18q0 25 57 43.5t57 46.5 q0 16 -12 37l-111 189q-10 16 -16 6l-137 -201q-10 -16 -10 -39q0 -37 28 -45q47 -16 47 -37q0 -18 -47 -18q-10 0 -50 2t-58 2q-43 0 -83 -5t-55 -5q-41 0 -41 18z" />
<glyph unicode="y" horiz-adv-x="897" d="M10 811q0 18 41 18q43 0 79 -5t71 -5t73.5 5t81.5 5q41 0 41 -22q0 -29 -59 -45q-41 -12 -41 -66q0 -18 16 -57l162 -401q16 -39 31 2l137 364q16 37 16 76q0 61 -41 78q-59 27 -59 49t41 22q14 0 58 -5t87 -5q41 0 72 5t49 5q41 0 41 -18q0 -20 -47 -37 q-31 -10 -65.5 -49t-55.5 -88l-278 -664q-2 -6 -34 -81.5t-79 -190.5t-84 -201q-37 -84 -133 -84q-39 0 -71.5 20.5t-32.5 53.5q0 61 55 61q16 0 44 -6t38 -6q25 0 39 23q94 162 186 405q6 18 6 47q0 37 -8 60l-237 600q-35 84 -93 100q-47 16 -47 37z" />
<glyph unicode="z" horiz-adv-x="772" d="M51 25q0 16 76 118q152 217 381 582q14 20 -19 20h-239q-10 0 -20.5 -5t-21.5 -17t-19.5 -23.5t-22.5 -31t-23 -31.5q-2 -2 -10 -13.5t-14 -17.5t-15.5 -13t-15.5 -7q-12 0 -15 16t3 29q35 82 35 184q0 14 11 25.5t19.5 11.5t30.5 -18q14 -12 88 -13q16 0 43 1t35 1 q195 0 381 6q8 0 13 -9t1 -15q-41 -49 -78 -103l-395 -600q-6 -10 4 -20t21 -10h239q41 0 81 39t95 118l7 13q6 10 10 16t12 13.5t16 7.5q16 0 17 -48q0 -29 -57 -213q-2 -8 -11.5 -18t-17.5 -10t-153.5 5t-278.5 5q-31 0 -90.5 -5t-73.5 -5q-8 0 -18.5 13t-10.5 22z" />
<glyph unicode="{" horiz-adv-x="763" d="M51 578q0 6 3 8t9.5 2t10.5 2q195 72 194 237q0 61 -13 176t-13 189q0 133 125 202.5t288 69.5q37 0 37 -30q0 -25 -53 -25q-111 0 -187.5 -51t-76.5 -156q0 -72 13 -184.5t13 -169.5q0 -92 -70.5 -164t-150.5 -104q-8 -5 4 -9q63 -16 140 -98t77 -172q0 -57 -13 -170 t-13 -184q0 -104 76.5 -155.5t187.5 -51.5q53 0 53 -25q0 -31 -37 -30q-164 0 -288.5 69.5t-124.5 202.5q0 74 13 188.5t13 176.5q0 166 -194 237q-23 8 -23 19z" />
<glyph unicode="|" horiz-adv-x="532" d="M205 -563v1947q0 29 37 46.5t57 17.5q10 0 19.5 -8t9.5 -19v-1964q0 -27 -35 -38t-64 -11q-8 0 -16 9.5t-8 19.5z" />
<glyph unicode="}" horiz-adv-x="763" d="M72 -285q0 25 53 25q111 0 187.5 51t76.5 156q0 72 -13.5 184.5t-13.5 169.5q0 90 77.5 172t140.5 98q10 4 4 9q-80 33 -151 104.5t-71 163.5q0 57 13.5 169.5t13.5 184.5q0 104 -76.5 155.5t-187.5 51.5q-53 0 -53 25q0 31 37 30q164 0 288.5 -69.5t124.5 -202.5 q0 -74 -13 -188.5t-13 -176.5q0 -166 194 -237q4 -2 10.5 -2t9.5 -2t3 -8q0 -10 -23 -19q-195 -72 -194 -237q0 -61 13 -176t13 -189q0 -133 -125 -202.5t-288 -69.5q-37 0 -37 30z" />
<glyph unicode="~" horiz-adv-x="1024" d="M102 571q0 25 98.5 117t157.5 92q43 0 151.5 -49t180.5 -49q41 0 91 25.5t84 50t36 24.5q6 0 13.5 -15t7.5 -26q0 -31 -95.5 -120t-160.5 -89q-47 0 -166 49.5t-176 49.5q-41 0 -86 -24.5t-74 -48t-31 -23.5q-12 0 -21.5 12t-9.5 24z" />
<glyph unicode="&#xa1;" horiz-adv-x="563" d="M133 889q0 51 36 87t87 36t87 -36t36 -87t-36 -87t-87 -36t-87 36t-36 87zM152 -217q0 82 47 637q4 47 19 83t38 36q14 0 27.5 -35t17.5 -72q55 -535 55 -653q0 -61 -25.5 -104.5t-72.5 -43.5q-53 0 -79.5 43t-26.5 109z" />
<glyph unicode="&#xa2;" horiz-adv-x="843" d="M72 385q0 176 117.5 309t297.5 150l11 102q4 35 45 35q12 0 20 -11.5t6 -23.5l-10 -100q145 -8 219 -98q8 -10 8 -25q0 -27 -49 -61q-16 -8 -26 -9q-33 0 -43 21q-47 84 -117 102l-70 -682q10 -2 31 -2q178 0 236 88q6 10 18 10q10 0 18.5 -7t8.5 -17q0 -6 -2 -8 q-109 -180 -324 -187l-10 -104q-4 -31 -39 -31q-14 0 -24.5 8.5t-8.5 22.5l12 108q-133 23 -229 142t-96 268zM209 455q0 -131 54.5 -221t146.5 -125l71 677h-4q-117 0 -192.5 -103t-75.5 -228z" />
<glyph unicode="&#xa3;" horiz-adv-x="1003" d="M-20 35q0 35 61 86t135 65q10 2 23 25q55 98 65 401l-172 -12q-10 0 -19.5 7t-9.5 18q0 14 15.5 32.5t34.5 20.5l153 10v10q0 145 46 275.5t150.5 222.5t248.5 92q207 0 207 -168q0 -39 -32 -76.5t-55 -37.5q-25 0 -24 28q0 6 1 21.5t1 23.5q-2 51 -46 100.5t-95 49.5 q-100 0 -159.5 -140.5t-62.5 -388.5l273 19q10 0 18 -8.5t8 -16.5q0 -12 -21.5 -32.5t-41.5 -20.5l-240 -16q-14 -125 -68.5 -252t-97.5 -164q-6 -4 -4 -11.5t13 -7.5q129 0 261 -62t226 -62q47 0 82 33.5t35 78.5q0 20 -13.5 52t-13.5 53v15t2 12t6 10.5t11 3.5 q43 -4 69.5 -35t26.5 -74q0 -117 -94.5 -203t-218.5 -86q-94 0 -161 29t-167 98q-82 59 -131 60q-10 0 -40 -32t-50 -69q-23 -41 -74 -41q-27 0 -44 18.5t-17 45.5z" />
<glyph unicode="&#xa4;" horiz-adv-x="989" d="M78 199q0 10 6 16l96 96q-80 104 -80 241.5t80 240.5l-96 96q-6 6 -6 14q0 20 21.5 42t41.5 22q10 0 17 -6l92 -93q111 84 244 84q139 0 241 -84l94 95q6 6 17 6q18 0 39.5 -20.5t21.5 -41.5q0 -12 -8 -20l-92 -92q80 -104 80 -241.5t-80 -242.5l96 -96q6 -6 6 -14 q0 -20 -21.5 -42t-41.5 -22q-10 0 -17 6l-94 95q-102 -84 -241.5 -84t-241.5 84l-96 -95q-6 -6 -17 -6q-20 0 -40.5 20.5t-20.5 41.5zM203 553q0 -123 85 -210t205.5 -87t205.5 87t85 210t-85 210t-205.5 87t-205.5 -87t-85 -210z" />
<glyph unicode="&#xa5;" horiz-adv-x="1267" d="M10 1315q0 23 60 22q27 0 107.5 -3t131.5 -3q35 0 90.5 2t73.5 2q59 0 59 -22q0 -18 -67 -41q-57 -20 -57 -68q0 -29 18 -57l190 -338q47 -80 62 -80q16 0 63 80q115 168 170 285q14 31 15 69q0 90 -62 107q-68 18 -67.5 40.5t59.5 22.5q31 0 78 -1t76 -1q41 0 108.5 3 t87.5 3q59 0 60 -22q0 -27 -68 -41q-82 -16 -205 -197l-229 -368q-31 -45 -37 -64h250q27 0 27 -22q0 -16 -20.5 -33t-43.5 -17h-223v-98h258q27 0 26 -22q0 -16 -20 -33t-43 -17h-221v-182q0 -143 160 -172q68 -12 67 -37q0 -23 -59 -22q-57 0 -126 5t-114 5q-51 0 -129 -5 t-133 -5q-59 0 -59 22q0 25 67 37q160 29 160 172l2 182h-258q-10 0 -19.5 7.5t-9.5 17.5q0 14 15.5 30.5t33.5 16.5h238v49q0 20 -4 49h-254q-10 0 -19.5 8.5t-9.5 16.5q0 14 15.5 30.5t33.5 16.5h217q-14 27 -18 31l-254 393q-35 53 -54.5 80t-59.5 70t-68 51 q-68 20 -68 45z" />
<glyph unicode="&#xa6;" horiz-adv-x="532" d="M205 319q0 14 40 31t54 17q10 0 19.5 -14.5t9.5 -30.5v-867q0 -27 -35 -38t-64 -11q-8 0 -16 9.5t-8 19.5v884zM205 612v768q0 29 37 46.5t57 17.5q10 0 19.5 -8.5t9.5 -18.5v-809q0 -14 -40.5 -28.5t-58.5 -14.5q-8 0 -16 15.5t-8 31.5z" />
<glyph unicode="&#xa7;" horiz-adv-x="819" d="M49 674q0 127 34 212t101 165q27 100 105 180t180 80q100 0 143 -39q25 -20 25 -37q0 -14 -25.5 -55t-52.5 -41q-14 0 -27 12q-78 70 -126 70q-57 0 -91 -38t-34 -91q0 -113 213 -304q123 -111 169 -215t46 -247q0 -104 -22.5 -176t-80.5 -173q-98 -170 -244 -258 q-37 -23 -110 -22q-53 0 -90 18.5t-37 46.5q0 63 57 107q16 10 45 -12q55 -49 142 -50q106 0 106 168q0 20 -6 43t-22.5 49.5t-28.5 45t-41 50.5t-42 46t-48 50t-45 46q-193 197 -193 369zM150 788q0 -102 44 -186t140 -184q180 -184 227 -262q16 -29 25 -52q4 -8 11 -7t9 7 q23 86 23 150q0 102 -44.5 186.5t-140.5 184.5q-180 184 -227 262q-16 29 -24 51q-4 8 -11.5 7t-9.5 -7q-23 -86 -22 -150z" />
<glyph unicode="&#xa8;" horiz-adv-x="649" d="M41 1073q0 39 31.5 71t70.5 32t71 -32t32 -71t-32 -70.5t-71 -31.5t-70.5 31.5t-31.5 70.5zM403 1073q0 39 32 71t71 32t70.5 -32t31.5 -71t-31.5 -70.5t-70.5 -31.5t-71 31.5t-32 70.5z" />
<glyph unicode="&#xa9;" horiz-adv-x="1361" d="M88 670q0 256 182.5 438t438.5 182t438 -182t182 -438t-183 -438.5t-439 -182.5t-437.5 182.5t-181.5 438.5zM170 670q0 -225 156.5 -388t380.5 -163q225 0 382.5 161.5t157.5 389.5q0 223 -157.5 380.5t-381 157.5t-381 -157.5t-157.5 -380.5zM385 672q0 147 118 243.5 t275 96.5q53 0 109 -13q8 -4 38.5 -11t39.5 -9q16 -6 16 -94q0 -31 -2 -47q0 -6 -7 -15.5t-14 -7.5q-12 0 -24 31q-16 45 -61.5 74.5t-112.5 29.5q-102 0 -167 -78.5t-65 -193.5q0 -121 64.5 -211t177.5 -90q135 0 176 84q16 31 35 31q10 0 10 -27q0 -18 -14 -55t-27 -50 q-45 -45 -215 -45q-143 0 -246.5 108.5t-103.5 248.5z" />
<glyph unicode="&#xaa;" horiz-adv-x="552" d="M51 354q0 14 15.5 30.5t33.5 16.5h422q10 0 19.5 -7t9.5 -15q0 -2 -2 -6q-23 -43 -64 -43h-405q-10 0 -19.5 7t-9.5 17zM51 670q0 41 15.5 66.5t62.5 41.5l162 58q27 8 32 16t5 33v47q0 33 -20.5 53.5t-55.5 20.5q-72 0 -90 -29q-2 -4 -2 -49q0 -10 -41 -24.5 t-51.5 -14.5t-10.5 10q0 14 15.5 42t38.5 46q35 31 96 58.5t108 27.5t86 -32.5t39 -75.5v-254q0 -80 39 -80q16 0 27.5 5t17.5 11l6 4q6 0 12.5 -10t6.5 -23q0 -6 -14.5 -21t-38.5 -31.5t-47 -16.5q-33 0 -58.5 16.5t-39 31.5t-15.5 15q-6 0 -24.5 -15t-55.5 -31.5 t-84 -16.5q-41 0 -81 42t-40 79zM164 700q0 -33 21.5 -51t43.5 -18q33 0 82 39q16 12 17 47v59q0 31 -31 23q-133 -38 -133 -99z" />
<glyph unicode="&#xab;" horiz-adv-x="1384" d="M205 432q0 10 6 14q299 178 463 336q37 37 59 37q12 0 12 -18q0 -43 -101 -153.5t-220 -203.5q-6 -4 -9 -7t-3 -7t3 -7t9 -7q111 -86 214 -201t103 -152q0 -25 -18 -24q-24 0 -61 37q-193 193 -420 297q-14 8 -25.5 26.5t-11.5 32.5zM639 432q0 10 6 14q299 178 463 336 q37 37 59 37q12 0 13 -18q0 -43 -101.5 -153.5t-220.5 -203.5q-6 -4 -9 -7t-3 -7t3 -7t9 -7q111 -86 214.5 -201t103.5 -152q0 -25 -19 -24q-24 0 -61 37q-193 193 -420 297q-14 8 -25.5 26.5t-11.5 32.5z" />
<glyph unicode="&#xac;" horiz-adv-x="1228" d="M102 684q0 10 2 23.5t6.5 32t15.5 30.5t26 12h948q10 0 18 -9t8 -19v-617q0 -27 -34.5 -38t-63.5 -11q-8 0 -16 9t-8 20v506q0 37 -29 36h-844q-10 0 -19.5 8.5t-9.5 16.5z" />
<glyph unicode="&#xad;" horiz-adv-x="561" d="M59 360q0 37 9.5 73t23.5 38q262 37 393 51q16 0 17 -12q0 -104 -43 -111q-276 -41 -387 -51q-12 0 -13 12z" />
<glyph unicode="&#xae;" horiz-adv-x="1361" d="M88 670q0 256 182.5 438t438.5 182t438 -182t182 -438t-183 -438.5t-439 -182.5t-437.5 182.5t-181.5 438.5zM170 670q0 -225 156.5 -388t380.5 -163q225 0 382.5 161.5t157.5 389.5q0 223 -157.5 380.5t-381 157.5t-381 -157.5t-157.5 -380.5zM410 375q0 25 39 37 q29 8 40 21t11 44v387q0 16 -1 27.5t-1 20t-3 14.5t-3 9t-6.5 6t-8.5 3t-11 3t-13 3q-39 10 -39 37q0 29 41 29h295q86 0 149.5 -43t63.5 -119q0 -59 -30 -101t-71 -59q-16 -6 0 -35l135 -227q20 -35 64 -35q2 0 8 1t11 1t9.5 -2t4.5 -8q0 -25 -29 -40t-61 -15 q-82 0 -119 61l-119 199q-37 61 -111 61q-33 0 -32 -22l2 -156q0 -20 12 -34.5t23.5 -18.5t33.5 -12q39 -12 39 -37q0 -8 -11 -15.5t-22 -7.5q-33 0 -69.5 4t-63 4t-59.5 -4t-66 -4q-10 0 -21 7.5t-11 15.5zM623 762q0 -41 55 -41q63 0 108 34t45 91q0 49 -37.5 79.5 t-93.5 30.5q-78 0 -77 -61v-133z" />
<glyph unicode="&#xaf;" horiz-adv-x="614" d="M62 1051q0 25 12 56.5t37 31.5h416q10 0 18 -8t8 -16q0 -37 -16 -62.5t-47 -25.5h-399q-10 0 -19.5 8t-9.5 16z" />
<glyph unicode="&#xb0;" horiz-adv-x="593" d="M51 1081.5q0 98.5 74 169t172 70.5t172 -70.5t74 -169t-75 -178.5t-171 -80t-171 80t-75 178.5zM147 1071q0 -61 44.5 -106t105.5 -45t105 45t44 106q0 63 -44 107.5t-105 44.5t-105.5 -44.5t-44.5 -107.5z" />
<glyph unicode="&#xb1;" horiz-adv-x="1208" d="M102 102q0 23 12.5 50.5t37.5 27.5h927q10 0 19.5 -7t9.5 -15q0 -2 -2 -6q-8 -25 -13.5 -36.5t-18.5 -24.5t-32 -13h-911q-10 0 -19.5 8t-9.5 16zM102 743q0 23 12.5 50.5t37.5 27.5h387q14 0 14 17v350q0 25 29.5 44t44.5 19q10 0 19 -8t9 -18v-391q0 -10 1 -11.5 t8 -1.5h415q10 0 19.5 -7t9.5 -15l-2 -2v-4q-8 -25 -13.5 -36.5t-18.5 -24.5t-32 -13h-378q-8 0 -9 -8v-414q0 -25 -27.5 -37t-49.5 -12q-8 0 -16.5 9t-8.5 19v433q0 10 -8 10h-414q-10 0 -19.5 7t-9.5 17z" />
<glyph unicode="&#xb2;" horiz-adv-x="614" d="M47 909q0 10 10 21l80 82q2 2 27.5 25.5t47 44t51.5 55t50.5 65.5t36 68t15.5 67q0 55 -35 92t-82 37q-55 0 -87 -15t-75 -62q-4 -10 -12 -11.5t-14.5 5t-6.5 16.5q0 43 73 110.5t167 67.5q78 0 132 -56.5t54 -134.5q0 -14 -2 -27t-6 -26.5t-8 -23t-12.5 -22.5t-12.5 -19 t-14 -22.5t-14 -20.5q-20 -31 -66.5 -77t-89.5 -85t-47 -43q-6 -6 4 -9t20 -3h142q45 0 87 27.5t64 74.5q8 20 31 16q8 0 8 -10q0 -2 -1 -4t-1 -4q-41 -115 -55 -186q-4 -27 -19 -27h-6q-104 6 -172 6q-147 0 -252 -4q-4 -2 -7 2t-3 10z" />
<glyph unicode="&#xb3;" horiz-adv-x="614" d="M94 956q0 14 12.5 36t24.5 22q16 0 27 -10q68 -45 133 -46q20 0 43.5 8.5t50.5 43t27 88.5q0 51 -39 83.5t-99 32.5q-23 0 -75 -14q-6 -2 -15.5 1t-13.5 10.5t0 11.5q14 14 31.5 23t39 16.5t29.5 11.5q61 33 87 58.5t26 72.5q0 31 -33 53.5t-63 22.5q-86 0 -148 -62 q-12 -12 -16 -12q-6 0 -12.5 8t-4.5 15q76 147 211 147q180 0 181 -145q0 -76 -121 -136q-6 -2 -6 -9t6 -7q59 0 100 -45t41 -109q0 -113 -95.5 -175t-193.5 -62q-135 0 -135 67z" />
<glyph unicode="&#xb4;" horiz-adv-x="782" d="M293 946q0 20 69.5 150.5t110.5 197.5q22 37 102 37q72 0 72 -39q0 -16 -30.5 -47t-101.5 -107.5t-140 -172.5q-33 -45 -56 -45q-27 0 -26 26z" />
<glyph unicode="&#xb5;" horiz-adv-x="1044" d="M63 0q0 14 7.5 83t7.5 105q0 31 -7.5 238t-7.5 254q0 74 26 125t81 51q80 0 80 -154q0 -43 -32 -217t-32 -215q0 -47 49.5 -107.5t110.5 -60.5q147 0 225 148q37 72 54.5 146.5t20.5 126.5t3 157q0 68 25.5 119t75.5 51q80 0 79 -129q0 -33 -49 -182.5t-49 -206.5 q0 -70 34 -135.5t95 -65.5q33 0 67 22.5t55.5 46t27.5 23.5q23 0 22 -18q0 -106 -63.5 -171t-137.5 -65q-49 0 -77.5 27t-59.5 102q-18 57 -26 135q-12 -31 -44 -84t-90.5 -114.5t-103.5 -61.5q-47 0 -87 14.5t-65.5 32t-76.5 58.5q-8 6 -20.5 19.5t-21.5 21.5t-16 8 q-20 0 -20 -70q0 -74 24 -217q12 -70 45 -151.5t61 -138t28 -70.5q0 -63 -58 -64q-88 0 -129 105q-12 35 -21.5 191.5t-9.5 287.5z" />
<glyph unicode="&#xb6;" horiz-adv-x="1200" d="M94 782q0 170 107.5 297t269.5 187.5t344 60.5q195 0 287 -12q31 -6 31 -41q0 -16 -9.5 -39t-19.5 -23q-2 0 -35 8.5t-84 16.5t-96 8q-14 0 -25.5 -11t-11.5 -26v-1548q0 -80 -65.5 -164t-165.5 -84q-74 0 -127.5 47t-53.5 119q0 57 42 96t102 39q43 0 76.5 -25.5 t33.5 -64.5q0 -35 -22.5 -61.5t-48.5 -26.5q-23 0 -58 19.5t-41 19.5q-10 0 -10 -20q0 -39 28.5 -65t69.5 -26q70 0 115 48.5t45 119.5v562q0 51 -27 51q-260 0 -455.5 150.5t-195.5 387.5z" />
<glyph unicode="&#xb7;" horiz-adv-x="409" d="M92 420q0 47 34 79.5t79 32.5t78.5 -32.5t33.5 -79.5t-33.5 -80t-78.5 -33t-79 33t-34 80z" />
<glyph unicode="&#xb8;" horiz-adv-x="772" d="M227 -477q0 18 9.5 28.5t17.5 10.5l33 -13q35 -10 75 -10q80 0 80 92q0 55 -32.5 86t-88.5 31q-14 0 -30.5 -6t-22.5 -6q-12 0 -24.5 9t-12.5 22q0 6 11 20l180 229h63l-80 -104q-8 -8 -8 -16q0 -18 23 -25q53 -23 89 -65t36 -91q0 -111 -93.5 -193.5t-162.5 -82.5 q-61 0 -62 84z" />
<glyph unicode="&#xb9;" horiz-adv-x="614" d="M119 928q0 23 22 22q35 2 54.5 7.5t38 27t18.5 59.5v314q0 57 -111 96q-23 8 -22 27q0 25 20 28q45 4 99.5 29t89.5 46.5t37 21.5q23 0 18 -29q-8 -53 -8 -111q0 -51 -1 -143t-1 -117q0 -113 2 -162q2 -59 17.5 -71t84.5 -23q25 -4 25 -26q0 -25 -25 -25q-66 0 -103.5 5 t-64 5t-66.5 -5t-102 -5q-23 0 -22 29z" />
<glyph unicode="&#xba;" horiz-adv-x="632" d="M51 354q0 14 15.5 30.5t33.5 16.5h455q10 0 19.5 -7t9.5 -15q0 -2 -2 -6q-23 -43 -64 -43h-438q-10 0 -19.5 7t-9.5 17zM51 795q0 115 82 196.5t195 81.5q100 0 177 -73.5t77 -172.5q0 -115 -74 -196.5t-205 -81.5q-104 0 -178 68.5t-74 177.5zM176 823q0 -86 43 -148.5 t109 -62.5q63 0 96 52.5t33 132.5q0 84 -42 146.5t-110 62.5q-66 0 -97.5 -52.5t-31.5 -130.5z" />
<glyph unicode="&#xbb;" horiz-adv-x="1384" d="M205 801q0 18 12 18q23 0 59 -37q164 -158 463 -336q6 -4 6 -14q0 -14 -11 -32.5t-25 -26.5q-227 -104 -420 -297q-37 -37 -62 -37q-18 0 -18 24q0 37 103.5 152t213.5 201q6 4 9.5 7t3.5 7t-3.5 7t-9.5 7q-119 92 -220 203t-101 154zM639 801q0 18 12 18q23 0 60 -37 q164 -158 463 -336q6 -4 6 -14q0 -14 -11.5 -32.5t-25.5 -26.5q-227 -104 -420 -297q-37 -37 -61 -37q-18 0 -19 24q0 37 103.5 152t214.5 201q6 4 9 7t3 7t-3 7t-9 7q-119 92 -220.5 203t-101.5 154z" />
<glyph unicode="&#xbc;" horiz-adv-x="1312" d="M84 608q0 23 22 23q35 2 54.5 7t38 26.5t18.5 60.5v313q0 57 -111 97q-23 8 -22 26q0 25 20 29q37 4 74 17.5t61.5 27.5t48 29.5t27.5 17.5q12 4 15 4q23 0 18 -29q-8 -57 -8 -143q0 -49 -1 -124t-1 -103q0 -33 1 -86t1 -76q2 -57 17.5 -70.5t84.5 -23.5q25 -4 25 -27 q0 -25 -25 -24q-66 0 -103.5 5t-64 5t-66.5 -5t-102 -5q-23 0 -22 28zM248 -23l844 1330q23 35 79 34q12 0 22.5 -12t4.5 -22l-844 -1330q-18 -31 -73 -30q-14 0 -27.5 10t-5.5 20zM715 223q61 84 268 336q25 31 119 133q23 23 31 25q6 2 10 -4t4 -13q0 -240 4 -391 q0 -8 6 -8h37q51 0 84 2q14 0 14 -10q0 -20 -10 -47t-16 -27q-12 0 -36 1t-34 1q-45 0 -45 -10v-172q0 -20 -38 -39.5t-50 -19.5q-18 0 -19 16v209q0 10 -18 10q-53 0 -146.5 -4t-152.5 -4q-6 0 -11 6t-1 10zM842 303h186q16 0 16 10v228q0 4 -4 4t-8 -2q-80 -88 -190 -230 q-6 -10 0 -10z" />
<glyph unicode="&#xbd;" horiz-adv-x="1431" d="M84 608q0 23 22 23q35 2 54.5 7t38 26.5t18.5 60.5v313q0 57 -111 97q-23 8 -22 26q0 25 20 29q37 4 74 17.5t61.5 27.5t48 29.5t27.5 17.5q12 4 15 4q23 0 18 -29q-8 -57 -8 -143q0 -49 -1 -124t-1 -103q0 -33 1 -86t1 -76q2 -57 17.5 -70.5t84.5 -23.5q25 -4 25 -27 q0 -25 -25 -24q-66 0 -103.5 5t-64 5t-66.5 -5t-102 -5q-23 0 -22 28zM248 -23l844 1330q23 35 79 34q10 0 19.5 -8t9.5 -18q0 -6 -2 -8l-844 -1330q-18 -31 -73 -30q-14 0 -27.5 10t-5.5 20zM870 -8q-4 12 9 24l79 82q2 2 28 25.5t47.5 44t51 55.5t50 65.5t36 67.5t15.5 68 q0 55 -35 92t-82 37q-55 0 -87 -15.5t-75 -62.5q-4 -10 -12 -11t-14.5 5t-6.5 16q0 43 73 111t167 68q78 0 132 -56.5t54 -134.5q0 -14 -2 -27.5t-6 -26.5t-8 -22.5t-12 -23t-12.5 -19.5t-14.5 -22.5t-14 -20.5q-20 -31 -66.5 -77t-89.5 -84.5t-47 -43.5q-6 -6 4 -9t21 -3 h141q45 0 87 28t65 75q8 20 30 16q8 0 8 -10q0 -2 -1 -4t-1 -4q-41 -115 -55 -187q-2 -12 -6 -19t-9 -7h-9q-104 6 -173 6q-147 0 -251 -4q-6 -2 -9 8z" />
<glyph unicode="&#xbe;" horiz-adv-x="1312" d="M109 629q0 14 12 35.5t24 21.5q16 0 27 -10q68 -45 137 -45q35 0 78 35.5t43 113.5q0 61 -40 108.5t-97 47.5q-23 0 -76 -14q-6 -2 -15 1t-13.5 10t-0.5 11q18 18 55.5 31.5t45.5 19.5q10 6 29.5 18.5t27.5 18.5t21.5 17.5t18.5 20.5t10 22.5t5 29.5q0 31 -32.5 53.5 t-63.5 22.5q-74 0 -147 -61q-14 -14 -21 -13q-18 10 -12 23q76 147 211 147q180 -4 180 -145q0 -76 -121 -137q-6 -4 -6 -7.5t6 -3.5q66 -2 104 -55t38 -125q0 -115 -96.5 -187.5t-192.5 -72.5q-139 0 -139 68zM246 -29q0 4 2 6l844 1330q23 35 79 34q12 0 22.5 -12t4.5 -22 l-844 -1330q-18 -31 -73 -30q-12 0 -23.5 8t-11.5 16zM713 221l2 2q61 84 268 336q25 31 119 133q23 23 31 25h2q12 0 12 -17q0 -240 4 -391q0 -8 6 -8h37q51 0 84 2q14 0 14 -10q0 -20 -10 -47t-16 -27q-12 0 -36 1t-34 1q-45 0 -45 -10v-172q0 -20 -38 -39.5t-50 -19.5 q-18 0 -19 16v209q0 10 -18 10q-53 0 -146.5 -4t-152.5 -4q-14 0 -14 14zM842 303h186q16 0 16 10v228q0 4 -4 4t-8 -2q-80 -88 -190 -230q-6 -10 0 -10z" />
<glyph unicode="&#xbf;" horiz-adv-x="757" d="M82 133q0 70 27.5 123t62.5 72q113 61 184 108q41 27 50.5 50.5t11.5 78.5q0 47 31 47q10 0 24 -17t21 -42q33 -115 32 -178q0 -49 -49 -89t-158 -96q-49 -25 -86.5 -64.5t-37.5 -80.5q0 -104 53 -168.5t153 -66.5q20 0 49 4t48 4q33 0 59.5 -37t26.5 -78 q0 -29 -27.5 -51.5t-54.5 -22.5q-119 0 -221 103q-84 84 -141.5 202.5t-57.5 198.5zM297 889q0 51 36 87t87 36t87 -36t36 -87t-36 -87t-87 -36t-87 36t-36 87z" />
<glyph unicode="&#xc0;" horiz-adv-x="1417" d="M-4 16q0 25 67 47q123 37 177 158q197 451 383 963q14 37 20 66.5t6 41t2 11.5q55 18 74 30q12 8 20.5 26.5t13.5 32t9 13.5t20 -49q152 -477 365 -1094q39 -113 86 -152.5t121 -52.5q68 -12 67 -47q0 -20 -59 -20q-25 0 -129 6t-156 6q-43 0 -118.5 -1t-96.5 -1 q-59 0 -59 25q0 29 68 38q125 20 124 93q0 61 -77 321q-6 23 -56 23h-391q-23 0 -35 -37q-82 -238 -82 -285q0 -43 34 -73.5t85 -43.5q68 -18 68 -40.5t-60 -22.5q-14 0 -78.5 2t-107.5 2q-47 0 -131 -6t-115 -6q-59 0 -59 26zM479 1669q0 18 45 32.5t74 14.5q37 0 55 -26 q86 -125 158 -244q10 -16 10 -31q0 -12 -12 -12t-37 18q-174 131 -266 209q-27 25 -27 39zM494 602q0 -14 43 -14h317q29 0 29 10q0 4 -4 20l-162 490q-12 37 -19 37q-4 0 -16 -35l-184 -492q-4 -12 -4 -16z" />
<glyph unicode="&#xc1;" horiz-adv-x="1417" d="M-4 16q0 25 67 47q123 37 177 158q197 451 383 963q14 37 20 66.5t6 41t2 11.5q55 18 74 30q12 8 20.5 26.5t13.5 32t9 13.5t20 -49q152 -477 365 -1094q39 -113 86 -152.5t121 -52.5q68 -12 67 -47q0 -20 -59 -20q-25 0 -129 6t-156 6q-43 0 -118.5 -1t-96.5 -1 q-59 0 -59 25q0 29 68 38q125 20 124 93q0 61 -77 321q-6 23 -56 23h-391q-23 0 -35 -37q-82 -238 -82 -285q0 -43 34 -73.5t85 -43.5q68 -18 68 -40.5t-60 -22.5q-14 0 -78.5 2t-107.5 2q-47 0 -131 -6t-115 -6q-59 0 -59 26zM494 602q0 -14 43 -14h317q29 0 29 10 q0 4 -4 20l-162 490q-12 37 -19 37q-4 0 -16 -35l-184 -492q-4 -12 -4 -16zM665 1415q0 14 11 31q72 119 157 244q18 27 56 26q29 0 73.5 -14t44.5 -33q0 -14 -26 -39q-92 -78 -267 -209q-24 -18 -36.5 -18t-12.5 12z" />
<glyph unicode="&#xc2;" horiz-adv-x="1417" d="M-4 16q0 25 67 47q123 37 177 158q197 451 383 963q14 37 20 66.5t6 41t2 11.5q55 18 74 30q12 8 20.5 26.5t13.5 32t9 13.5t20 -49q152 -477 365 -1094q39 -113 86 -152.5t121 -52.5q68 -12 67 -47q0 -20 -59 -20q-25 0 -129 6t-156 6q-43 0 -118.5 -1t-96.5 -1 q-59 0 -59 25q0 29 68 38q125 20 124 93q0 61 -77 321q-6 23 -56 23h-391q-23 0 -35 -37q-82 -238 -82 -285q0 -43 34 -73.5t85 -43.5q68 -18 68 -40.5t-60 -22.5q-14 0 -78.5 2t-107.5 2q-47 0 -131 -6t-115 -6q-59 0 -59 26zM444 1415q0 12 15 25l200 170q51 45 84 45 t84 -45l201 -170q12 -10 12 -25q0 -23 -28 -22q-18 0 -108.5 43t-139.5 71q-20 12 -41 0q-47 -27 -138.5 -69.5t-109.5 -42.5q-31 0 -31 20zM494 602q0 -14 43 -14h317q29 0 29 10q0 4 -4 20l-162 490q-12 37 -19 37q-4 0 -16 -35l-184 -492q-4 -12 -4 -16z" />
<glyph unicode="&#xc3;" horiz-adv-x="1417" d="M-4 16q0 25 67 47q123 37 177 158q197 451 383 963q14 37 20 66.5t6 41t2 11.5q55 18 74 30q12 8 20.5 26.5t13.5 32t9 13.5t20 -49q152 -477 365 -1094q39 -113 86 -152.5t121 -52.5q68 -12 67 -47q0 -20 -59 -20q-25 0 -129 6t-156 6q-43 0 -118.5 -1t-96.5 -1 q-59 0 -59 25q0 29 68 38q125 20 124 93q0 61 -77 321q-6 23 -56 23h-391q-23 0 -35 -37q-82 -238 -82 -285q0 -43 34 -73.5t85 -43.5q68 -18 68 -40.5t-60 -22.5q-14 0 -78.5 2t-107.5 2q-47 0 -131 -6t-115 -6q-59 0 -59 26zM461 1456q0 35 66.5 87t105.5 52q27 0 123 -9 t121 -9q41 0 79 31.5t44 31.5q35 0 35 -34q0 -31 -64.5 -86.5t-105.5 -55.5q-25 0 -127.5 10.5t-126.5 10.5q-23 0 -66 -32t-51 -32q-12 0 -22.5 10.5t-10.5 24.5zM494 602q0 -14 43 -14h317q29 0 29 10q0 4 -4 20l-162 490q-12 37 -19 37q-4 0 -16 -35l-184 -492 q-4 -12 -4 -16z" />
<glyph unicode="&#xc4;" horiz-adv-x="1417" d="M-4 16q0 25 67 47q123 37 177 158q197 451 383 963q14 37 20 66.5t6 41t2 11.5q55 18 74 30q12 8 20.5 26.5t13.5 32t9 13.5t20 -49q152 -477 365 -1094q39 -113 86 -152.5t121 -52.5q68 -12 67 -47q0 -20 -59 -20q-25 0 -129 6t-156 6q-43 0 -118.5 -1t-96.5 -1 q-59 0 -59 25q0 29 68 38q125 20 124 93q0 61 -77 321q-6 23 -56 23h-391q-23 0 -35 -37q-82 -238 -82 -285q0 -43 34 -73.5t85 -43.5q68 -18 68 -40.5t-60 -22.5q-14 0 -78.5 2t-107.5 2q-47 0 -131 -6t-115 -6q-59 0 -59 26zM440 1526q0 43 30 72.5t73 29.5t72.5 -29.5 t29.5 -72.5t-29.5 -73t-72.5 -30t-73 30t-30 73zM494 602q0 -14 43 -14h317q29 0 29 10q0 4 -4 20l-162 490q-12 37 -19 37q-4 0 -16 -35l-184 -492q-4 -12 -4 -16zM840 1526q0 43 29.5 72.5t72.5 29.5t72.5 -29.5t29.5 -72.5t-29.5 -73t-72.5 -30t-72.5 30t-29.5 73z" />
<glyph unicode="&#xc5;" horiz-adv-x="1417" d="M-4 16q0 25 67 47q123 37 177 158q197 451 383 963q14 37 20 66.5t6 41t2 11.5q55 18 74 30q12 8 20.5 26.5t13.5 32t9 13.5t20 -49q152 -477 365 -1094q39 -113 86 -152.5t121 -52.5q68 -12 67 -47q0 -20 -59 -20q-25 0 -129 6t-156 6q-43 0 -118.5 -1t-96.5 -1 q-59 0 -59 25q0 29 68 38q125 20 124 93q0 61 -77 321q-6 23 -56 23h-391q-23 0 -35 -37q-82 -238 -82 -285q0 -43 34 -73.5t85 -43.5q68 -18 68 -40.5t-60 -22.5q-14 0 -78.5 2t-107.5 2q-47 0 -131 -6t-115 -6q-59 0 -59 26zM494 602q0 -14 43 -14h317q29 0 29 10 q0 4 -4 20l-162 490q-12 37 -19 37q-4 0 -16 -35l-184 -492q-4 -12 -4 -16zM553 1575q0 68 56 111t130 43q68 0 119 -38t51 -100q0 -70 -55 -113.5t-131 -43.5q-70 0 -120 38.5t-50 102.5zM639 1581q0 -43 29.5 -72.5t72.5 -29.5q37 0 59.5 30.5t22.5 71.5t-28.5 70.5 t-69.5 29.5q-39 0 -62.5 -29.5t-23.5 -70.5z" />
<glyph unicode="&#xc6;" horiz-adv-x="1773" d="M-10 12q0 25 67 45q51 14 110.5 70.5t102.5 130.5l559 959q8 12 -3 22t-31 12l-181 31q-20 8 -20 27q0 25 20 24q37 0 160 -3t199 -3q133 0 361.5 5t254.5 5h17q35 0 36 -18q23 -119 25 -211q0 -18 -29 -18q-16 0 -22 20q-25 74 -47 100q-49 55 -137 56h-269 q-23 0 -47 -14.5t-24 -39.5v-487q0 -18 10 -31.5t24 -13.5q98 0 197 4q66 4 90 27q23 20 35 49q4 8 17.5 21.5t19.5 13.5q8 0 18 -10.5t8 -22.5q-6 -72 -6 -121q0 -59 6 -149q0 -35 -18 -35q-33 0 -47 47q-25 76 -96 80q-86 4 -211 4q-47 0 -47 -47v-314q0 -63 33.5 -109 t99.5 -46h213q16 0 77.5 12t77.5 25q39 31 86 129q12 23 29 20q27 -4 27 -22q0 -76 -35 -211q-8 -35 -29 -35q-127 0 -329.5 6t-292.5 6h-41q-43 0 -111 -6t-125 -6q-59 0 -59 22q0 25 67 37q78 14 114 47t36 101v350q0 18 -8.5 27.5t-36.5 9.5h-289q-37 0 -61 -47 q-74 -125 -168 -308q-18 -33 -19 -61q0 -74 133 -107q68 -18 68 -40.5t-60 -22.5q-14 0 -77.5 2t-104.5 2q-49 0 -138 -6t-120 -6q-59 0 -59 22zM610 682q0 -10 33 -10h254q25 0 29 4t4 26v486q0 37 -6 37q-9 0 -27 -35l-279 -488q-8 -14 -8 -20z" />
<glyph unicode="&#xc7;" horiz-adv-x="1310" d="M94 662q0 293 221.5 494.5t524.5 201.5q143 0 216.5 -24.5t155.5 -37.5q23 -2 27 -61q14 -111 16 -223q2 -16 -3 -32.5t-19 -14.5q-41 4 -53 75q-12 94 -72 150q-104 104 -301 104q-219 0 -363.5 -175t-144.5 -408q0 -170 61.5 -324t183.5 -254t275 -100q254 0 381 248 q6 10 16.5 17t21.5 13t13 8.5t4 2.5q14 0 15 -39q0 -4 -1 -9.5t-1 -7.5q-23 -145 -68 -213q-8 -14 -100 -43q-131 -41 -344 -41q-276 0 -469 205t-193 488zM622 -498q0 70 33 70q4 0 16.5 -7t40 -13.5t72.5 -6.5q33 0 59.5 19.5t26.5 60.5q0 43 -23.5 77t-72.5 34 q-12 0 -28.5 -3t-24.5 -3q-25 0 -39.5 12t-14.5 22q0 14 13 31l163 221h64l-84 -127q-14 -18 20 -32q53 -23 94.5 -70t41.5 -113q0 -96 -92.5 -166.5t-172.5 -70.5q-92 0 -92 65z" />
<glyph unicode="&#xc8;" horiz-adv-x="1095" d="M47 12q0 25 68 37q80 14 115.5 48t35.5 106v921q0 72 -29.5 104t-107.5 46q-68 12 -68 41q0 23 60 22q78 0 185.5 -3t176.5 -3q82 0 190.5 2t184.5 3t80 1q35 0 37 -18q31 -166 31 -211q0 -31 -29 -31q-16 0 -23 21q-31 96 -45 112q-49 55 -137 56h-268q-20 0 -47 -19.5 t-27 -46.5v-434q0 -18 11.5 -31.5t25.5 -13.5h197q90 0 124 80q4 8 17.5 21.5t19.5 13.5q8 0 17.5 -9.5t9.5 -23.5q0 -8 -3 -51t-3 -62q0 -23 2 -78t2 -61q0 -35 -19 -35q-33 0 -47 47q-31 92 -94 92h-190q-39 0 -54.5 -10t-15.5 -43v-393q0 -76 32 -106.5t103 -30.5h213 q109 0 156 37q39 31 86 129q12 23 29 20q27 -4 26 -22q0 -82 -35 -211q-8 -35 -28 -35q-139 0 -356.5 6t-313.5 6q-43 0 -110.5 -6t-125.5 -6q-59 0 -59 22zM323 1669q0 18 45 32.5t74 14.5q37 0 55 -26q86 -125 158 -244q10 -16 10 -31q0 -12 -12 -12t-37 18 q-174 131 -266 209q-27 25 -27 39z" />
<glyph unicode="&#xc9;" horiz-adv-x="1095" d="M47 12q0 25 68 37q80 14 115.5 48t35.5 106v921q0 72 -29.5 104t-107.5 46q-68 12 -68 41q0 23 60 22q78 0 185.5 -3t176.5 -3q82 0 190.5 2t184.5 3t80 1q35 0 37 -18q31 -166 31 -211q0 -31 -29 -31q-16 0 -23 21q-31 96 -45 112q-49 55 -137 56h-268q-20 0 -47 -19.5 t-27 -46.5v-434q0 -18 11.5 -31.5t25.5 -13.5h197q90 0 124 80q4 8 17.5 21.5t19.5 13.5q8 0 17.5 -9.5t9.5 -23.5q0 -8 -3 -51t-3 -62q0 -23 2 -78t2 -61q0 -35 -19 -35q-33 0 -47 47q-31 92 -94 92h-190q-39 0 -54.5 -10t-15.5 -43v-393q0 -76 32 -106.5t103 -30.5h213 q109 0 156 37q39 31 86 129q12 23 29 20q27 -4 26 -22q0 -82 -35 -211q-8 -35 -28 -35q-139 0 -356.5 6t-313.5 6q-43 0 -110.5 -6t-125.5 -6q-59 0 -59 22zM510 1415q0 14 11 31q72 119 157 244q18 27 56 26q29 0 73.5 -14t44.5 -33q0 -14 -26 -39q-92 -78 -267 -209 q-24 -18 -36.5 -18t-12.5 12z" />
<glyph unicode="&#xca;" horiz-adv-x="1095" d="M47 12q0 25 68 37q80 14 115.5 48t35.5 106v921q0 72 -29.5 104t-107.5 46q-68 12 -68 41q0 23 60 22q78 0 185.5 -3t176.5 -3q82 0 190.5 2t184.5 3t80 1q35 0 37 -18q31 -166 31 -211q0 -31 -29 -31q-16 0 -23 21q-31 96 -45 112q-49 55 -137 56h-268q-20 0 -47 -19.5 t-27 -46.5v-434q0 -18 11.5 -31.5t25.5 -13.5h197q90 0 124 80q4 8 17.5 21.5t19.5 13.5q8 0 17.5 -9.5t9.5 -23.5q0 -8 -3 -51t-3 -62q0 -23 2 -78t2 -61q0 -35 -19 -35q-33 0 -47 47q-31 92 -94 92h-190q-39 0 -54.5 -10t-15.5 -43v-393q0 -76 32 -106.5t103 -30.5h213 q109 0 156 37q39 31 86 129q12 23 29 20q27 -4 26 -22q0 -82 -35 -211q-8 -35 -28 -35q-139 0 -356.5 6t-313.5 6q-43 0 -110.5 -6t-125.5 -6q-59 0 -59 22zM289 1415q0 12 15 25l200 170q51 45 84 45t84 -45l201 -170q12 -10 12 -25q0 -23 -28 -22q-18 0 -108.5 43 t-139.5 71q-20 12 -41 0q-47 -27 -138.5 -69.5t-109.5 -42.5q-31 0 -31 20z" />
<glyph unicode="&#xcb;" horiz-adv-x="1095" d="M47 12q0 25 68 37q80 14 115.5 48t35.5 106v921q0 72 -29.5 104t-107.5 46q-68 12 -68 41q0 23 60 22q78 0 185.5 -3t176.5 -3q82 0 190.5 2t184.5 3t80 1q35 0 37 -18q31 -166 31 -211q0 -31 -29 -31q-16 0 -23 21q-31 96 -45 112q-49 55 -137 56h-268q-20 0 -47 -19.5 t-27 -46.5v-434q0 -18 11.5 -31.5t25.5 -13.5h197q90 0 124 80q4 8 17.5 21.5t19.5 13.5q8 0 17.5 -9.5t9.5 -23.5q0 -8 -3 -51t-3 -62q0 -23 2 -78t2 -61q0 -35 -19 -35q-33 0 -47 47q-31 92 -94 92h-190q-39 0 -54.5 -10t-15.5 -43v-393q0 -76 32 -106.5t103 -30.5h213 q109 0 156 37q39 31 86 129q12 23 29 20q27 -4 26 -22q0 -82 -35 -211q-8 -35 -28 -35q-139 0 -356.5 6t-313.5 6q-43 0 -110.5 -6t-125.5 -6q-59 0 -59 22zM284 1526q0 43 30 72.5t73 29.5t72.5 -29.5t29.5 -72.5t-29.5 -73t-72.5 -30t-73 30t-30 73zM684 1526 q0 43 29.5 72.5t72.5 29.5t72.5 -29.5t29.5 -72.5t-29.5 -73t-72.5 -30t-72.5 30t-29.5 73z" />
<glyph unicode="&#xcc;" horiz-adv-x="696" d="M39 12q0 25 67 37q82 14 121 48t39 104v925q0 72 -29.5 103t-107.5 45q-68 12 -68 41q0 23 60 22q57 0 125.5 -3t113.5 -3q41 0 103.5 3t120.5 3q59 0 59 -22q0 -29 -68 -41q-80 -14 -112.5 -46t-32.5 -102v-925q0 -70 40 -104t122 -48q68 -12 67 -37q0 -23 -59 -22 q-57 0 -125.5 5t-114.5 5q-49 0 -126.5 -5t-135.5 -5q-59 0 -59 22zM106 1669q0 18 45 32.5t74 14.5q37 0 55 -26q86 -125 158 -244q10 -16 10 -31q0 -12 -12 -12t-37 18q-174 131 -266 209q-27 25 -27 39z" />
<glyph unicode="&#xcd;" horiz-adv-x="696" d="M39 12q0 25 67 37q82 14 121 48t39 104v925q0 72 -29.5 103t-107.5 45q-68 12 -68 41q0 23 60 22q57 0 125.5 -3t113.5 -3q41 0 103.5 3t120.5 3q59 0 59 -22q0 -29 -68 -41q-80 -14 -112.5 -46t-32.5 -102v-925q0 -70 40 -104t122 -48q68 -12 67 -37q0 -23 -59 -22 q-57 0 -125.5 5t-114.5 5q-49 0 -126.5 -5t-135.5 -5q-59 0 -59 22zM293 1415q0 14 11 31q72 119 157 244q18 27 56 26q29 0 73.5 -14t44.5 -33q0 -14 -26 -39q-92 -78 -267 -209q-24 -18 -36.5 -18t-12.5 12z" />
<glyph unicode="&#xce;" horiz-adv-x="696" d="M39 12q0 25 67 37q82 14 121 48t39 104v925q0 72 -29.5 103t-107.5 45q-68 12 -68 41q0 23 60 22q57 0 125.5 -3t113.5 -3q41 0 103.5 3t120.5 3q59 0 59 -22q0 -29 -68 -41q-80 -14 -112.5 -46t-32.5 -102v-925q0 -70 40 -104t122 -48q68 -12 67 -37q0 -23 -59 -22 q-57 0 -125.5 5t-114.5 5q-49 0 -126.5 -5t-135.5 -5q-59 0 -59 22zM57 1415q0 12 15 25l200 170q51 45 84 45t84 -45l201 -170q12 -10 12 -25q0 -23 -28 -22q-18 0 -108.5 43t-139.5 71q-20 12 -41 0q-47 -27 -138.5 -69.5t-109.5 -42.5q-31 0 -31 20z" />
<glyph unicode="&#xcf;" horiz-adv-x="696" d="M39 12q0 25 67 37q82 14 121 48t39 104v925q0 72 -29.5 103t-107.5 45q-68 12 -68 41q0 23 60 22q57 0 125.5 -3t113.5 -3q41 0 103.5 3t120.5 3q59 0 59 -22q0 -29 -68 -41q-80 -14 -112.5 -46t-32.5 -102v-925q0 -70 40 -104t122 -48q68 -12 67 -37q0 -23 -59 -22 q-57 0 -125.5 5t-114.5 5q-49 0 -126.5 -5t-135.5 -5q-59 0 -59 22zM45 1526q0 43 30 72.5t73 29.5t72.5 -29.5t29.5 -72.5t-29.5 -73t-72.5 -30t-73 30t-30 73zM445 1526q0 43 29.5 72.5t72.5 29.5t72.5 -29.5t29.5 -72.5t-29.5 -73t-72.5 -30t-72.5 30t-29.5 73z" />
<glyph unicode="&#xd0;" horiz-adv-x="1544" d="M59 12q0 25 68 37q78 14 107.5 47t29.5 107v446h-141q-12 0 -20.5 12.5t-8.5 24.5q0 14 15.5 25.5t33.5 11.5h121v401q0 72 -29.5 104t-107.5 46q-68 12 -68 41q0 23 59.5 22.5t117 -2.5t96.5 -2h14q47 0 186.5 8.5t163.5 8.5q397 0 571.5 -173t174.5 -491 q0 -289 -195.5 -494.5t-486.5 -205.5q-6 0 -168 7t-258 7q-37 0 -97.5 -5t-117.5 -5q-59 0 -60 22zM430 248q0 -57 17.5 -87t54.5 -59q59 -45 147 -45q18 0 58.5 2t62.5 2q150 0 261.5 98.5t163.5 243t52 306.5q0 246 -151.5 411.5t-388.5 165.5q-66 0 -99 -1t-73.5 -7 t-59 -19.5t-32 -37t-13.5 -60.5v-438h342q10 0 19.5 -7t9.5 -16l-2 -2v-4q-25 -45 -64 -45h-305v-401z" />
<glyph unicode="&#xd1;" horiz-adv-x="1576" d="M4.5 1319q-0.5 29 46.5 29q63 -2 148.5 -6.5t167.5 -4.5q23 0 49 -34q27 -37 384 -486.5t396 -497.5q35 -41 51 -40q18 0 21 43q4 131 4 655v178q-2 37 -42 72t-77 41q-68 12 -68 41q0 23 60 22h117q45 0 107.5 3t127.5 3q59 0 59 -22q0 -29 -67 -41q-76 -14 -101.5 -37 t-27.5 -74q-4 -98 -4 -1147q0 -51 -43 -51q-23 0 -72 34t-94 95q-55 76 -729 897q-27 33 -43 33q-18 0 -19 -43q-10 -508 -10 -768q0 -139 131 -164q68 -12 68 -37q0 -23 -59.5 -22.5t-109.5 5.5t-83 5t-80 -5t-106.5 -5t-59.5 22q0 20 68 39q104 29 118 168q37 346 37 819 q0 100 -50 149.5t-152 82.5q-63 20 -63.5 49zM559 1456q0 35 66.5 87t105.5 52q27 0 123 -9t121 -9q41 0 79 31.5t44 31.5q35 0 35 -34q0 -31 -64.5 -86.5t-105.5 -55.5q-25 0 -127.5 10.5t-126.5 10.5q-23 0 -66 -32t-51 -32q-12 0 -22.5 10.5t-10.5 24.5z" />
<glyph unicode="&#xd2;" horiz-adv-x="1562" d="M92 655q0 190 79 347t243 257.5t385 100.5q274 0 472.5 -189.5t198.5 -484.5q0 -139 -45 -267t-130 -228.5t-218 -160t-295 -59.5q-276 0 -483 198.5t-207 485.5zM291 717q0 -270 148.5 -468t369.5 -198q225 0 344 152.5t119 421.5q0 299 -131 477t-373 178 q-217 0 -347 -168t-130 -395zM520 1669q0 18 45 32.5t74 14.5q37 0 55 -26q86 -125 158 -244q10 -16 10 -31q0 -12 -12 -12t-37 18q-174 131 -266 209q-27 25 -27 39z" />
<glyph unicode="&#xd3;" horiz-adv-x="1562" d="M92 655q0 190 79 347t243 257.5t385 100.5q274 0 472.5 -189.5t198.5 -484.5q0 -139 -45 -267t-130 -228.5t-218 -160t-295 -59.5q-276 0 -483 198.5t-207 485.5zM291 717q0 -270 148.5 -468t369.5 -198q225 0 344 152.5t119 421.5q0 299 -131 477t-373 178 q-217 0 -347 -168t-130 -395zM706 1415q0 14 11 31q72 119 157 244q18 27 56 26q29 0 73.5 -14t44.5 -33q0 -14 -26 -39q-92 -78 -267 -209q-24 -18 -36.5 -18t-12.5 12z" />
<glyph unicode="&#xd4;" horiz-adv-x="1562" d="M92 655q0 190 79 347t243 257.5t385 100.5q274 0 472.5 -189.5t198.5 -484.5q0 -139 -45 -267t-130 -228.5t-218 -160t-295 -59.5q-276 0 -483 198.5t-207 485.5zM291 717q0 -270 148.5 -468t369.5 -198q225 0 344 152.5t119 421.5q0 299 -131 477t-373 178 q-217 0 -347 -168t-130 -395zM485 1415q0 12 15 25l200 170q51 45 84 45t84 -45l201 -170q12 -10 12 -25q0 -23 -28 -22q-18 0 -108.5 43t-139.5 71q-20 12 -41 0q-47 -27 -138.5 -69.5t-109.5 -42.5q-31 0 -31 20z" />
<glyph unicode="&#xd5;" horiz-adv-x="1562" d="M92 655q0 190 79 347t243 257.5t385 100.5q274 0 472.5 -189.5t198.5 -484.5q0 -139 -45 -267t-130 -228.5t-218 -160t-295 -59.5q-276 0 -483 198.5t-207 485.5zM291 717q0 -270 148.5 -468t369.5 -198q225 0 344 152.5t119 421.5q0 299 -131 477t-373 178 q-217 0 -347 -168t-130 -395zM502 1456q0 35 66.5 87t105.5 52q27 0 123 -9t121 -9q41 0 79 31.5t44 31.5q35 0 35 -34q0 -31 -64.5 -86.5t-105.5 -55.5q-25 0 -127.5 10.5t-126.5 10.5q-23 0 -66 -32t-51 -32q-12 0 -22.5 10.5t-10.5 24.5z" />
<glyph unicode="&#xd6;" horiz-adv-x="1562" d="M92 655q0 190 79 347t243 257.5t385 100.5q274 0 472.5 -189.5t198.5 -484.5q0 -139 -45 -267t-130 -228.5t-218 -160t-295 -59.5q-276 0 -483 198.5t-207 485.5zM291 717q0 -270 148.5 -468t369.5 -198q225 0 344 152.5t119 421.5q0 299 -131 477t-373 178 q-217 0 -347 -168t-130 -395zM481 1526q0 43 30 72.5t73 29.5t72.5 -29.5t29.5 -72.5t-29.5 -73t-72.5 -30t-73 30t-30 73zM881 1526q0 43 29.5 72.5t72.5 29.5t72.5 -29.5t29.5 -72.5t-29.5 -73t-72.5 -30t-72.5 30t-29.5 73z" />
<glyph unicode="&#xd7;" horiz-adv-x="1228" d="M221 209q0 14 10 24l275 275q10 8 -2 20l-248 248q-10 10 -10 29q0 41 33 84q20 20 38 0l277 -277q8 -8 14 -2l295 293q10 10 21 10q12 0 18 -10q35 -66 35 -82t-14 -30l-269 -269q-6 -6 0 -10l293 -293q10 -10 10 -24q0 -27 -21.5 -56.5t-39.5 -29.5q-12 0 -21 8 l-305 307q-8 6 -14 0l-293 -293q-8 -8 -19.5 -8t-17.5 6q-45 45 -45 80z" />
<glyph unicode="&#xd8;" horiz-adv-x="1583" d="M100 12q0 20 21 41l153 152q-172 193 -172 450q0 190 79 347t243 257.5t385 100.5q266 0 459 -174l164 162q10 10 27.5 8t21.5 -17q6 -25 6 -30q0 -23 -14 -37l-148 -148q156 -182 156 -438q0 -139 -45 -267t-130 -228.5t-218.5 -160t-294.5 -59.5q-254 0 -453 170 l-164 -164q-6 -6 -18 -6q-23 0 -40.5 13.5t-17.5 27.5zM301 717q0 -225 90 -387l772 753q-133 197 -385 197q-217 0 -347 -168t-130 -395zM442 252q154 -201 377 -201q225 0 344 152.5t119 421.5q0 229 -76 383z" />
<glyph unicode="&#xd9;" horiz-adv-x="1511" d="M49 1315q0 23 60 22q29 0 93 -3t103 -3q35 0 90.5 2t73.5 2q59 0 59 -22q0 -18 -67 -41q-29 -8 -57.5 -50t-28.5 -98v-575q0 -238 116.5 -356.5t313.5 -118.5q205 0 306 142t101 390q0 125 -8 441q-4 201 -84 223q-68 18 -67.5 40.5t59.5 22.5q31 0 78 -1t76 -1 q35 0 90 3t76 3q59 0 59 -22q0 -27 -68 -41q-96 -19 -102 -154q-2 -23 -21 -608q-8 -238 -159.5 -389.5t-378.5 -151.5q-268 0 -409.5 139.5t-141.5 381.5v628q0 123 -94 150q-68 18 -68 45zM534 1669q0 18 45 32.5t74 14.5q37 0 55 -26q86 -125 158 -244q10 -16 10 -31 q0 -12 -12 -12t-37 18q-174 131 -266 209q-27 25 -27 39z" />
<glyph unicode="&#xda;" horiz-adv-x="1511" d="M49 1315q0 23 60 22q29 0 93 -3t103 -3q35 0 90.5 2t73.5 2q59 0 59 -22q0 -18 -67 -41q-29 -8 -57.5 -50t-28.5 -98v-575q0 -238 116.5 -356.5t313.5 -118.5q205 0 306 142t101 390q0 125 -8 441q-4 201 -84 223q-68 18 -67.5 40.5t59.5 22.5q31 0 78 -1t76 -1 q35 0 90 3t76 3q59 0 59 -22q0 -27 -68 -41q-96 -19 -102 -154q-2 -23 -21 -608q-8 -238 -159.5 -389.5t-378.5 -151.5q-268 0 -409.5 139.5t-141.5 381.5v628q0 123 -94 150q-68 18 -68 45zM721 1415q0 14 11 31q72 119 157 244q18 27 56 26q29 0 73.5 -14t44.5 -33 q0 -14 -26 -39q-92 -78 -267 -209q-24 -18 -36.5 -18t-12.5 12z" />
<glyph unicode="&#xdb;" horiz-adv-x="1511" d="M49 1315q0 23 60 22q29 0 93 -3t103 -3q35 0 90.5 2t73.5 2q59 0 59 -22q0 -18 -67 -41q-29 -8 -57.5 -50t-28.5 -98v-575q0 -238 116.5 -356.5t313.5 -118.5q205 0 306 142t101 390q0 125 -8 441q-4 201 -84 223q-68 18 -67.5 40.5t59.5 22.5q31 0 78 -1t76 -1 q35 0 90 3t76 3q59 0 59 -22q0 -27 -68 -41q-96 -19 -102 -154q-2 -23 -21 -608q-8 -238 -159.5 -389.5t-378.5 -151.5q-268 0 -409.5 139.5t-141.5 381.5v628q0 123 -94 150q-68 18 -68 45zM499 1456q0 12 15 25l200 170q51 45 84 45t84 -45l201 -170q12 -10 12 -25 q0 -23 -28 -22q-18 0 -108.5 43t-139.5 71q-20 12 -41 0q-47 -27 -138.5 -69.5t-109.5 -42.5q-31 0 -31 20z" />
<glyph unicode="&#xdc;" horiz-adv-x="1511" d="M49 1315q0 23 60 22q29 0 93 -3t103 -3q35 0 90.5 2t73.5 2q59 0 59 -22q0 -18 -67 -41q-29 -8 -57.5 -50t-28.5 -98v-575q0 -238 116.5 -356.5t313.5 -118.5q205 0 306 142t101 390q0 125 -8 441q-4 201 -84 223q-68 18 -67.5 40.5t59.5 22.5q31 0 78 -1t76 -1 q35 0 90 3t76 3q59 0 59 -22q0 -27 -68 -41q-96 -19 -102 -154q-2 -23 -21 -608q-8 -238 -159.5 -389.5t-378.5 -151.5q-268 0 -409.5 139.5t-141.5 381.5v628q0 123 -94 150q-68 18 -68 45zM495 1526q0 43 30 72.5t73 29.5t72.5 -29.5t29.5 -72.5t-29.5 -73t-72.5 -30 t-73 30t-30 73zM895 1526q0 43 29.5 72.5t72.5 29.5t72.5 -29.5t29.5 -72.5t-29.5 -73t-72.5 -30t-72.5 30t-29.5 73z" />
<glyph unicode="&#xdd;" horiz-adv-x="1183" d="M0 1315q0 23 59 22q27 0 108 -3t132 -3q35 0 90 2t74 2q59 0 59 -22q0 -27 -67 -41q-66 -16 -66 -51q0 -27 27 -74l188 -338q45 -78 58 -78q18 0 67 78q76 115 172 285q37 61 37 104q0 59 -84 72q-23 4 -45.5 16t-22.5 25q0 23 60 22q31 0 78 -1t75 -1q47 0 121 3t92 3 q59 0 60 -22q0 -20 -109 -51q-49 -14 -82.5 -51t-97.5 -136q-121 -186 -227 -368q-37 -63 -44 -92t-7 -93v-303q0 -70 41.5 -114t119.5 -58q68 -12 68 -37q0 -23 -60 -22q-57 0 -125.5 5t-113.5 5q-49 0 -128 -5t-134 -5q-59 0 -60 22q0 25 68 37q160 29 160 172v303 q0 59 -52 152l-239 393q-113 180 -182 201q-68 20 -68 45zM577 1415q0 14 11 31q72 119 157 244q18 27 56 26q29 0 73.5 -14t44.5 -33q0 -14 -26 -39q-92 -78 -267 -209q-24 -18 -36.5 -18t-12.5 12z" />
<glyph unicode="&#xde;" horiz-adv-x="1144" d="M45 12q0 25 68 37q82 14 121.5 49t39.5 105v921q0 68 -22.5 103t-93.5 47q-68 12 -68 41q0 23 59.5 22.5t117 -3.5t95.5 -3q45 0 116 3t128 3q59 0 60 -22q0 -29 -68 -41q-82 -14 -121 -47t-39 -103v-34q0 -41 13 -41q4 0 24 4l23 6q55 14 147 14q178 0 297 -94t119 -268 q0 -74 -48 -177.5t-114 -152.5q-66 -51 -174.5 -79t-200.5 -28q-16 0 -38.5 3.5t-30.5 3.5q-16 0 -17 -19v-65q0 -119 162 -148q68 -12 68 -37q0 -23 -60 -22q-57 0 -125.5 5t-113.5 5q-49 0 -129 -5t-136 -5q-59 0 -59 22zM438 387q0 -25 36 -39t69 -14q127 0 198 53 q131 96 131 299q0 125 -73.5 222.5t-186.5 97.5q-70 0 -122 -19.5t-52 -60.5v-539z" />
<glyph unicode="&#xdf;" horiz-adv-x="1034" d="M51 12q0 20 47 37q86 27 86 92v576q-63 0 -106 4q-6 2 -14.5 13t-8.5 21.5t8 14.5q47 12 121 53q0 168 44 295t114 194.5t142.5 100.5t146.5 33q129 0 215 -82t86 -193q0 -113 -94 -202l-68 -62q-8 -10 -32.5 -31.5t-37 -35t-23.5 -39t-11 -56.5q0 -47 39 -83l190 -185 q78 -80 78 -190q0 -92 -71 -172t-138 -115q-49 -25 -150 -25q-31 0 -74.5 26t-43.5 58.5t17 72.5t42 40q6 0 18 -8q94 -74 177 -74q47 0 81.5 26.5t34.5 84.5q0 35 -18.5 68.5t-40 57t-76.5 74.5l-143 140q-84 78 -84 147q0 43 29.5 80t93 88t92.5 82q84 88 84 199 q0 90 -53.5 157.5t-190.5 67.5q-102 0 -166.5 -96.5t-64.5 -292.5v-832q0 -66 86 -92q47 -16 47 -37q0 -18 -47 -18q-41 0 -81 5t-75 5t-77 -5t-83 -5q-47 0 -47 18z" />
<glyph unicode="&#xe0;" d="M72 133q0 123 149 184l209 86q39 16 47 28.5t10 53.5l5 131q2 53 -33 92.5t-88 39.5q-35 0 -74 -21.5t-51 -44.5q-8 -14 -8 -39q0 -4 1 -14.5t1 -14.5q0 -18 -58.5 -44.5t-83.5 -26.5q-16 0 -16 18q0 70 82 141q59 53 145 99.5t160 46.5q72 0 121 -53.5t47 -128.5 l-10 -443q-1 -157 73 -157q51 0 82 28q8 8 20.5 1t12.5 -19q0 -18 -56.5 -61.5t-107.5 -43.5t-85 27t-48 53.5t-18 26.5q-8 0 -37 -26.5t-85 -53.5t-130 -27q-63 0 -119.5 51.5t-56.5 110.5zM135 1282q0 47 101 47q33 0 55 -37q166 -289 166 -331q0 -27 -19 -27 q-20 0 -61 45q-63 68 -152.5 176.5t-89.5 126.5zM236 178q0 -53 32.5 -82.5t67.5 -29.5q59 0 123 55q23 18 24 82l4 100q2 43 -18 43q-14 0 -29 -6q-204 -70 -204 -162z" />
<glyph unicode="&#xe1;" d="M72 133q0 123 149 184l209 86q39 16 47 28.5t10 53.5l5 131q2 53 -33 92.5t-88 39.5q-35 0 -74 -21.5t-51 -44.5q-8 -14 -8 -39q0 -4 1 -14.5t1 -14.5q0 -18 -58.5 -44.5t-83.5 -26.5q-16 0 -16 18q0 70 82 141q59 53 145 99.5t160 46.5q72 0 121 -53.5t47 -128.5 l-10 -443q-1 -157 73 -157q51 0 82 28q8 8 20.5 1t12.5 -19q0 -18 -56.5 -61.5t-107.5 -43.5t-85 27t-48 53.5t-18 26.5q-8 0 -37 -26.5t-85 -53.5t-130 -27q-63 0 -119.5 51.5t-56.5 110.5zM236 178q0 -53 32.5 -82.5t67.5 -29.5q59 0 123 55q23 18 24 82l4 100 q2 43 -18 43q-14 0 -29 -6q-204 -70 -204 -162zM326 961q0 43 166 331q23 37 55 37q100 0 100 -47q0 -18 -89 -126.5t-152 -176.5q-41 -45 -62 -45q-18 0 -18 27z" />
<glyph unicode="&#xe2;" d="M72 133q0 123 149 184l209 86q39 16 47 28.5t10 53.5l5 131q2 53 -33 92.5t-88 39.5q-35 0 -74 -21.5t-51 -44.5q-8 -14 -8 -39q0 -4 1 -14.5t1 -14.5q0 -18 -58.5 -44.5t-83.5 -26.5q-16 0 -16 18q0 70 82 141q59 53 145 99.5t160 46.5q72 0 121 -53.5t47 -128.5 l-10 -443q-1 -157 73 -157q51 0 82 28q8 8 20.5 1t12.5 -19q0 -18 -56.5 -61.5t-107.5 -43.5t-85 27t-48 53.5t-18 26.5q-8 0 -37 -26.5t-85 -53.5t-130 -27q-63 0 -119.5 51.5t-56.5 110.5zM170 942q0 20 69 148.5t112 199.5q20 37 40.5 37t41.5 -37q45 -74 113.5 -200.5 t68.5 -147.5q0 -27 -19 -27q-31 0 -61 46q-37 49 -135 172q-9 10 -15 0q-61 -74 -135 -172q-35 -45 -61 -46q-18 0 -19 27zM236 178q0 -53 32.5 -82.5t67.5 -29.5q59 0 123 55q23 18 24 82l4 100q2 43 -18 43q-14 0 -29 -6q-204 -70 -204 -162z" />
<glyph unicode="&#xe3;" d="M72 133q0 123 149 184l209 86q39 16 47 28.5t10 53.5l5 131q2 53 -33 92.5t-88 39.5q-35 0 -74 -21.5t-51 -44.5q-8 -14 -8 -39q0 -4 1 -14.5t1 -14.5q0 -18 -58.5 -44.5t-83.5 -26.5q-16 0 -16 18q0 70 82 141q59 53 145 99.5t160 46.5q72 0 121 -53.5t47 -128.5 l-10 -443q-1 -157 73 -157q51 0 82 28q8 8 20.5 1t12.5 -19q0 -18 -56.5 -61.5t-107.5 -43.5t-85 27t-48 53.5t-18 26.5q-8 0 -37 -26.5t-85 -53.5t-130 -27q-63 0 -119.5 51.5t-56.5 110.5zM133 1004q0 20 73 96t107 76q27 0 110 -8.5t110 -8.5q43 0 78.5 35t37.5 35 q33 0 33 -35q0 -20 -69.5 -95t-104.5 -75q-27 0 -115 7.5t-114 7.5q-31 0 -72 -38t-45 -38q-29 0 -29 41zM236 178q0 -53 32.5 -82.5t67.5 -29.5q59 0 123 55q23 18 24 82l4 100q2 43 -18 43q-14 0 -29 -6q-204 -70 -204 -162z" />
<glyph unicode="&#xe4;" d="M72 133q0 123 149 184l209 86q39 16 47 28.5t10 53.5l5 131q2 53 -33 92.5t-88 39.5q-35 0 -74 -21.5t-51 -44.5q-8 -14 -8 -39q0 -4 1 -14.5t1 -14.5q0 -18 -58.5 -44.5t-83.5 -26.5q-16 0 -16 18q0 70 82 141q59 53 145 99.5t160 46.5q72 0 121 -53.5t47 -128.5 l-10 -443q-1 -157 73 -157q51 0 82 28q8 8 20.5 1t12.5 -19q0 -18 -56.5 -61.5t-107.5 -43.5t-85 27t-48 53.5t-18 26.5q-8 0 -37 -26.5t-85 -53.5t-130 -27q-63 0 -119.5 51.5t-56.5 110.5zM117 1112q0 39 31.5 71t70.5 32t70.5 -32t31.5 -71t-31.5 -70.5t-70.5 -31.5 t-70.5 31.5t-31.5 70.5zM236 178q0 -53 32.5 -82.5t67.5 -29.5q59 0 123 55q23 18 24 82l4 100q2 43 -18 43q-14 0 -29 -6q-204 -70 -204 -162zM479 1112q0 39 32 71t70.5 32t70.5 -32t32 -71t-32 -70.5t-70.5 -31.5t-70.5 31.5t-32 70.5z" />
<glyph unicode="&#xe5;" d="M72 133q0 123 149 184l209 86q39 16 47 28.5t10 53.5l5 131q2 53 -33 92.5t-88 39.5q-35 0 -74 -21.5t-51 -44.5q-8 -14 -8 -39q0 -4 1 -14.5t1 -14.5q0 -18 -58.5 -44.5t-83.5 -26.5q-16 0 -16 18q0 70 82 141q59 53 145 99.5t160 46.5q72 0 121 -53.5t47 -128.5 l-10 -443q-1 -157 73 -157q51 0 82 28q8 8 20.5 1t12.5 -19q0 -18 -56.5 -61.5t-107.5 -43.5t-85 27t-48 53.5t-18 26.5q-8 0 -37 -26.5t-85 -53.5t-130 -27q-63 0 -119.5 51.5t-56.5 110.5zM221 1153q0 68 55.5 120t123 52t116.5 -46t49 -114q0 -78 -54 -130t-124 -52 q-68 0 -117 51t-49 119zM236 178q0 -53 32.5 -82.5t67.5 -29.5q59 0 123 55q23 18 24 82l4 100q2 43 -18 43q-14 0 -29 -6q-204 -70 -204 -162zM305 1163q0 -51 28 -89t69 -38q80 0 79 115q0 45 -29.5 82t-70.5 37q-76 -1 -76 -107z" />
<glyph unicode="&#xe6;" horiz-adv-x="1114" d="M72 133q0 117 149 184l213 97q41 18 50.5 28.5t9.5 34.5v135q0 55 -34 95.5t-89 40.5q-35 0 -74 -22.5t-51 -45.5q-8 -14 -8 -39q0 -6 1 -14.5t1 -14.5q0 -18 -58.5 -44.5t-83.5 -26.5q-16 0 -16 18q0 70 82 141q59 53 145 100.5t160 47.5q31 0 74 -22.5t55 -45.5 q8 -14 25 -2q37 27 103.5 47.5t115.5 20.5q90 0 164.5 -51.5t74.5 -143.5q0 -31 -11 -44t-38 -25q-12 -6 -88 -40t-173 -76t-116 -50q-23 -10 -22 -37v-115q0 -170 180 -170q141 0 227 99q8 8 19 8q27 0 26 -23q0 -6 -2 -8q-72 -104 -146.5 -151.5t-186.5 -47.5 q-125 0 -224 82q-25 25 -26 25q-8 0 -17 -8q-2 -2 -22.5 -19.5t-35.5 -27t-42 -23.5t-61.5 -21.5t-73.5 -7.5q-63 0 -119.5 51.5t-56.5 110.5zM236 178q0 -53 32.5 -82.5t67.5 -29.5q63 0 127 55q29 25 29 76v106q0 49 -17 49q-23 0 -76 -20.5t-107 -63.5t-56 -90zM635 520 q0 -14 10 -19t21 -1q57 23 151 57.5t109 40.5q14 4 14 29q0 20 -8 45q-41 102 -144 102q-37 0 -94 -35t-59 -82v-137z" />
<glyph unicode="&#xe7;" horiz-adv-x="772" d="M72 369q0 195 123.5 336t308.5 141q166 0 246 -98q10 -14 10 -25q0 -25 -30 -47.5t-48 -22.5q-31 0 -51 21q-55 59 -88 77.5t-105 18.5q-106 0 -165.5 -92t-59.5 -215q0 -154 91 -269.5t235 -115.5q61 0 99 23.5t81 78.5q10 10 18 10t16.5 -9t8.5 -19q0 -51 -79 -108.5 t-185 -76.5l-52 -65q-8 -8 -8 -16q0 -18 23 -25q53 -23 89 -65t36 -91q0 -111 -93.5 -193.5t-162.5 -82.5q-61 0 -62 84q0 18 9.5 28.5t17.5 10.5l33 -13q35 -10 75 -10q80 0 80 92q0 55 -32.5 86t-88.5 31q-14 0 -30.5 -6t-22.5 -6q-12 0 -24.5 9t-12.5 22q0 6 11 20 l145 184h-6q-152 0 -251 118t-99 280z" />
<glyph unicode="&#xe8;" horiz-adv-x="798" d="M61 416q0 176 118 304t290 128q123 0 195.5 -59.5t72.5 -170.5q0 -92 -71 -92h-426q-29 0 -40.5 -13t-11.5 -62q0 -143 88.5 -250t221.5 -107q47 0 103 22.5t93 69.5q14 14 23 15q23 0 12 -41q-18 -66 -106 -127.5t-217 -61.5q-143 0 -244 123t-101 322zM176 1282 q0 47 101 47q33 0 55 -37q166 -289 166 -331q0 -27 -19 -27q-20 0 -61 45q-63 68 -152.5 176.5t-89.5 126.5zM227 621q0 -31 39 -31h168q96 0 150 10q20 2 20 57q0 57 -51 92t-117 35q-80 0 -144.5 -58t-64.5 -105z" />
<glyph unicode="&#xe9;" horiz-adv-x="798" d="M61 416q0 176 118 304t290 128q123 0 195.5 -59.5t72.5 -170.5q0 -92 -71 -92h-426q-29 0 -40.5 -13t-11.5 -62q0 -143 88.5 -250t221.5 -107q47 0 103 22.5t93 69.5q14 14 23 15q23 0 12 -41q-18 -66 -106 -127.5t-217 -61.5q-143 0 -244 123t-101 322zM227 621 q0 -31 39 -31h168q96 0 150 10q20 2 20 57q0 57 -51 92t-117 35q-80 0 -144.5 -58t-64.5 -105zM367 961q0 43 166 331q23 37 55 37q100 0 100 -47q0 -18 -89 -126.5t-152 -176.5q-41 -45 -62 -45q-18 0 -18 27z" />
<glyph unicode="&#xea;" horiz-adv-x="798" d="M61 416q0 176 118 304t290 128q123 0 195.5 -59.5t72.5 -170.5q0 -92 -71 -92h-426q-29 0 -40.5 -13t-11.5 -62q0 -143 88.5 -250t221.5 -107q47 0 103 22.5t93 69.5q14 14 23 15q23 0 12 -41q-18 -66 -106 -127.5t-217 -61.5q-143 0 -244 123t-101 322zM211 942 q0 20 69 148.5t112 199.5q20 37 40.5 37t41.5 -37q45 -74 113.5 -200.5t68.5 -147.5q0 -27 -19 -27q-31 0 -61 46q-37 49 -135 172q-9 10 -15 0q-61 -74 -135 -172q-35 -45 -61 -46q-18 0 -19 27zM227 621q0 -31 39 -31h168q96 0 150 10q20 2 20 57q0 57 -51 92t-117 35 q-80 0 -144.5 -58t-64.5 -105z" />
<glyph unicode="&#xeb;" horiz-adv-x="798" d="M61 416q0 176 118 304t290 128q123 0 195.5 -59.5t72.5 -170.5q0 -92 -71 -92h-426q-29 0 -40.5 -13t-11.5 -62q0 -143 88.5 -250t221.5 -107q47 0 103 22.5t93 69.5q14 14 23 15q23 0 12 -41q-18 -66 -106 -127.5t-217 -61.5q-143 0 -244 123t-101 322zM158 1112 q0 39 31.5 71t70.5 32t70.5 -32t31.5 -71t-31.5 -70.5t-70.5 -31.5t-70.5 31.5t-31.5 70.5zM227 621q0 -31 39 -31h168q96 0 150 10q20 2 20 57q0 57 -51 92t-117 35q-80 0 -144.5 -58t-64.5 -105zM520 1112q0 39 32 71t70.5 32t70.5 -32t32 -71t-32 -70.5t-70.5 -31.5 t-70.5 31.5t-32 70.5z" />
<glyph unicode="&#xec;" horiz-adv-x="501" d="M-21 1282q0 47 101 47q33 0 55 -37q166 -289 166 -331q0 -27 -19 -27q-20 0 -61 45q-63 68 -152.5 176.5t-89.5 126.5zM49 12q0 20 47 37q68 20 82 45q6 14 6 33v444q0 129 -96 150q-16 4 -16 27q0 20 14 24q59 14 117.5 44t91.5 51.5t37 21.5q14 0 14 -10 q-18 -188 -18 -277v-475q0 -20 6 -33.5t24.5 -23t24.5 -11.5t33 -10q47 -16 47 -37q0 -18 -41 -18q-39 0 -85 5t-81 5t-80 -5t-86 -5t-41 18z" />
<glyph unicode="&#xed;" horiz-adv-x="501" d="M49 12q0 20 47 37q68 20 82 45q6 14 6 33v444q0 129 -96 150q-16 4 -16 27q0 20 14 24q59 14 117.5 44t91.5 51.5t37 21.5q14 0 14 -10q-18 -188 -18 -277v-475q0 -20 6 -33.5t24.5 -23t24.5 -11.5t33 -10q47 -16 47 -37q0 -18 -41 -18q-39 0 -85 5t-81 5t-80 -5t-86 -5 t-41 18zM170 961q0 43 166 331q23 37 55 37q100 0 100 -47q0 -18 -89 -126.5t-152 -176.5q-41 -45 -62 -45q-18 0 -18 27z" />
<glyph unicode="&#xee;" horiz-adv-x="501" d="M14 942q0 20 69 148.5t112 199.5q20 37 40.5 37t41.5 -37q45 -74 113.5 -200.5t68.5 -147.5q0 -27 -19 -27q-31 0 -61 46q-37 49 -135 172q-9 10 -15 0q-61 -74 -135 -172q-35 -45 -61 -46q-18 0 -19 27zM49 12q0 20 47 37q68 20 82 45q6 14 6 33v444q0 129 -96 150 q-16 4 -16 27q0 20 14 24q59 14 117.5 44t91.5 51.5t37 21.5q14 0 14 -10q-18 -188 -18 -277v-475q0 -20 6 -33.5t24.5 -23t24.5 -11.5t33 -10q47 -16 47 -37q0 -18 -41 -18q-39 0 -85 5t-81 5t-80 -5t-86 -5t-41 18z" />
<glyph unicode="&#xef;" horiz-adv-x="501" d="M-39 1112q0 39 31.5 71t70.5 32t70.5 -32t31.5 -71t-31.5 -70.5t-70.5 -31.5t-70.5 31.5t-31.5 70.5zM49 12q0 20 47 37q68 20 82 45q6 14 6 33v444q0 129 -96 150q-16 4 -16 27q0 20 14 24q59 14 117.5 44t91.5 51.5t37 21.5q14 0 14 -10q-18 -188 -18 -277v-475 q0 -20 6 -33.5t24.5 -23t24.5 -11.5t33 -10q47 -16 47 -37q0 -18 -41 -18q-39 0 -85 5t-81 5t-80 -5t-86 -5t-41 18zM323 1112q0 39 32 71t70.5 32t70.5 -32t32 -71t-32 -70.5t-70.5 -31.5t-70.5 31.5t-32 70.5z" />
<glyph unicode="&#xf0;" horiz-adv-x="997" d="M51 381q0 190 137.5 328.5t325.5 138.5q100 0 188 -47q14 -6 17.5 -2t-0.5 20q-57 213 -139 311l-318 -163q-12 -6 -20.5 1t-8.5 15q0 63 17 72l270 141q-160 152 -348 193q-41 10 -41 30q0 25 53 25q96 0 217 -51.5t232 -139.5l207 109q14 10 31.5 11t19.5 -13 q0 -68 -37 -86l-154 -80q234 -250 234 -682q0 -127 -49 -247t-158 -207t-254 -87q-176 0 -299 115t-123 295zM221 430q0 -156 87 -276.5t208 -120.5q115 0 186.5 132t71.5 284q0 154 -83 241.5t-212 87.5q-123 0 -190.5 -104.5t-67.5 -243.5z" />
<glyph unicode="&#xf1;" horiz-adv-x="1081" d="M49 12q0 20 47 37q68 20 82 45q6 14 6 33v440q0 63 -16 100.5t-64 47.5q-16 4 -16 26q0 20 14 25q27 6 50.5 14t40 15.5t39 20.5t31.5 19.5t34 24t33 21.5q14 0 14 -15q0 -6 -5 -57t-5 -74q0 -20 4 -24q143 137 330 137q98 0 164.5 -82t66.5 -203v-436q0 -20 6 -33.5 t24.5 -23t25 -11.5l32.5 -10q47 -16 47 -37q0 -18 -41 -18q-43 0 -86 5t-77.5 5t-79.5 -5t-88 -5q-41 0 -41 18q0 20 47 37q2 0 8 2q68 20 78 55q2 8 2 21v430q0 88 -50.5 139.5t-134.5 53.5q-123 0 -188 -54q-55 -41 -55 -147v-422q0 -20 6 -33.5t24.5 -23t24.5 -11.5 t33 -10q47 -16 47 -37q0 -18 -41 -18q-43 0 -87 5t-79 5t-79 -5t-87 -5q-41 0 -41 18zM270 1004q0 20 73 96t107 76q27 0 110 -8.5t110 -8.5q43 0 78.5 35t37.5 35q33 0 33 -35q0 -20 -69.5 -95t-104.5 -75q-27 0 -115 7.5t-114 7.5q-31 0 -72 -38t-45 -38q-29 0 -29 41z " />
<glyph unicode="&#xf2;" horiz-adv-x="1013" d="M72 383q0 176 132 320.5t316 144.5q176 0 299 -122t123 -290q0 -193 -122 -329t-341 -136q-174 0 -290.5 117t-116.5 295zM240 430q0 -158 81.5 -277.5t200.5 -119.5q154 0 211 112q41 80 41 242q0 154 -82 275.5t-207 121.5q-117 0 -180 -82q-66 -82 -65 -272zM247 1282 q0 47 101 47q33 0 55 -37q166 -289 166 -331q0 -27 -19 -27q-20 0 -61 45q-63 68 -152.5 176.5t-89.5 126.5z" />
<glyph unicode="&#xf3;" horiz-adv-x="1013" d="M72 383q0 176 132 320.5t316 144.5q176 0 299 -122t123 -290q0 -193 -122 -329t-341 -136q-174 0 -290.5 117t-116.5 295zM240 430q0 -158 81.5 -277.5t200.5 -119.5q154 0 211 112q41 80 41 242q0 154 -82 275.5t-207 121.5q-117 0 -180 -82q-66 -82 -65 -272zM439 961 q0 43 166 331q23 37 55 37q100 0 100 -47q0 -18 -89 -126.5t-152 -176.5q-41 -45 -62 -45q-18 0 -18 27z" />
<glyph unicode="&#xf4;" horiz-adv-x="1013" d="M72 383q0 176 132 320.5t316 144.5q176 0 299 -122t123 -290q0 -193 -122 -329t-341 -136q-174 0 -290.5 117t-116.5 295zM240 430q0 -158 81.5 -277.5t200.5 -119.5q154 0 211 112q41 80 41 242q0 154 -82 275.5t-207 121.5q-117 0 -180 -82q-66 -82 -65 -272zM282 942 q0 20 69 148.5t112 199.5q20 37 40.5 37t41.5 -37q45 -74 113.5 -200.5t68.5 -147.5q0 -27 -19 -27q-31 0 -61 46q-37 49 -135 172q-9 10 -15 0q-61 -74 -135 -172q-35 -45 -61 -46q-18 0 -19 27z" />
<glyph unicode="&#xf5;" horiz-adv-x="1013" d="M72 383q0 176 132 320.5t316 144.5q176 0 299 -122t123 -290q0 -193 -122 -329t-341 -136q-174 0 -290.5 117t-116.5 295zM240 430q0 -158 81.5 -277.5t200.5 -119.5q154 0 211 112q41 80 41 242q0 154 -82 275.5t-207 121.5q-117 0 -180 -82q-66 -82 -65 -272zM246 1004 q0 20 73 96t107 76q27 0 110 -8.5t110 -8.5q43 0 78.5 35t37.5 35q33 0 33 -35q0 -20 -69.5 -95t-104.5 -75q-27 0 -115 7.5t-114 7.5q-31 0 -72 -38t-45 -38q-29 0 -29 41z" />
<glyph unicode="&#xf6;" horiz-adv-x="1013" d="M72 383q0 176 132 320.5t316 144.5q176 0 299 -122t123 -290q0 -193 -122 -329t-341 -136q-174 0 -290.5 117t-116.5 295zM230 1112q0 39 31.5 71t70.5 32t70.5 -32t31.5 -71t-31.5 -70.5t-70.5 -31.5t-70.5 31.5t-31.5 70.5zM240 430q0 -158 81.5 -277.5t200.5 -119.5 q154 0 211 112q41 80 41 242q0 154 -82 275.5t-207 121.5q-117 0 -180 -82q-66 -82 -65 -272zM592 1112q0 39 32 71t70.5 32t70.5 -32t32 -71t-32 -70.5t-70.5 -31.5t-70.5 31.5t-32 70.5z" />
<glyph unicode="&#xf7;" horiz-adv-x="1208" d="M102 500q0 23 12.5 50.5t37.5 27.5h927q10 0 19.5 -7.5t9.5 -15.5q0 -2 -2 -6q-8 -25 -13.5 -36t-18.5 -24.5t-32 -13.5h-911q-10 0 -19.5 8.5t-9.5 16.5zM508 817q0 39 27.5 66.5t68.5 27.5q39 0 65.5 -27.5t26.5 -66.5t-27.5 -66.5t-66.5 -27.5t-66.5 27.5t-27.5 66.5z M510 235.5q0 38.5 27.5 66.5t66.5 28t66.5 -28t27.5 -66.5t-27.5 -66.5t-66.5 -28t-66.5 28t-27.5 66.5z" />
<glyph unicode="&#xf8;" horiz-adv-x="993" d="M51 10q0 25 21 41l82 78q-92 119 -93 252q0 193 131.5 330t319.5 137q156 0 276 -109l107 103q8 8 23 8q29 0 28 -31q0 -35 -22 -53l-82 -80q90 -117 90 -250q0 -193 -121 -329t-340 -136q-141 0 -260 99l-96 -95q-7 -6 -15 -6q-18 0 -33.5 13.5t-15.5 27.5zM231 430 q0 -104 37 -190l424 407q-86 131 -215 131q-113 0 -178 -82q-68 -86 -68 -266zM307 162q82 -129 207 -129q152 0 211 114q39 76 39 240q0 96 -35 188z" />
<glyph unicode="&#xf9;" horiz-adv-x="1079" d="M59 778q0 29 31 35q72 2 211 35q14 2 22.5 -6t6.5 -23q-12 -94 -13 -157v-400q0 -74 53.5 -130t118.5 -56q119 0 173 41q92 68 92 153v375q0 55 -43 77.5t-90 25.5q-47 0 -48 34q0 16 17.5 23.5t30.5 7.5q61 2 98 5t63.5 7t35.5 5t32 8.5t35 11.5h4q14 0 23.5 -12.5 t0.5 -24.5q-16 -29 -16 -145v-435q0 -141 37 -141q63 0 94 6t31 -26q0 -29 -29 -29q-106 -14 -239 -70q-25 -12 -50 -12q-6 0 -6 8q0 12 5 64.5t5 70.5v13q-147 -145 -337 -146q-104 0 -169 63.5t-65 180.5v416q0 82 -88 117q-27 8 -27 30zM258 1282q0 47 101 47 q33 0 55 -37q166 -289 166 -331q0 -27 -19 -27q-20 0 -61 45q-63 68 -152.5 176.5t-89.5 126.5z" />
<glyph unicode="&#xfa;" horiz-adv-x="1079" d="M59 778q0 29 31 35q72 2 211 35q14 2 22.5 -6t6.5 -23q-12 -94 -13 -157v-400q0 -74 53.5 -130t118.5 -56q119 0 173 41q92 68 92 153v375q0 55 -43 77.5t-90 25.5q-47 0 -48 34q0 16 17.5 23.5t30.5 7.5q61 2 98 5t63.5 7t35.5 5t32 8.5t35 11.5h4q14 0 23.5 -12.5 t0.5 -24.5q-16 -29 -16 -145v-435q0 -141 37 -141q63 0 94 6t31 -26q0 -29 -29 -29q-106 -14 -239 -70q-25 -12 -50 -12q-6 0 -6 8q0 12 5 64.5t5 70.5v13q-147 -145 -337 -146q-104 0 -169 63.5t-65 180.5v416q0 82 -88 117q-27 8 -27 30zM449 961q0 43 166 331 q23 37 55 37q100 0 100 -47q0 -18 -89 -126.5t-152 -176.5q-41 -45 -62 -45q-18 0 -18 27z" />
<glyph unicode="&#xfb;" horiz-adv-x="1079" d="M59 778q0 29 31 35q72 2 211 35q14 2 22.5 -6t6.5 -23q-12 -94 -13 -157v-400q0 -74 53.5 -130t118.5 -56q119 0 173 41q92 68 92 153v375q0 55 -43 77.5t-90 25.5q-47 0 -48 34q0 16 17.5 23.5t30.5 7.5q61 2 98 5t63.5 7t35.5 5t32 8.5t35 11.5h4q14 0 23.5 -12.5 t0.5 -24.5q-16 -29 -16 -145v-435q0 -141 37 -141q63 0 94 6t31 -26q0 -29 -29 -29q-106 -14 -239 -70q-25 -12 -50 -12q-6 0 -6 8q0 12 5 64.5t5 70.5v13q-147 -145 -337 -146q-104 0 -169 63.5t-65 180.5v416q0 82 -88 117q-27 8 -27 30zM292 942q0 20 69 148.5t112 199.5 q20 37 40.5 37t41.5 -37q45 -74 113.5 -200.5t68.5 -147.5q0 -27 -19 -27q-31 0 -61 46q-37 49 -135 172q-9 10 -15 0q-61 -74 -135 -172q-35 -45 -61 -46q-18 0 -19 27z" />
<glyph unicode="&#xfc;" horiz-adv-x="1079" d="M59 778q0 29 31 35q72 2 211 35q14 2 22.5 -6t6.5 -23q-12 -94 -13 -157v-400q0 -74 53.5 -130t118.5 -56q119 0 173 41q92 68 92 153v375q0 55 -43 77.5t-90 25.5q-47 0 -48 34q0 16 17.5 23.5t30.5 7.5q61 2 98 5t63.5 7t35.5 5t32 8.5t35 11.5h4q14 0 23.5 -12.5 t0.5 -24.5q-16 -29 -16 -145v-435q0 -141 37 -141q63 0 94 6t31 -26q0 -29 -29 -29q-106 -14 -239 -70q-25 -12 -50 -12q-6 0 -6 8q0 12 5 64.5t5 70.5v13q-147 -145 -337 -146q-104 0 -169 63.5t-65 180.5v416q0 82 -88 117q-27 8 -27 30zM240 1112q0 39 31.5 71t70.5 32 t70.5 -32t31.5 -71t-31.5 -70.5t-70.5 -31.5t-70.5 31.5t-31.5 70.5zM602 1112q0 39 32 71t70.5 32t70.5 -32t32 -71t-32 -70.5t-70.5 -31.5t-70.5 31.5t-32 70.5z" />
<glyph unicode="&#xfd;" horiz-adv-x="897" d="M10 811q0 18 41 18q43 0 79 -5t71 -5t73.5 5t81.5 5q41 0 41 -22q0 -29 -59 -45q-41 -12 -41 -66q0 -18 16 -57l162 -401q16 -39 31 2l137 364q16 37 16 76q0 61 -41 78q-59 27 -59 49t41 22q14 0 58 -5t87 -5q41 0 72 5t49 5q41 0 41 -18q0 -20 -47 -37 q-31 -10 -65.5 -49t-55.5 -88l-278 -664q-2 -6 -34 -81.5t-79 -190.5t-84 -201q-37 -84 -133 -84q-39 0 -71.5 20.5t-32.5 53.5q0 61 55 61q16 0 44 -6t38 -6q25 0 39 23q94 162 186 405q6 18 6 47q0 37 -8 60l-237 600q-35 84 -93 100q-47 16 -47 37zM414 961q0 43 166 331 q23 37 55 37q100 0 100 -47q0 -18 -89 -126.5t-152 -176.5q-41 -45 -62 -45q-18 0 -18 27z" />
<glyph unicode="&#xfe;" horiz-adv-x="1034" d="M33 -565q0 20 47 37q2 0 13 4t15.5 5t14.5 4t13 6t11.5 7t11.5 9.5t7 12.5t6 14t2 17v1608q0 129 -94 150q-16 4 -17 26q0 20 15 25q51 12 237 82h2l2 2q12 0 13 -14q0 -6 -3 -38t-7.5 -95.5t-4.5 -145.5v-360q0 -74 5 -78q39 39 140 87t187 48q152 0 244 -117t92 -270 q0 -188 -136 -339t-325 -151q-45 0 -108.5 19.5t-91.5 46.5q-6 0 -7 -105v-381q0 -27 14.5 -44t27 -22t40.5 -13q47 -16 47 -37q0 -18 -47 -19q-41 0 -83 5.5t-76.5 5.5t-76.5 -5.5t-83 -5.5q-47 0 -47 19zM317 236q0 -104 48 -150q55 -51 190 -51q35 0 77 18.5t86 57.5 t73.5 113.5t29.5 170.5q0 111 -29.5 189t-77.5 111.5t-89 47t-82 13.5q-98 0 -176 -60q-49 -37 -50 -145v-315z" />
<glyph unicode="&#xff;" horiz-adv-x="897" d="M10 811q0 18 41 18q43 0 79 -5t71 -5t73.5 5t81.5 5q41 0 41 -22q0 -29 -59 -45q-41 -12 -41 -66q0 -18 16 -57l162 -401q16 -39 31 2l137 364q16 37 16 76q0 61 -41 78q-59 27 -59 49t41 22q14 0 58 -5t87 -5q41 0 72 5t49 5q41 0 41 -18q0 -20 -47 -37 q-31 -10 -65.5 -49t-55.5 -88l-278 -664q-2 -6 -34 -81.5t-79 -190.5t-84 -201q-37 -84 -133 -84q-39 0 -71.5 20.5t-32.5 53.5q0 61 55 61q16 0 44 -6t38 -6q25 0 39 23q94 162 186 405q6 18 6 47q0 37 -8 60l-237 600q-35 84 -93 100q-47 16 -47 37zM205 1112 q0 39 31.5 71t70.5 32t70.5 -32t31.5 -71t-31.5 -70.5t-70.5 -31.5t-70.5 31.5t-31.5 70.5zM567 1112q0 39 32 71t70.5 32t70.5 -32t32 -71t-32 -70.5t-70.5 -31.5t-70.5 31.5t-32 70.5z" />
<glyph unicode="&#x152;" horiz-adv-x="1910" d="M92 655q0 190 79 347t243 257.5t385 100.5q88 0 186 -25q25 -6 170 -6q82 0 226.5 2t256 4t115.5 2q35 0 37 -18q31 -166 31 -211q0 -31 -29 -31q-16 0 -23 21q-31 96 -45 112q-49 55 -137 56h-268q-20 0 -47 -19.5t-27 -46.5v-434q0 -18 11.5 -31.5t25.5 -13.5h197 q90 0 125 80q4 8 17 21.5t19 13.5q8 0 17.5 -9.5t9.5 -23.5q0 -8 -3 -51t-3 -62q0 -23 2 -78t2 -61q0 -35 -18 -35q-33 0 -48 47q-31 92 -94 92h-190q-39 0 -54.5 -10t-15.5 -43v-393q0 -76 32 -106.5t103 -30.5h213q109 0 156 37q39 31 86 129q12 23 29 20q27 -4 26 -22 q0 -82 -35 -211q-8 -35 -28 -35q-133 0 -345 6t-308 6q-27 0 -59 -1t-59.5 -3t-50 -4t-36.5 -2l-15 -2q-80 -18 -172 -19q-276 0 -483 199t-207 485zM291 717q0 -270 148.5 -468t369.5 -198q68 0 106.5 3t82.5 12.5t63.5 34t19.5 63.5v942q0 88 -88 131t-225 43 q-217 0 -347 -168t-130 -395z" />
<glyph unicode="&#x153;" horiz-adv-x="1546" d="M72 383q0 176 132 320.5t316 144.5q201 0 330 -156q16 -23 29 -6q115 158 321 162q147 0 216 -52.5t69 -133.5q0 -92 -43 -113q-45 -23 -115 -23h-336q-29 0 -40 -13t-11 -62q0 -150 87 -251.5t222 -101.5q121 0 185 82q10 10 18 10q10 0 18.5 -10t6.5 -22 q-18 -66 -104.5 -126.5t-215.5 -60.5q-86 0 -167 43t-132 119q-12 16 -22 0q-127 -162 -357 -162q-174 0 -290.5 117t-116.5 295zM240 430q0 -158 81.5 -277.5t200.5 -119.5q154 0 211 112q41 80 41 242q0 154 -82 275.5t-207 121.5q-117 0 -180 -82q-66 -82 -65 -272z M979 621q0 -31 39 -31h168q96 0 149 10q16 2 17 53v29q-10 102 -164 102q-129 0 -201 -133q-8 -14 -8 -30z" />
<glyph unicode="&#x178;" horiz-adv-x="1183" d="M0 1315q0 23 59 22q27 0 108 -3t132 -3q35 0 90 2t74 2q59 0 59 -22q0 -27 -67 -41q-66 -16 -66 -51q0 -27 27 -74l188 -338q45 -78 58 -78q18 0 67 78q76 115 172 285q37 61 37 104q0 59 -84 72q-23 4 -45.5 16t-22.5 25q0 23 60 22q31 0 78 -1t75 -1q47 0 121 3t92 3 q59 0 60 -22q0 -20 -109 -51q-49 -14 -82.5 -51t-97.5 -136q-121 -186 -227 -368q-37 -63 -44 -92t-7 -93v-303q0 -70 41.5 -114t119.5 -58q68 -12 68 -37q0 -23 -60 -22q-57 0 -125.5 5t-113.5 5q-49 0 -128 -5t-134 -5q-59 0 -60 22q0 25 68 37q160 29 160 172v303 q0 59 -52 152l-239 393q-113 180 -182 201q-68 20 -68 45zM352 1528q0 43 30 72.5t73 29.5t72.5 -29.5t29.5 -72.5t-29.5 -73t-72.5 -30t-73 30t-30 73zM752 1528q0 43 29.5 72.5t72.5 29.5t72.5 -29.5t29.5 -72.5t-29.5 -73t-72.5 -30t-72.5 30t-29.5 73z" />
<glyph unicode="&#x2c6;" horiz-adv-x="567" d="M61 942q0 20 69 148.5t112 199.5q20 37 40.5 37t41.5 -37q45 -74 113.5 -200.5t68.5 -147.5q0 -27 -19 -27q-31 0 -61 46q-37 49 -135 172q-9 10 -15 0q-61 -74 -135 -172q-35 -45 -61 -46q-18 0 -19 27z" />
<glyph unicode="&#x2dc;" horiz-adv-x="647" d="M49 969q0 20 73 96t107 76q27 0 110 -8.5t110 -8.5q43 0 78.5 35t37.5 35q33 0 33 -35q0 -20 -69.5 -95t-104.5 -75q-27 0 -115 7.5t-114 7.5q-31 0 -72 -38t-45 -38q-29 0 -29 41z" />
<glyph unicode="&#x2000;" horiz-adv-x="864" />
<glyph unicode="&#x2001;" horiz-adv-x="1729" />
<glyph unicode="&#x2002;" horiz-adv-x="864" />
<glyph unicode="&#x2003;" horiz-adv-x="1729" />
<glyph unicode="&#x2004;" horiz-adv-x="576" />
<glyph unicode="&#x2005;" horiz-adv-x="432" />
<glyph unicode="&#x2006;" horiz-adv-x="288" />
<glyph unicode="&#x2007;" horiz-adv-x="288" />
<glyph unicode="&#x2008;" horiz-adv-x="216" />
<glyph unicode="&#x2009;" horiz-adv-x="345" />
<glyph unicode="&#x200a;" horiz-adv-x="96" />
<glyph unicode="&#x2010;" horiz-adv-x="561" d="M59 360q0 37 9.5 73t23.5 38q262 37 393 51q16 0 17 -12q0 -104 -43 -111q-276 -41 -387 -51q-12 0 -13 12z" />
<glyph unicode="&#x2011;" horiz-adv-x="561" d="M59 360q0 37 9.5 73t23.5 38q262 37 393 51q16 0 17 -12q0 -104 -43 -111q-276 -41 -387 -51q-12 0 -13 12z" />
<glyph unicode="&#x2012;" horiz-adv-x="561" d="M59 360q0 37 9.5 73t23.5 38q262 37 393 51q16 0 17 -12q0 -104 -43 -111q-276 -41 -387 -51q-12 0 -13 12z" />
<glyph unicode="&#x2013;" horiz-adv-x="1126" d="M102 403q0 25 12.5 55.5t37.5 30.5h845q10 0 18.5 -8t8.5 -16q0 -31 -19.5 -58.5t-43.5 -27.5h-830q-10 0 -19.5 7t-9.5 17z" />
<glyph unicode="&#x2014;" horiz-adv-x="1945" d="M102 403q0 25 12.5 55.5t37.5 30.5h1665q10 0 18 -8t8 -16q0 -31 -19.5 -58.5t-43.5 -27.5h-1649q-10 0 -19.5 7t-9.5 17z" />
<glyph unicode="&#x2018;" horiz-adv-x="491" d="M82 1071q0 141 99.5 239.5t191.5 102.5h4q37 0 37 -22q0 -18 -29 -25q-80 -16 -138.5 -70.5t-58.5 -152.5q0 -27 24.5 -57.5t55.5 -32.5q45 -4 71 -28t26 -58q0 -41 -34 -68t-79 -27q-74 0 -122 56.5t-48 142.5z" />
<glyph unicode="&#x2019;" horiz-adv-x="491" d="M82 895q0 18 29 25q80 16 138 70t58 153q0 27 -24.5 57.5t-55.5 32.5q-45 4 -70.5 27.5t-25.5 58.5q0 41 34 67.5t79 26.5q74 0 122 -56.5t48 -142.5q0 -141 -99.5 -239t-191.5 -103h-4q-37 0 -37 23z" />
<glyph unicode="&#x201a;" horiz-adv-x="495" d="M82 -279q0 18 29 25q80 16 138 70.5t58 152.5q0 27 -24.5 57.5t-55.5 32.5q-45 4 -70.5 28t-25.5 58q0 41 34 68t79 27q74 0 122 -56.5t48 -142.5q0 -141 -99.5 -239.5t-191.5 -102.5h-4q-37 0 -37 22z" />
<glyph unicode="&#x201c;" horiz-adv-x="860" d="M82 1071q0 141 99.5 239.5t191.5 102.5h4q37 0 37 -22q0 -18 -29 -25q-80 -16 -138.5 -70.5t-58.5 -152.5q0 -27 24.5 -57.5t55.5 -32.5q45 -4 71 -28t26 -58q0 -41 -34 -68t-79 -27q-74 0 -122 56.5t-48 142.5zM446 1071q0 141 99.5 239.5t191.5 102.5h4q37 0 37 -22 q0 -18 -28 -25q-80 -16 -138.5 -70.5t-58.5 -152.5q0 -27 24.5 -57.5t55.5 -32.5q45 -4 70.5 -28t25.5 -58q0 -41 -33.5 -68t-79.5 -27q-74 0 -122 56.5t-48 142.5z" />
<glyph unicode="&#x201d;" horiz-adv-x="860" d="M82 895q0 18 29 25q80 16 138 70t58 153q0 27 -24.5 57.5t-55.5 32.5q-45 4 -70.5 27.5t-25.5 58.5q0 41 34 67.5t79 26.5q74 0 122 -56.5t48 -142.5q0 -141 -99.5 -239t-191.5 -103h-4q-37 0 -37 23zM446 895q0 18 29 25q80 16 138.5 70t58.5 153q0 27 -24.5 57.5 t-55.5 32.5q-45 4 -70.5 27.5t-25.5 58.5q0 41 33.5 67.5t78.5 26.5q74 0 122 -56.5t48 -142.5q0 -141 -99 -239t-192 -103h-4q-37 0 -37 23z" />
<glyph unicode="&#x201e;" horiz-adv-x="860" d="M82 -279q0 18 29 25q80 16 138 70.5t58 152.5q0 27 -24.5 57.5t-55.5 32.5q-45 4 -70.5 28t-25.5 58q0 41 34 68t79 27q74 0 122 -56.5t48 -142.5q0 -141 -99.5 -239.5t-191.5 -102.5h-4q-37 0 -37 22zM446 -279q0 18 29 25q80 16 138.5 70.5t58.5 152.5q0 27 -24.5 57.5 t-55.5 32.5q-45 4 -70.5 28t-25.5 58q0 41 33.5 68t78.5 27q74 0 122 -56.5t48 -142.5q0 -141 -99 -239.5t-192 -102.5h-4q-37 0 -37 22z" />
<glyph unicode="&#x2022;" horiz-adv-x="552" d="M92 737q0 78 54.5 131.5t130 53.5t130 -53.5t54.5 -131.5t-54.5 -131t-130 -53t-130 53t-54.5 131z" />
<glyph unicode="&#x2026;" horiz-adv-x="1400" d="M123 84q0 47 32.5 80t80 33t80 -33t32.5 -80t-32.5 -80t-80 -33t-80 33t-32.5 80zM590 84q0 47 32.5 80t80 33t80 -33t32.5 -80t-32.5 -80t-80 -33t-80 33t-32.5 80zM1057 84q0 47 32.5 80t80 33t80 -33t32.5 -80t-32.5 -80t-80 -33t-80 33t-32.5 80z" />
<glyph unicode="&#x202f;" horiz-adv-x="345" />
<glyph unicode="&#x2039;" horiz-adv-x="950" d="M205 432q0 10 6 14q299 178 463 336q37 37 59 37q12 0 12 -18q0 -14 -10 -31q-53 -80 -114.5 -148.5t-98.5 -98.5t-98 -79q-6 -4 -9 -7t-3 -7t3 -7t9 -7q186 -143 311 -334q6 -8 6 -19q0 -25 -18 -24q-25 0 -61 37q-205 199 -420 297q-14 8 -25.5 26.5t-11.5 32.5z" />
<glyph unicode="&#x203a;" horiz-adv-x="950" d="M205 803q0 16 10 16q16 0 61 -37q164 -158 463 -336q6 -4 6 -14q0 -14 -11 -32.5t-25 -26.5q-215 -98 -420 -297q-45 -37 -62 -37q-18 0 -18 22q0 12 6 21q125 190 311 334q6 4 9.5 7t3.5 7t-3.5 7t-9.5 7q-61 49 -98 79t-98.5 98.5t-114.5 148.5q-10 12 -10 33z" />
<glyph unicode="&#x205f;" horiz-adv-x="432" />
<glyph unicode="&#x20ac;" horiz-adv-x="1361" d="M-55 535q0 16 14 34.5t35 18.5l110 2q0 8 -1 23.5t-1 21.5q0 45 7 92l-70 -2q-10 0 -19.5 8t-9.5 17q0 16 14.5 34.5t34.5 18.5l64 2q59 242 260 397.5t457 155.5q143 0 217 -25q20 -6 80.5 -19.5t74.5 -17.5q23 -6 27 -61q14 -111 16 -223q2 -16 -3 -32.5t-19 -14.5 q-16 2 -22.5 14t-12.5 49q-10 90 -90 162q-27 27 -111 57.5t-206 30.5q-186 0 -315.5 -135t-164.5 -334l721 20q12 0 21.5 -9t5.5 -19q-23 -61 -64 -62l-694 -10q0 -8 -1 -22.5t-1 -22.5q0 -45 6 -88l662 18q12 0 21 -9t5 -19q-23 -61 -63 -62l-611 -8q45 -201 181.5 -333 t324.5 -132q119 0 254 76q94 55 121 154q4 10 14.5 18t22.5 13t14 7.5t4 2.5q14 0 15 -39q0 -4 -1 -9.5t-1 -7.5q-6 -39 -34 -107.5t-50 -103.5q-4 -6 -11.5 -11t-15.5 -8t-26.5 -11.5t-30.5 -14.5q-88 -41 -344 -41q-240 0 -420 155t-221 388l-142 -2q-10 0 -19 7t-9 18z " />
<glyph unicode="&#x2122;" horiz-adv-x="2072" d="M2 1237q0 8 8 24q27 53 41 137q4 27 22.5 27t32.5 -25q18 -29 95 -28h444q74 0 96 30q10 14 37 15q4 0 10.5 -6.5t6.5 -14.5q0 -25 -12.5 -74t-10.5 -71q0 -12 -5 -22.5t-15 -8.5q-8 0 -12.5 7.5t-7.5 18.5t-5 13t-5 8t-4 9.5t-5 8.5t-8.5 7t-11.5 5t-16 5t-21.5 3 t-28.5 1q-109 0 -158 -4q-23 -2 -23 -53v-535q0 -80 107 -96q43 -6 43 -29q0 -16 -39 -16h-350q-39 0 -39 16q0 23 45 29q102 16 102 96v535q0 49 -22 53q-20 4 -49 4h-68q-86 0 -108 -39q-27 -47 -56 -47q-10 0 -10 17zM897 589q0 23 45 29q43 6 62.5 32.5t19.5 47.5v526 q0 43 -22 68q-23 23 -84 39q-18 4 -19 28q0 18 31 19h209q18 0 76 -125l211 -432q14 -33 30 -4l242 483q4 6 9 16.5t9 16.5t9.5 14t8.5 12.5t8 9.5t9 7t8 2h197q33 0 33 -19q0 -10 -13.5 -19t-21.5 -11q-6 -2 -19.5 -5t-19.5 -5.5t-16.5 -5.5t-16.5 -7t-12 -9t-8 -11t-2 -15 v-581q0 -35 22.5 -49.5t77.5 -22.5q43 -6 43 -29q0 -16 -39 -16h-309q-39 0 -39 16q0 23 45 29q41 4 54.5 18.5t13.5 55.5v504q0 18 -6.5 18t-14.5 -18l-305 -646q-6 12 -55 120t-119 257.5t-123 255.5q-12 14 -14 -10v-473q0 -68 86 -82q43 -6 43 -29q0 -16 -39 -16h-246 q-39 0 -39 16z" />
<glyph unicode="&#x25fc;" horiz-adv-x="829" d="M0 0v829h829v-829h-829z" />
<glyph unicode="&#xfb01;" horiz-adv-x="1073" />
<glyph unicode="&#xfb02;" horiz-adv-x="1048" />
<glyph unicode="&#xfb03;" horiz-adv-x="1585" />
<glyph unicode="&#xfb04;" horiz-adv-x="1572" />
</font>
</defs>
</svg>
