<?xml version="1.0" standalone="no"?>
<!DOCTYPE svg PUBLIC "-//W3C//DTD SVG 1.1//EN" "http://www.w3.org/Graphics/SVG/1.1/DTD/svg11.dtd" >
<svg xmlns="http://www.w3.org/2000/svg">
<metadata>
This is a custom SVG webfont generated by Font Squirrel.
Copyright   : Copyright  1985 1987 1990 1992 1993 2001 Adobe Systems Incorporated  All Rights Reserved
Designer    : Ed Benguiat
Foundry URL : httpwwwadobecomtype
</metadata>
<defs>
<font id="webfontjny8YMzc" horiz-adv-x="1269" >
<font-face units-per-em="2048" ascent="1401" descent="-647" />
<missing-glyph horiz-adv-x="655" />
<glyph unicode=" "  horiz-adv-x="655" />
<glyph unicode="&#x09;" horiz-adv-x="655" />
<glyph unicode="&#xa0;" horiz-adv-x="655" />
<glyph unicode="!" horiz-adv-x="696" d="M340 -20q-29 0 -53.5 12t-42 32.5t-27.5 46t-10 52.5q0 59 39 103t100 44q59 0 94 -44t35 -97q0 -55 -38 -102t-97 -47zM528 1348q-25 -53 -41 -104.5t-27 -111t-15.5 -133t-4.5 -170.5q0 -98 3 -167.5t9.5 -123t17.5 -98.5t28 -92q-68 61 -152 61.5t-149 -61.5 q16 47 27.5 92t17.5 98.5t9 123t3 167.5q0 96 -4 170t-15.5 133.5t-28 110.5t-40.5 105h362z" />
<glyph unicode="&#x22;" horiz-adv-x="573" d="M162 936h-41l-68 289q-2 12 -2 19v13q0 47 30 69t64 22q27 0 49.5 -11.5t32.5 -33.5q6 -16 7.5 -28.5t-1.5 -27.5zM453 936h-41l-68 289q-2 12 -2 19v13q0 47 29.5 69t64.5 22q27 0 49.5 -11.5t32.5 -33.5q6 -16 7 -28.5t-1 -27.5z" />
<glyph unicode="#" horiz-adv-x="1310" d="M588 866l-90 -368h223l90 368h-223zM948 969h232l-31 -103h-227l-91 -368h240l-31 -103h-233l-94 -395h-109l94 395h-225l-94 -395h-113l94 395h-231l31 103h225l92 368h-239l30 103h232l88 379h112l-90 -379h226l90 379h108z" />
<glyph unicode="$" horiz-adv-x="1310" d="M680 190q51 4 100 23.5t87 52.5t60.5 78t22.5 100q0 57 -26.5 91t-66.5 51.5t-87 25.5l-90 17v-439zM555 649l-18 4q-66 12 -133.5 28.5t-124 48.5t-92 84t-35.5 134q0 76 38.5 132.5t98 93t130 56t136.5 19.5v109q0 43 -12.5 74.5t-50.5 35.5v19h237v-19 q-18 0 -28.5 -10t-15.5 -27.5t-5 -37.5v-41v-103q70 0 129 -13t90 -13q47 0 70 22l55 -377h-16q-41 131 -146.5 206t-243.5 75q-47 0 -91 -6t-77.5 -22.5t-54 -43t-20.5 -69.5q0 -37 23.5 -62.5t58.5 -43t71.5 -27t65.5 -15.5l225 -45q66 -12 124 -32.5t101 -54.5t69 -85 t26 -129q0 -94 -39 -171t-103.5 -132t-146.5 -88t-170 -39v-131q0 -29 10 -47.5t45 -28.5v-18h-235v18q41 2 48 31t7 67v109q-61 2 -109.5 13.5t-85 17.5t-64.5 -2.5t-48 -44.5l-125 477l18 2q39 -74 76 -132.5t84 -101.5t107.5 -72.5t146.5 -47.5v456z" />
<glyph unicode="%" horiz-adv-x="1843" d="M1081 1180q10 25 22.5 51t16.5 49t-3 37t-38 12v19h230v-19q-25 2 -44.5 -18.5t-35 -49t-26.5 -58t-19 -48.5l-432 -1024l-18.5 -44t-10.5 -37.5t6 -25t33 -6.5v-18h-230v18q47 14 62.5 41t36.5 72zM1436 748q-66 0 -104 -41t-59.5 -99.5t-27.5 -123t-6 -111.5 q0 -43 7 -98.5t26.5 -104.5t54.5 -83t92 -34q63 0 100 43t56.5 104.5t25 127t5.5 110.5q0 41 -6.5 94.5t-25 101.5t-51 81t-87.5 33zM1430 821q88 0 150 -38t100 -98t55.5 -136t17.5 -152q0 -74 -19.5 -148.5t-59.5 -134t-101.5 -97t-145.5 -37.5q-88 0 -151.5 35.5 t-104.5 95t-60 134t-19 152.5q0 76 20.5 153t62.5 136t105.5 97t149.5 38zM434 1300q-66 0 -103.5 -40.5t-59 -99t-27.5 -123t-6 -111.5q0 -43 7 -98.5t26.5 -104.5t54 -83t92.5 -34q63 0 100 43t56.5 104.5t24.5 127t5 110.5q0 41 -6 94.5t-24.5 101.5t-51.5 80.5t-88 32.5 zM428 1374q88 0 150.5 -38t100.5 -98t55.5 -136t17.5 -152q0 -74 -19.5 -148.5t-59.5 -134t-101.5 -97.5t-145.5 -38q-88 0 -151.5 36t-104.5 95.5t-60.5 134t-19.5 152.5q0 76 20.5 153t62.5 136t105.5 97t149.5 38z" />
<glyph unicode="&#x26;" horiz-adv-x="1802" d="M1159 545q14 139 -34 263t-154 196q-41 -63 -97.5 -93t-130.5 -45zM688 907q61 29 108.5 82t47.5 125q0 78 -49.5 124t-126.5 46q-63 0 -114.5 -37t-51.5 -104q0 -37 17.5 -73t45 -66.5t60 -55.5t63.5 -41zM1065 365l-467 370l-68 51q-96 -61 -146 -136t-50 -195 q0 -78 25.5 -144.5t71.5 -116t111.5 -77t145.5 -27.5q61 0 121.5 18.5t114 51.5t97.5 78t73 100zM1174 0v18q51 10 72.5 34t18.5 56.5t-28 72.5t-63 81q-86 -143 -231.5 -216t-309.5 -73q-96 0 -190.5 31t-168 87t-119.5 139t-46 188q0 80 27.5 148.5t76.5 122.5t114.5 90 t141.5 52q-72 43 -116 108t-44 151q0 72 33 125t85 88.5t116.5 53t126.5 17.5q61 0 119.5 -17.5t104.5 -51t74.5 -85t28.5 -118.5q0 -45 -18 -84q84 -53 176 -90t191 -37q27 0 58.5 7t57 21.5t43 38t17.5 56.5q0 35 -22.5 57.5t-57.5 22.5q-29 0 -52.5 -11.5t-43.5 -25.5 q27 47 72.5 83t103.5 36q78 0 124 -51.5t46 -129.5q0 -59 -26 -107t-66.5 -82t-94 -51.5t-110.5 -17.5q-51 0 -92 13.5t-86 35.5q45 -92 50 -181t-12 -148q82 -72 148.5 -158t120.5 -182q23 -41 47 -65.5t74 -33.5v-18h-471z" />
<glyph unicode="'" horiz-adv-x="368" d="M203 936h-41l-68 289q-2 12 -2 19v13q0 47 30 69t64 22q27 0 49.5 -11.5t32.5 -33.5q6 -16 7 -28.5t-1 -27.5z" />
<glyph unicode="(" horiz-adv-x="696" d="M532 -295q-86 78 -153.5 175t-114.5 206t-71.5 224.5t-24.5 230.5t24.5 234.5t70.5 233t113.5 214t155.5 178.5l62 -55q-53 -31 -100.5 -106t-82 -177t-55 -224t-20.5 -247q0 -174 28.5 -320.5t69.5 -255t88 -173t84 -72.5z" />
<glyph unicode=")" horiz-adv-x="696" d="M164 1401q86 -78 153.5 -175.5t114.5 -206t71.5 -224t24.5 -230.5t-24.5 -234.5t-70.5 -233t-113.5 -215t-155.5 -177.5l-62 55q53 31 100.5 106t82 177t55 224t20.5 247q0 174 -28.5 320.5t-69.5 255t-88 173t-84 72.5z" />
<glyph unicode="*" horiz-adv-x="1064" d="M446 1034l15 21l-19 6q-35 10 -71.5 18t-73.5 8q-16 0 -30.5 -2t-30.5 -6l55 158q35 -37 79 -57.5t91 -36.5l22 -6v16q0 51 -9 101.5t-38 93.5h170q-27 -41 -33 -89.5t-6 -95.5v-26l17 4q47 16 96 37.5t78 64.5l55 -153l-37 2q-41 0 -78 -10l-77 -19l-25 -8l41 -49 q29 -33 54.5 -57.5t66.5 -41.5l-135 -98q-6 49 -30 92t-52 84l-15 21l-10 -15q-29 -41 -51.5 -86t-32.5 -96l-135 98q41 14 64.5 34t52.5 54z" />
<glyph unicode="+" horiz-adv-x="1228" d="M680 281q0 -29 7 -40.5t18 -21.5h-187q23 14 29 29.5t6 32.5v331h-330q-25 0 -37 -4t-28 -24v182q6 -8 18 -17.5t45 -9.5h332v328q0 25 -4 37t-27 29h185q-8 -4 -18.5 -17.5t-10.5 -46.5v-330h332q29 0 41 8.5t22 18.5v-188q-16 25 -30.5 29.5t-30.5 4.5h-332v-331z" />
<glyph unicode="," horiz-adv-x="655" d="M264 -174h-170q29 20 45 54l31 65l74 157q20 45 31.5 82t0.5 58h222z" />
<glyph unicode="-" horiz-adv-x="532" d="M442 412q-18 16 -42 16h-46h-178q-47 0 -88 -5t-68 -48h-16l86 229q18 -16 42 -16h46h178q47 0 88 5t68 48h16z" />
<glyph unicode="." horiz-adv-x="655" d="M328 -20q-29 0 -53.5 12t-42 32.5t-27.5 46t-10 52.5q0 59 38.5 103t100.5 44q59 0 94 -44t35 -97q0 -55 -38 -102t-97 -47z" />
<glyph unicode="/" horiz-adv-x="860" d="M229 -119q-10 -23 -21 -56.5t-11 -55.5q0 -23 10 -31t31 -17v-16h-244v16q53 14 73.5 53.5t38.5 84.5l525 1321q8 18 20.5 50t12.5 52q0 41 -48 47v19h250v-19q-47 -4 -66.5 -34.5t-35.5 -71.5l-21 -58z" />
<glyph unicode="0" horiz-adv-x="1310" d="M330 629q0 -76 13 -172.5t48 -182.5t98.5 -144t161.5 -58q90 0 153.5 56t102.5 148.5t56.5 210t17.5 238.5t-19.5 222.5t-58.5 174t-95 113.5t-132 41t-130 -33t-92 -86t-62.5 -121.5t-38 -141.5t-18.5 -141.5t-5 -123.5zM670 1374q117 2 215 -46t169.5 -138t111.5 -221 t40 -295q0 -160 -40 -289t-112.5 -220t-175 -141.5t-227.5 -50.5q-131 0 -232.5 56.5t-171 151.5t-106.5 221t-37 266q0 137 39 265t112 226t177.5 156.5t237.5 58.5z" />
<glyph unicode="1" horiz-adv-x="1310" d="M543 1020q0 39 -2 82t-14.5 80t-38 61.5t-72.5 24.5l-90 -8v18l450 123v-1071q0 -68 4 -124t24.5 -97t64.5 -65t124 -26v-18h-667v18q80 0 124 24t64.5 64.5t24.5 98t4 125.5v690z" />
<glyph unicode="2" horiz-adv-x="1310" d="M1067 -27q-8 14 -18.5 19.5t-20.5 7.5t-22.5 1t-28.5 -1h-918l143 117l126 108l115 108q56 54 112 118l100 117q53 65 98.5 136.5t75 146.5t29.5 148q0 133 -78 197t-205 64q-84 0 -157.5 -34t-126.5 -100q-37 -47 -45 -99t-8 -109l-21 -5l-78 357q98 47 218 75.5 t231 28.5q80 0 169 -20.5t163.5 -63.5t123 -111.5t48.5 -164.5q0 -63 -18.5 -120.5t-45.5 -106t-58.5 -87t-58.5 -67.5q-31 -35 -88 -91l-123 -119l-132 -122l-117 -100h258q100 0 174.5 2t130 19.5t95.5 54t69 108.5l20 -4z" />
<glyph unicode="3" horiz-adv-x="1310" d="M731 979q94 -10 179 -46t149.5 -95.5t102.5 -141.5t38 -182q0 -127 -54 -226.5t-143.5 -170t-202 -107.5t-229.5 -37q-141 0 -270 45t-248 117l211 314l12 -9q-10 -27 -16 -50t-6 -54q0 -59 30.5 -105.5t79 -78t104.5 -48t110 -16.5q78 0 151.5 28.5t132 79t94 119 t35.5 150.5q0 90 -41 157.5t-106.5 112.5t-146.5 67.5t-160 22.5q-41 0 -84 -5t-84 -11l456 358h-319q-51 0 -92 -2t-75 -14t-60.5 -40t-51.5 -77l-18 4l96 336q18 -16 43 -22q12 -4 29 -4h43h651l41 -70z" />
<glyph unicode="4" horiz-adv-x="1310" d="M1159 334q-18 39 -38.5 41t-61.5 2h-133v-117q0 -43 2 -84t14 -74.5t37 -56t70 -27.5v-18h-455v18q45 6 69.5 29t37 56.5t14.5 74.5t2 82v117h-502q-39 0 -80 -1t-78 -18q-2 39 15.5 81t45 86t61.5 90l69 94q33 45 71.5 104t72.5 123.5t56.5 130.5t22.5 123 q0 29 -11 54.5t-44 29.5l284 213q12 -47 13 -96q0 -96 -28 -174t-75 -160l-200 -301l-84 -113l-51 -69q-26 -34 -42 -72h484v575q84 27 134 88.5t75 145.5h26q-20 -92 -23 -185.5t-3 -187.5v-436h51h73q34 0 61.5 8t51 28.5t43.5 59.5l19 -4z" />
<glyph unicode="5" horiz-adv-x="1310" d="M930 1090l-19 4v14q-4 49 -34.5 52t-71.5 3h-453q0 -121 -33 -231q66 10 125.5 13t98.5 7q111 10 226.5 -15.5t209.5 -84.5t154.5 -153.5t60.5 -219.5q0 -117 -55.5 -211t-146.5 -160.5t-206.5 -102.5t-238.5 -36q-131 0 -255 36t-237 106l193 319l16 -10 q-18 -43 -16 -101.5t33.5 -111.5t98 -91t175.5 -38q78 0 152.5 26.5t134 75.5t95.5 117t36 152q0 92 -43 153.5t-108.5 98t-146.5 52t-157 15.5q-98 0 -186 -17.5t-180 -54.5q59 139 84.5 313.5t-3.5 362.5q29 -20 62 -22q16 -2 33 -2h32h545q35 0 54.5 1t46.5 23z" />
<glyph unicode="6" horiz-adv-x="1310" d="M670 797q-154 0 -264 -107q-49 -51 -69 -113.5t-20 -132.5q0 -72 24 -138t68 -118.5t105 -84t137 -31.5t137.5 28.5t102.5 77.5t63.5 113.5t22.5 136.5q0 74 -20.5 144.5t-69.5 125.5q-41 47 -99.5 73t-117.5 26zM973 997l-21 7v45q0 102 -58 160.5t-161 58.5 q-96 0 -175 -45t-135 -119t-87 -169t-31 -196q78 80 182.5 122t214.5 42q100 0 188.5 -32.5t154 -93t103.5 -144.5t38 -189q0 -111 -43 -197.5t-117 -148t-169 -93.5t-200 -32q-150 0 -256 55.5t-174.5 147.5t-101.5 214t-33 255q0 176 48 312.5t135 228.5t210 140t273 48 q170 0 327 -55z" />
<glyph unicode="7" horiz-adv-x="1310" d="M926 1348q20 0 45.5 -1t51.5 3t46.5 13t32.5 32q4 -16 6 -31.5t2 -32.5q0 -66 -15.5 -128t-41 -121.5t-57.5 -116.5l-64 -113l-118 -208q-56 -101 -100 -204.5t-70 -212t-26 -227.5h-258q6 150 59.5 285t122 244.5t137.5 190.5l103 124q59 72 113.5 150.5t83.5 170.5 h-578q-53 0 -95 -3t-76.5 -17.5t-62.5 -45t-50 -85.5l-19 6l103 356q16 -27 43.5 -27.5t56.5 -0.5h625z" />
<glyph unicode="8" horiz-adv-x="1310" d="M627 698q-63 0 -128 -21.5t-112 -64.5q-45 -43 -62.5 -102t-17.5 -119q0 -143 88 -231t232 -88q70 0 130 20.5t105 60.5t69.5 97t24.5 131q0 150 -91 233.5t-238 83.5zM907 1042q0 61 -22.5 105.5t-59.5 73t-87 42t-105 13.5t-106.5 -14.5t-91.5 -44t-63.5 -73.5 t-23.5 -106q0 -59 24.5 -103t64.5 -72.5t91.5 -43t104.5 -14.5q55 0 104 15.5t87 45t60.5 73.5t22.5 103zM844 754q66 -10 128 -40t110 -76t78 -106.5t30 -130.5q0 -113 -50 -193.5t-130 -132.5t-179.5 -77t-195.5 -25t-195.5 22.5t-180.5 72t-133 128t-52 191.5 q0 74 26.5 134.5t71.5 106.5t104.5 76.5t126.5 49.5q-51 8 -97 31.5t-82 59.5t-57.5 83t-21.5 100q0 96 47.5 162.5t120 107.5t160.5 58.5t168 17.5q76 0 159 -17.5t152.5 -57t115.5 -103t46 -156.5q0 -59 -21.5 -108t-58.5 -86t-86 -60.5t-104 -31.5z" />
<glyph unicode="9" horiz-adv-x="1310" d="M293 920q0 -72 20.5 -135.5t60.5 -111.5t98 -76t134 -28q74 0 137.5 26t111.5 72t75.5 109.5t27.5 136.5q0 72 -24.5 137.5t-69.5 116t-107.5 80t-138.5 29.5q-78 0 -138 -28.5t-101 -78t-63.5 -113.5t-22.5 -136zM274 295q0 -102 66 -162.5t168 -60.5q100 0 192.5 51 t153.5 129q70 86 92.5 182t24.5 205q-78 -86 -186.5 -127t-223.5 -41q-96 0 -182 29.5t-151.5 86t-104.5 137.5t-39 181q0 111 43 199t116.5 147.5t170 91t200.5 31.5q150 0 257.5 -56t177 -149.5t102.5 -216.5t33 -258q0 -162 -49.5 -294t-140.5 -227t-221 -147.5 t-294 -52.5q-88 0 -173 16.5t-169 47.5l123 319l21 -4z" />
<glyph unicode=":" horiz-adv-x="655" d="M328 586q-29 0 -53.5 12t-42 32.5t-27.5 46t-10 52.5q0 59 38.5 103.5t100.5 44.5q59 0 94 -44.5t35 -97.5q0 -55 -38 -102t-97 -47zM328 -20q-29 0 -53.5 12t-42 32.5t-27.5 46t-10 52.5q0 59 38.5 103t100.5 44q59 0 94 -44t35 -97q0 -55 -38 -102t-97 -47z" />
<glyph unicode=";" horiz-adv-x="655" d="M393 586q-57 0 -94 45t-37 100q0 59 39 102.5t100 43.5q57 0 93 -43t36 -99q0 -55 -39 -102t-98 -47zM264 -174h-170q29 20 45 54l31 65l74 157q20 45 31.5 82t0.5 58h222z" />
<glyph unicode="&#x3c;" horiz-adv-x="1228" d="M1042 1143l-571 -367l571 -385v-280l-856 579v15l856 542v-104z" />
<glyph unicode="=" horiz-adv-x="1228" d="M158 623q6 -8 18 -17.5t45 -9.5h789q29 0 41 8t22 19v-189q-16 25 -30.5 30t-30.5 5h-789q-25 0 -37 -4t-28 -25v183zM158 909q6 -8 18 -17t45 -9h789q29 0 41 8t22 18v-188q-16 25 -30.5 30t-30.5 5h-789q-25 0 -37 -4t-28 -25v182z" />
<glyph unicode="&#x3e;" horiz-adv-x="1228" d="M186 215l572 369l-572 385v278l856 -579v-15l-856 -542v104z" />
<glyph unicode="?" horiz-adv-x="1064" d="M449 -20q-57 0 -94.5 45t-37.5 100q0 59 39 102t101 43q57 0 93 -43t36 -98t-39 -102t-98 -47zM653 707q-25 -12 -53.5 -28.5t-54 -36t-43 -45.5t-17.5 -58q0 -51 38 -76t83 -27v-18h-16q-72 0 -123 -13.5t-109 -56.5q-25 29 -41 62.5t-16 72.5q0 70 38 112t87 83 l137 115l68 59q35 31 63.5 65.5t46 75.5t17.5 88q0 49 -19.5 88t-51.5 66t-75 40t-90 13q-70 0 -136.5 -24.5t-117.5 -68.5t-81.5 -105.5t-30.5 -135.5q0 -16 2 -32.5t6 -32.5h-19l-86 393q20 -8 35 -8q31 0 69 15l90 35q52 19 124 34.5t170 15.5q72 0 150.5 -17.5t144 -56 t108.5 -99t43 -146.5q0 -49 -18.5 -91t-49 -77t-69.5 -62.5t-78 -48.5z" />
<glyph unicode="@" horiz-adv-x="1597" d="M1026 977q-16 4 -37.5 7t-56.5 3q-100 0 -171 -40t-116 -100.5t-66.5 -130t-21.5 -128.5q0 -66 21.5 -113t55.5 -75.5t72.5 -42t73.5 -13.5q39 0 63.5 11.5t40 35t26 60t22.5 88.5zM1075 483q-2 -6 -5 -24.5t-3 -36.5q0 -23 19.5 -43.5t56.5 -20.5q55 0 101 38t79 99.5 t51.5 139.5t18.5 156q0 127 -45 224t-121 163.5t-173.5 100.5t-201.5 34q-150 0 -266.5 -58.5t-197.5 -152.5t-123 -214t-42 -243q0 -133 43 -241.5t122 -185.5t187.5 -118t239.5 -41q25 0 60.5 3.5t80.5 10.5t97.5 21.5t105.5 38.5l23 -94q-55 -29 -120 -45.5t-123 -23.5 t-102 -9t-61 -2q-143 0 -277 39t-238.5 120t-167 207t-62.5 298q0 186 69.5 332.5t183 247t260 152.5t300.5 52q115 0 241.5 -35t234 -109.5t177.5 -193.5t70 -285q0 -53 -10.5 -111.5t-36 -116.5t-69.5 -113.5t-112 -102.5q-57 -41 -128.5 -47t-178.5 -6h-127 q-90 0 -150.5 1t-104.5 7t-76.5 20.5t-65.5 38.5q-37 29 -58.5 64t-34 69.5t-15.5 65.5t-3 53q0 104 48.5 200.5t132.5 156.5q27 18 58.5 34.5t72.5 27.5t93 17.5t122 6.5q8 0 26 -1l38 -2l38 -3q18 -1 25 -1q45 0 78.5 12.5t72.5 28.5z" />
<glyph unicode="A" horiz-adv-x="1351" d="M657 1194l-186 -492q5 0 11 1q109 0 213 -39q110 -41 190 -125zM322 274q-12 -35 -22.5 -71.5t-10.5 -73.5q0 -49 33.5 -77.5t78.5 -33.5v-18h-417v18q37 8 60.5 20.5t45.5 45.5q29 41 52.5 93t39.5 97l330 871l20 58q10 30 11 61q0 29 -18.5 45t-45.5 20v19h455v-19 q-59 -16 -60 -74q0 -18 6.5 -40.5t12.5 -38.5l350 -1008q23 -55 43.5 -94t81.5 -56v-18h-465v18q55 12 78 51.5t23 92.5q0 70 -42 146.5t-117 140t-178.5 106.5t-226.5 45z" />
<glyph unicode="B" horiz-adv-x="1351" d="M430 256q0 -49 4 -81t20.5 -50.5t48.5 -24.5t87 -6q80 0 168 12.5t157 55.5q68 45 106 118.5t38 153.5q0 70 -27.5 131.5t-73 111.5t-102.5 90t-117 64l-309 -116v-459zM430 811q51 14 132 42t158 69t133 94t56 119q0 45 -28.5 69.5t-68.5 34.5t-84 12t-77 2 q-20 0 -50 -1t-59.5 -5t-54 -12t-36.5 -23q-14 -18 -17.5 -59t-3.5 -70v-272zM823 1348q45 0 102.5 -3.5t107.5 -20.5t85 -52t35 -98q0 -59 -30.5 -104.5t-77 -81.5t-99.5 -63l-98 -53q80 -27 159.5 -67.5t143 -98t102.5 -132t39 -168.5q0 -123 -60.5 -215.5t-174.5 -135.5 q-111 -43 -233 -49t-238 -6h-514v18q49 6 75.5 29t39 54.5t15.5 71.5t3 81v825q0 43 -3 84t-15.5 76t-39 59.5t-75.5 30.5v19h751z" />
<glyph unicode="C" horiz-adv-x="1433" d="M1255 -20q-16 8 -33.5 8t-33.5 -2l-248 -13q-162 0 -316.5 40t-281.5 145q-133 111 -198.5 262t-65.5 321q0 135 49 261t154 215q111 92 240.5 124.5t269.5 32.5q45 0 86 -3t77 -7q37 -4 69 -8t58 -4q25 0 47.5 9t32.5 32l94 -387l-16 -7q-29 68 -76 118t-106.5 84 t-128 50.5t-137.5 16.5q-102 0 -184.5 -29t-151.5 -109q-66 -78 -98.5 -175t-32.5 -199q0 -133 44 -256t123.5 -216.5t193.5 -148.5t255 -55q164 0 275.5 88t177.5 231l20 -8z" />
<glyph unicode="D" horiz-adv-x="1474" d="M432 358q0 -68 3 -118t22.5 -81.5t62.5 -48t123 -16.5q121 0 214 36t156.5 103.5t96.5 164t33 216.5q0 127 -37 243t-107.5 204t-175 140t-237.5 52q-61 0 -93 -15t-45.5 -43t-14.5 -68t-1 -89v-680zM561 1348q162 0 304.5 -35t269.5 -142q119 -100 186.5 -243.5 t67.5 -298.5q0 -137 -54.5 -268.5t-163.5 -221.5q-61 -51 -123.5 -78.5t-129 -41t-136 -16.5t-145.5 -3h-563v18q49 8 75.5 30t40 54.5t15.5 71.5t2 80v825q0 43 -2 84t-15.5 76t-40 59.5t-75.5 30.5v19h487z" />
<glyph unicode="E" d="M430 319q0 -59 4 -102t23.5 -70.5t62.5 -40t121 -12.5q221 0 369.5 100.5t244.5 294.5l21 -6l-174 -510q-12 18 -41 25q-10 2 -24 2h-25h-940v18q16 0 45.5 12.5t50.5 37.5q29 35 33 84t4 102v825q0 41 -2 83t-15.5 76t-40 58.5t-75.5 32.5v19h876q29 0 58.5 1t52.5 23 l92 -411l-16 -7q-33 78 -87.5 134.5t-124 93.5t-147.5 54t-158 17q-53 0 -88.5 -6t-58 -24.5t-32 -52t-9.5 -89.5v-116h158h77q40 0 73.5 10t56 35.5t20.5 76.5l19 7l79 -459l-16 -6q-27 90 -64.5 138t-89 70.5t-117 26.5t-147.5 4h-49v-549z" />
<glyph unicode="F" horiz-adv-x="1146" d="M440 266q0 -43 2 -86t15.5 -77.5t41 -57t76.5 -29.5v-16h-493v18q49 6 75.5 29t40 54.5t15.5 71.5t2 81v825q0 41 -2 83t-15.5 76t-40 58.5t-75.5 32.5v19h883q29 0 58.5 1t49.5 25l92 -422l-16 -4q-18 53 -60 107.5t-109 98.5t-155 71.5t-194 27.5q-68 0 -106 -8 t-57 -29.5t-23.5 -56.5t-4.5 -86v-108h219q35 0 66 3t53.5 14t35.5 34.5t13 66.5l19 7l80 -459l-17 -4q-29 88 -64.5 137t-83.5 71.5t-111.5 27.5t-145.5 5h-64v-602z" />
<glyph unicode="G" horiz-adv-x="1556" d="M940 0q-84 0 -163 5t-152.5 23.5t-144 52.5t-138.5 89q-131 109 -195.5 255t-64.5 314q0 156 52 275t144.5 198.5t218.5 120.5t273 41q45 0 92 -5t89 -10t76 -10.5t52 -5.5q59 0 95 48l71 -379l-20 -4q-61 129 -178 194.5t-259 65.5q-113 0 -198.5 -37t-144 -102.5 t-88 -156.5t-29.5 -200q0 -129 40 -251t116.5 -217t185 -152.5t248.5 -57.5q78 0 122.5 15.5t66 45t27 73.5t5.5 104v323q0 41 -2 83t-14.5 76t-39 58.5t-73.5 32.5v19h458v-19q-39 -8 -59 -21.5t-30.5 -34t-12.5 -47t-2 -61.5v-544q0 -37 2 -66t12.5 -52.5t31 -38.5 t58.5 -24v-16h-528z" />
<glyph unicode="H" horiz-adv-x="1474" d="M432 268q0 -43 2 -86t15.5 -77.5t40 -58t75.5 -28.5v-18h-491v18q49 6 75.5 29t40 54.5t15.5 71.5t2 81v825q0 43 -2 84t-15.5 76t-40 59.5t-75.5 30.5v19h491v-19q-49 -6 -75.5 -26.5t-40 -53t-15.5 -72.5t-2 -83v-121h610v106q0 45 -3 88t-15 78t-39 57.5t-76 26.5v19 h492v-19q-49 -6 -76 -27.5t-39 -54.5t-15 -71.5t-3 -81.5v-826q0 -43 3 -85t15 -76.5t39 -58t76 -30.5v-18h-492v18q49 4 76 24.5t39 53.5t15 74t3 84v620h-610v-606z" />
<glyph unicode="I" horiz-adv-x="655" d="M440 268q0 -43 2 -84t15.5 -75.5t40 -59t75.5 -31.5v-18h-491v18q49 6 75.5 28t40 54.5t15.5 71.5t2 82v825q0 43 -2 84t-15.5 76t-40 59.5t-75.5 30.5v19h491v-19q-49 -8 -75.5 -29.5t-40 -54.5t-15.5 -71.5t-2 -81.5v-824z" />
<glyph unicode="J" horiz-adv-x="1064" d="M666 1079q0 47 -2 92.5t-15.5 79t-40 55t-76.5 23.5v19h492v-19q-49 -8 -75.5 -30.5t-40 -54.5t-15.5 -70.5t-2 -79.5v-666q0 -51 -3 -96t-16.5 -86t-38 -79t-67.5 -73q-72 -59 -165 -90t-185 -31q-133 0 -255 60.5t-208 159.5l207 339l18 -8q-10 -41 -19 -83t-9 -85 q0 -57 20 -107t56 -88t85 -59.5t107 -21.5q123 0 185.5 79t62.5 216v704z" />
<glyph unicode="K" horiz-adv-x="1351" d="M174 1079q0 43 -2 84t-15.5 76t-40 58.5t-75.5 31.5v19h491v-19q-49 -4 -75.5 -25.5t-40 -54t-15.5 -72.5t-2 -83v-250l176 141l68 56q45 38 91 81t81 86t35 72t-15.5 37t-39.5 12v19h493v-19q-59 -4 -110.5 -22.5t-97.5 -46t-89 -62.5l-86 -70l-153 -127 q160 -150 266 -321.5t186 -372.5l39 -94l24.5 -60.5t30 -60.5t42 -49t59.5 -25v-18h-451v18q33 4 52.5 24.5t19.5 55.5q0 41 -16.5 95.5t-39 111.5t-48 109.5t-46.5 87.5q-59 100 -128.5 191t-147.5 177l-195 -155v-447q0 -43 2 -86t15.5 -77.5t40 -58t75.5 -28.5v-18h-491 v18q49 8 75.5 30t40 54.5t15.5 71.5t2 80v825z" />
<glyph unicode="L" horiz-adv-x="1146" d="M1008 -29q-10 12 -24.5 17.5t-31.5 9.5q-16 2 -31 2h-32h-817v18q45 8 71.5 30t40 51.5t17.5 66.5t4 74v839q0 43 -2 84t-15.5 76t-40 59.5t-75.5 30.5v19h491v-19q-49 -4 -75.5 -25.5t-40 -54t-15.5 -72.5t-2 -83v-781v-34q0 -20 1 -42l2 -41q1 -19 5 -32 q16 -41 60.5 -55.5t83.5 -14.5q100 0 188 29t162 81t133 124.5t100 160.5l19 -10z" />
<glyph unicode="M" horiz-adv-x="1638" d="M342 1206v-938q0 -43 2 -86t15.5 -77.5t40 -58t75.5 -28.5v-18h-399v18q49 6 75.5 29t40 54.5t15.5 70.5t2 82v825q0 43 -2 84t-15.5 76t-40 59.5t-75.5 30.5v19h518v-19q-37 -10 -35 -39.5t27 -77.5l235 -430l234 379q18 31 32.5 59.5t18.5 50t-4 37t-33 21.5v19h494 v-19q-49 -8 -76 -29.5t-40 -54.5t-15 -71.5t-2 -79.5v-826q0 -43 2 -84t15 -75.5t39.5 -58t76.5 -32.5v-18h-492v18q49 6 76 27t40 53.5t15 72.5t2 83v952l-448 -727z" />
<glyph unicode="N" horiz-adv-x="1433" d="M1098 1079q0 43 -2 86t-15.5 78t-41 57.5t-78.5 28.5v19h403v-19q-49 -6 -75.5 -28.5t-40 -54.5t-15.5 -71.5t-2 -80.5v-826q0 -43 2 -85t15.5 -75.5t40 -58t75.5 -31.5v-18h-403v18q49 6 76.5 27t41 53.5t16.5 72.5t3 83v84v43v50q0 26 -2 49.5t-6 41.5q-10 41 -42 69 l-63 54l-647 539v-916q0 -43 2 -86t15.5 -77.5t40 -58t75.5 -28.5v-18h-399v18q49 6 75.5 29t40 54.5t15.5 71.5t2 81v825q0 43 -2 84t-15.5 76t-40 59.5t-75.5 30.5v19h538v-19q-51 -4 -41.5 -31.5t62.5 -72.5l467 -389v243z" />
<glyph unicode="O" horiz-adv-x="1638" d="M338 743q0 -115 34 -232.5t100.5 -213.5t163.5 -156.5t226 -60.5q106 0 188.5 43t137.5 114.5t82.5 165t27.5 191.5q0 137 -43 259t-115.5 214t-169 146.5t-204.5 54.5q-111 0 -190.5 -45t-133 -119t-79 -168.5t-25.5 -192.5zM815 -27q-141 0 -270 45t-234 144 q-104 98 -161.5 232t-57.5 276q0 154 56.5 282.5t153.5 223t228.5 146.5t282.5 52q156 0 290 -53t232.5 -148.5t153.5 -227.5t55 -290q0 -150 -59.5 -274.5t-160.5 -215.5t-233.5 -141.5t-275.5 -50.5z" />
<glyph unicode="P" horiz-adv-x="1146" d="M434 719q57 18 141 49t161 76t131.5 105.5t54.5 135.5q0 51 -21.5 84t-61.5 51.5t-94.5 25.5t-117.5 7q-18 0 -45 -2t-53.5 -8t-49 -17.5t-30.5 -29.5q-4 -10 -7.5 -28.5t-5.5 -39t-2 -39.5v-32v-338zM209 1079q0 43 -2 85t-15.5 77t-40 58.5t-75.5 29.5v19h751 q61 0 119 -8.5t104 -33t73.5 -69.5t27.5 -119q0 -72 -38 -132t-99.5 -110.5t-139 -91.5t-157.5 -71.5t-154 -54t-129 -37.5v-353q0 -43 2 -86t15.5 -77.5t40 -58t75.5 -28.5v-18h-491v18q49 6 75.5 29t40 54.5t15.5 70.5t2 82v825z" />
<glyph unicode="Q" horiz-adv-x="1679" d="M612 315q-35 0 -70.5 -9t-70.5 -19q72 -98 173 -149.5t224 -51.5q49 0 97 12q-31 37 -71 76t-86 70.5t-95.5 51t-100.5 19.5zM332 739q0 -115 30.5 -229.5t96.5 -208.5q61 33 127.5 54.5t138.5 21.5q121 0 219 -55.5t176 -143.5q94 88 132 187.5t38 226.5 q0 119 -35.5 236.5t-104.5 213t-169 154.5t-231 59q-102 0 -187.5 -46t-142.5 -130q-53 -76 -70.5 -162t-17.5 -178zM1606 145q12 -29 18 -56.5t6 -57.5q0 -111 -70.5 -182.5t-181.5 -71.5q-55 0 -103 22.5t-91 56t-80 75.5t-68 81q-53 -23 -108.5 -31t-112.5 -8 q-141 0 -273 43t-237 142q-106 100 -162.5 235t-56.5 283q0 154 56.5 281.5t154.5 220t230 144.5t282 52q152 0 285 -53t231 -147.5t154.5 -225.5t56.5 -284q0 -186 -86 -336t-244 -246q49 -51 109.5 -90t134.5 -39q59 0 103 38t44 99q0 12 -2 24.5t-6 24.5z" />
<glyph unicode="R" horiz-adv-x="1310" d="M430 731q55 14 140 46t167 78t140.5 105.5t58.5 131.5q0 55 -21.5 86.5t-56.5 49t-79 21.5t-89 4q-23 0 -56.5 -1t-69.5 -5t-65.5 -13t-43.5 -26q-16 -20 -20.5 -59t-4.5 -68v-350zM205 1079q0 43 -2 84t-15.5 76t-40 59.5t-75.5 30.5v19h792q166 0 230.5 -52.5 t64.5 -156.5q0 -63 -27.5 -113.5t-70.5 -92.5t-95.5 -74t-101.5 -58q119 -133 206 -290t153 -321q20 -55 48.5 -106t94.5 -66v-18h-432v18q35 6 55.5 23.5t20.5 56.5q0 29 -11.5 69t-28 80t-36 76.5t-35.5 61.5l-112 162l-119 170l-238 -82v-367q0 -49 2 -91t15.5 -74.5 t40 -55t75.5 -29.5v-18h-491v18q49 8 75.5 30t40 54.5t15.5 71.5t2 82v823z" />
<glyph unicode="S" d="M1055 958l-17 -4q-25 70 -70.5 127.5t-106 99.5t-131.5 64.5t-144 22.5q-43 0 -89 -8.5t-83 -28t-61.5 -52t-24.5 -81.5q0 -37 22.5 -62.5t55 -42t68.5 -28t65 -19.5l286 -86q100 -31 171 -73t116 -94t65.5 -111.5t20.5 -122.5q0 -121 -40 -212t-111.5 -151.5t-175 -91.5 t-228.5 -31q-63 0 -119.5 10.5t-105.5 22.5l-91 23q-42 10 -79 10q-23 0 -39 -10.5t-31 -26.5l-119 512l19 6q27 -90 76 -168t116.5 -136t151.5 -91t182 -33q199 0 294 74t95 209q0 68 -27.5 111.5t-70.5 73.5t-97 48l-106 35l-272 84q-59 18 -113.5 43t-95.5 60.5t-64.5 86 t-23.5 121.5q0 90 39 154.5t100.5 106.5t136 61.5t144.5 19.5q59 0 105 -8t87 -17l80 -18q39 -8 84 -8q27 0 42 9.5t32 27.5z" />
<glyph unicode="T" horiz-adv-x="1187" d="M705 266q0 -47 2 -91t15 -78t39.5 -55.5t76.5 -23.5v-18h-492v18q49 2 76 21.5t40 51.5t15 74t2 89v987q-188 0 -306 -64.5t-177 -213.5l-19 6l101 405q20 -23 55 -26q16 -2 33.5 -1t32.5 1h786h65q36 0 56 26l100 -405l-18 -6q-59 150 -177 214t-306 64v-975z" />
<glyph unicode="U" horiz-adv-x="1392" d="M66 1348h524v-19q-53 -4 -86 -16.5t-51.5 -43t-26.5 -86t-12 -145.5l-27 -522q-2 -43 -2 -80q0 -56 5 -101q9 -75 56 -134q41 -53 119 -83t160 -30q49 0 98 11.5t92 29.5t77 42t52 50q41 61 51 124q6 43 6 97q0 24 -1 50l-23 546q-4 92 -12 147.5t-27.5 86.5t-53.5 42 t-91 15v19h436v-19q-41 -10 -66.5 -21.5t-39 -40t-15.5 -81.5q-1 -18 0 -40q0 -45 2 -108l21 -538q1 -27 1 -52q0 -100 -20 -165q-25 -82 -75 -138q-53 -59 -117 -94t-125 -52t-112.5 -21.5t-80.5 -4.5q-39 0 -92 5.5t-108.5 17.5t-107.5 31.5t-91 50.5q-47 37 -74.5 76 t-43 77.5t-19.5 78.5q-3 27 -3 54q0 14 1 27l29 647q2 51 2 92q0 30 -1 53q-3 54 -16.5 83.5t-40 42t-71.5 20.5v19z" />
<glyph unicode="V" horiz-adv-x="1351" d="M1020 1085q12 33 24.5 73t12.5 77t-20.5 62.5t-71.5 31.5v19h364v-19q-39 -4 -64.5 -26.5t-43 -53t-29.5 -66.5t-25 -67l-352 -936q-12 -33 -19.5 -60.5t-5 -49t16.5 -34.5t45 -18v-18h-393v18q62 8 62 54t-27 129l-316 907l-22 66q-12 37 -29.5 69.5t-42.5 56t-61 29.5 v19h448v-19q-51 -12 -70 -39q-17 -25 -17 -58q0 -35 14 -76l26 -73l283 -870z" />
<glyph unicode="W" horiz-adv-x="1843" d="M1509 1100q6 33 11 70q1 13 1 25q0 24 -5 47q-8 34 -35 57.5t-78 29.5v19h399v-19q-49 -4 -79.5 -29.5t-49 -62.5t-30 -81t-19.5 -83l-190 -883l-10 -51q-5 -29 -3 -53.5t13.5 -43.5t40.5 -24v-18h-418v18q23 6 33 19.5t13 31t0 38t-7 38.5l-191 852l-180 -819 q-4 -23 -10 -48.5t-5 -49t12 -40.5t42 -22v-18h-422v18q51 10 56 45q2 12 2 25q0 25 -7 55l-219 981l-12 67q-6 34 -19.5 63.5t-37 50t-64.5 24.5v19h442v-19q-53 -6 -74.5 -31.5t-24.5 -61.5q-1 -10 -1 -20q0 -27 6 -56q8 -40 14 -73l203 -921l209 958q6 31 11 64t-1 61.5 t-28.5 51t-69.5 28.5v19h467v-19q-55 -4 -79.5 -23.5t-31 -48t1 -62.5t13.5 -67l213 -962z" />
<glyph unicode="X" horiz-adv-x="1392" d="M1204 174q37 -55 76 -100t111 -56v-18h-537v18q47 6 70.5 24.5t27.5 46.5q1 7 1 14q0 23 -10 50q-13 36 -40 74l-264 396l-193 -287q-39 -57 -70.5 -111.5t-42.5 -97.5q-4 -16 -4 -31q0 -24 11 -42q18 -30 80 -36v-18h-418v18q39 6 68.5 27t55.5 48.5t47 59.5l42 60 l358 514l-229 346l-51 76q-29 43 -63.5 81t-73.5 66.5t-82 32.5v19h522v-19q-53 -8 -71.5 -30.5t-15.5 -51t21.5 -61.5t36.5 -62l138 -204l135 192l43 67q23 36 32 67.5t-2.5 55t-58.5 27.5v19h397v-19q-49 -4 -89 -27.5t-71.5 -56.5t-59.5 -71l-54 -76l-199 -283z" />
<glyph unicode="Y" horiz-adv-x="1228" d="M725 268q0 -47 2 -90t15.5 -77.5t40 -57.5t75.5 -25v-18h-491v18q49 6 75.5 27t40 53.5t15.5 72.5t2 83v369l-328 516l-38 60q-19 32 -42.5 59.5t-53.5 47t-69 23.5v19h531v-19q-66 -4 -85 -33q-15 -22 -15 -51q0 -9 1 -19q6 -42 31 -88t49 -83l191 -305l188 309 q33 55 58.5 103t31.5 84t-13 57.5t-75 25.5v19h398v-19q-41 -6 -73 -25.5t-56.5 -46t-43.5 -54.5l-32 -50l-330 -530v-355z" />
<glyph unicode="Z" horiz-adv-x="1187" d="M979 -27q-10 18 -39 23q-12 4 -25 4h-24h-885l793 1245q-39 2 -85 5t-136 3q-63 0 -133 -16t-134.5 -54t-119 -99.5t-87.5 -153.5l-18 4l104 440q16 -18 39 -22q10 -4 23 -4h22h850l-798 -1246q39 -4 85 -6t136 -2q82 0 169 22.5t169 68.5t152.5 118t119.5 172l19 -6z " />
<glyph unicode="[" horiz-adv-x="614" d="M289 12l174 -180q27 -33 65 -53h-221q4 12 4 16q0 16 -14 34.5t-25 29.5l-96 100q-43 41 -63 51v6q16 16 17 41t1 54v958q0 29 -1 53.5t-17 40.5v6q14 8 30.5 21.5t32.5 30.5l113 118q6 10 14 21.5t8 23.5q0 4 -4 17h221q-29 -14 -49 -36l-43 -44l-147 -152v-1157z" />
<glyph unicode="\" horiz-adv-x="1105" d="M852 -113l20 -57q16 -41 36 -71.5t67 -34.5v-19h-250v19q47 6 47 47q0 20 -12 52t-21 50l-524 1321q-18 45 -38.5 84t-74.5 53v17h244v-17q-20 -8 -30.5 -16t-10.5 -31t11.5 -56.5t21.5 -56.5z" />
<glyph unicode="]" horiz-adv-x="614" d="M326 1169l-174 181q-27 33 -66 51h221q-4 -12 -4 -15q0 -16 14.5 -34.5t24.5 -28.5l96 -100q14 -16 28.5 -28.5t35.5 -16.5v-7q-10 -16 -14.5 -41.5t-4.5 -60.5v-958q0 -29 1 -52.5t18 -42.5v-6q-14 -4 -30 -18l-34 -33l-112 -119q-6 -10 -14.5 -21.5t-8.5 -23.5 q0 -4 4 -16h-221q29 14 49 36l43 44l148 151v1159z" />
<glyph unicode="^" horiz-adv-x="1228" d="M588 1434h16l580 -856h-281l-385 571l-366 -571h-107z" />
<glyph unicode="_" horiz-adv-x="1024" d="M1024 -154v-102h-1024v102h1024z" />
<glyph unicode="`" horiz-adv-x="655" d="M471 1137l-209 96q-20 8 -42.5 19.5t-41 26.5t-31 34.5t-12.5 46.5q0 43 31 73.5t74 30.5q41 0 68.5 -28.5t49.5 -57.5l148 -198z" />
<glyph unicode="a" horiz-adv-x="1146" d="M786 588q-61 -12 -143 -38t-157.5 -67t-128 -99t-52.5 -138q0 -72 50.5 -112t115.5 -40q98 0 159.5 40t96.5 101.5t47 133t12 135.5v84zM872 0q-31 41 -49 87t-20 97q-31 -55 -76 -94t-99.5 -63.5t-113.5 -35.5t-119 -11q-70 0 -129 16t-102 47t-67.5 75t-24.5 101 q0 80 36.5 141.5t96 106.5t135.5 78t155.5 56.5t155.5 39.5t135 31v39q0 115 -46 159.5t-160 44.5q-147 0 -261 -70.5t-176 -207.5l33 336q29 -23 53 -26h8q25 0 70 16l90 29q41 13 83 21.5t85 12.5t97 4q98 0 163.5 -17.5t106.5 -58.5t58.5 -106.5t17.5 -161.5v-385 q0 -47 2 -92t16 -84t44 -67.5t83 -39.5v-18h-281z" />
<glyph unicode="b" horiz-adv-x="1310" d="M430 252q0 -41 5 -69.5t23.5 -47t54.5 -27t97 -10.5h13q83 0 149 26q72 28 122 79t76.5 123.5t26.5 162.5q0 96 -34.5 177.5t-94 140.5t-142.5 92t-177 33q-29 0 -59.5 -2t-59.5 -6v-672zM221 1096q0 45 -2 87t-14 75.5t-37 53.5q-22 18 -61 17h-9v19l332 53v-379l102 6 q23 2 46 2h38q133 0 244 -42t190.5 -115.5t124 -175t44.5 -222.5q0 -229 -144.5 -352t-445.5 -123h-531v18q45 6 70 29t37 55.5t14 71.5t2 78v844z" />
<glyph unicode="c" horiz-adv-x="1105" d="M973 -14q-10 8 -25 8q-6 2 -18 2q-16 0 -45 -2t-64 -6q-33 -4 -65.5 -6t-57.5 -2q-123 0 -234.5 37.5t-196.5 109.5t-134 175.5t-49 236.5q0 106 35 196t98.5 155.5t151.5 102.5t194 37q35 0 73 -3t73 -7l70 -8q34 -4 61 -4t45 4t41 18l59 -315l-12 -6 q-51 102 -135 162.5t-201 60.5q-82 0 -143.5 -36t-103.5 -93.5t-63.5 -130t-21.5 -148.5q0 -82 25.5 -157.5t79.5 -139.5q53 -63 133 -106t164 -43q106 0 205.5 56t150.5 155l14 -8z" />
<glyph unicode="d" d="M883 705q0 43 -3 83.5t-21.5 72.5t-58.5 51.5t-114 19.5q-92 0 -163.5 -35t-120 -93.5t-73 -137t-24.5 -166.5q0 -104 37 -182t100.5 -129.5t149.5 -77t182 -25.5q29 0 55.5 4t53.5 10v605zM1092 1401v-1149q0 -41 2 -82t14 -74t36.5 -54.5t69.5 -23.5v-18h-512 q-51 0 -105 3t-108.5 13.5t-105.5 28.5t-94 47q-98 68 -151.5 180.5t-53.5 231.5q0 135 44 233.5t121 164t182.5 97t230.5 31.5q55 0 110 -4l111 -8v80q0 37 -2 76.5t-14.5 74.5t-37 57.5t-69.5 22.5v19z" />
<glyph unicode="e" horiz-adv-x="1187" d="M858 705q-14 43 -37.5 83.5t-55.5 72.5t-73 51.5t-90 19.5q-78 0 -135 -34t-94 -89t-55 -124q-16 -61 -15 -124v-14zM315 461q12 -80 50 -149.5t94.5 -122t129.5 -82t152 -29.5q61 0 131 29.5t117 70.5q37 33 61.5 73t47.5 83l18 -8l-106 -338q-10 10 -25 12q-10 2 -43 2 q-35 0 -64.5 -4t-62.5 -8l-69.5 -8.5t-88.5 -4.5q-66 0 -163 27t-189 89.5t-157.5 162.5t-65.5 248q0 115 42 211t114.5 166.5t171 109.5t211.5 39q82 0 159.5 -24.5t140 -69.5t108.5 -110.5t69 -147.5z" />
<glyph unicode="f" horiz-adv-x="696" d="M182 903h-135v19q88 8 112.5 54t28.5 124q4 72 21.5 135t73.5 117q59 57 140 84.5t161 27.5q55 0 103 -10t101 -27l-67 -215l-14 2q1 9 0 18q0 55 -34 91q-40 41 -108 41q-66 0 -101.5 -28.5t-52 -73.5t-19.5 -98.5t-3 -104.5v-68h117q35 0 67.5 2t59.5 31l-55 -139 q-10 20 -32 19t-40 -1h-115v-651q0 -45 2 -87t14.5 -75t37 -52.5t69.5 -19.5v-18h-455v18q45 4 70 26t37 54.5t14 72.5t2 81v651z" />
<glyph unicode="g" horiz-adv-x="1105" d="M750 762q0 37 -2.5 72.5t-26.5 60.5q-27 20 -65 26.5t-70 6.5q-86 0 -149.5 -32t-106.5 -86t-63.5 -125t-20.5 -150q0 -104 33.5 -185.5t89 -136.5t126 -85t142.5 -30q37 0 63.5 2t49.5 4v658zM958 219q0 -29 1.5 -48t7.5 -36.5t17 -33t32 -35.5q41 -39 65.5 -77 t24.5 -98q0 -82 -47 -145t-124 -106t-176.5 -66t-203.5 -23q-72 0 -145.5 10.5t-142 33t-132 59.5t-115.5 90l230 231l10 -12q-14 -23 -21.5 -42t-7.5 -48q0 -102 90.5 -165.5t235.5 -63.5q72 0 133.5 15t105.5 44t68.5 69t24.5 87q0 51 -18.5 78.5t-49 42t-69.5 17.5t-78 3 q-59 0 -115.5 2t-112 12.5t-107.5 31t-101 54.5q-109 76 -161 193t-52 246q0 236 131 353.5t360 117.5h565v-19q-53 -4 -79.5 -25.5t-35.5 -54.5q-8 -29 -9 -64q0 -15 0.5 -44.5t0.5 -44.5v-539z" />
<glyph unicode="h" d="M1077 252q0 -41 2 -82t14.5 -74t38 -54.5t72.5 -25.5v-16h-454v16q43 6 67.5 29t35.5 55.5t13 72.5t2 81v381q0 74 -10 122t-28.5 75.5t-47 39t-65.5 11.5q-35 0 -70 -11.5t-67.5 -30t-60 -43t-48.5 -50.5q-53 -66 -62.5 -133.5t-9.5 -147.5v-213q0 -41 2 -81t13.5 -72.5 t36 -55t69.5 -29.5v-16h-452v18q45 6 69.5 29t36.5 55.5t14 72.5t2 79v842q0 43 -2 84t-14 73.5t-36.5 53t-69.5 22.5v19l331 53v-602q45 43 94.5 85t104.5 74.5t115.5 52t126.5 19.5q133 0 185 -82t52 -239v-457z" />
<glyph unicode="i" horiz-adv-x="573" d="M289 1141q-61 0 -101.5 43t-40.5 104q0 63 37 107.5t103 44.5q59 0 98 -44t39 -102q0 -57 -37 -105t-98 -48zM391 1010v-758q0 -41 2 -82t14.5 -74t37 -54.5t69.5 -23.5v-18h-455v18q45 4 70 26t37 54.5t14 72.5t2 81v479q0 39 -2 79t-14 72.5t-37 55.5t-70 27v18z" />
<glyph unicode="j" horiz-adv-x="655" d="M375 1153q-63 0 -103.5 43t-40.5 104t37 106.5t103 45.5q59 0 98 -44t39 -101t-37 -105.5t-96 -48.5zM477 1010v-1020v-78q0 -41 -5 -81t-18.5 -77t-37.5 -67q-29 -35 -66 -57.5t-80 -37t-88 -20.5t-88 -6q-188 0 -356 102l196 250l13 -6q-12 -25 -19.5 -48.5t-7.5 -51.5 q0 -70 50 -111t116 -41t102.5 25.5t54 70.5t21.5 106.5t4 131.5v737q0 39 -2 79t-14 72.5t-37 55.5t-70 27v18z" />
<glyph unicode="k" horiz-adv-x="1187" d="M199 1096q0 43 -2 84t-14.5 73.5t-37 53t-69.5 22.5v19l332 53v-834l270 260q18 16 38.5 42t31 50.5t1 45t-52.5 26.5v19h418v-19q-53 -8 -101 -30.5t-91 -53t-83 -66.5l-79 -69l-51 -45q133 -125 226 -276.5t177 -311.5l23 -43q10 -20 22 -36.5t30.5 -26.5t47.5 -15v-18 h-436v18q27 4 48 20.5t21 45.5q0 31 -15 76t-42 95t-59.5 103.5t-67.5 100.5t-68.5 85t-60.5 58l-147 -131v-217q0 -47 2 -90t14 -76t36.5 -51.5t69.5 -18.5v-18h-454v18q45 4 69.5 27t37 55.5t14.5 71.5t2 80v844z" />
<glyph unicode="l" horiz-adv-x="573" d="M391 1401v-1149q0 -41 2 -82t14.5 -74t37 -54.5t69.5 -23.5v-18h-455v18q45 6 70 29t37 54.5t14 71.5t2 79v844q0 43 -2 84t-14 72.5t-37 53t-70 23.5v19z" />
<glyph unicode="m" horiz-adv-x="1925" d="M178 731q0 39 -2 79t-14 72.5t-37 55.5t-70 27v18l279 27q29 -51 39 -106.5t14 -112.5q41 43 92 85t107.5 76.5t118 56t122.5 21.5q111 0 169.5 -62.5t70.5 -166.5q45 41 96 82t107.5 73.5t117 53t121.5 20.5q123 0 178.5 -88t55.5 -231v-459q0 -41 2 -82t14.5 -74 t38 -54.5t72.5 -23.5v-18h-451v18q43 6 65.5 29t34 54.5t13.5 71.5t2 79v375q0 51 -4 97t-20.5 81t-48 56.5t-87.5 21.5q-72 0 -138.5 -44t-105.5 -102q-49 -74 -57 -153.5t-8 -165.5v-166q0 -41 2 -82t14.5 -74t39 -54.5t73.5 -23.5v-18h-455v18q43 4 66.5 26t35 54.5 t13.5 72.5t2 81v375q0 49 -5 95t-20.5 82t-47 57.5t-83.5 21.5q-59 0 -119.5 -34t-101.5 -77q-59 -66 -75.5 -134.5t-16.5 -154.5v-231q0 -41 2 -81t13.5 -72.5t36 -54t69.5 -26.5v-18h-453v18q45 4 70 26t37 54.5t14 72.5t2 81v479z" />
<glyph unicode="n" d="M190 733q0 39 -2 79t-13 73t-34.5 54.5t-66.5 25.5v18l274 27q29 -49 39 -104.5t12 -110.5q41 43 88.5 85t100.5 75.5t110.5 54t116.5 20.5q82 0 133 -25.5t80 -71.5t39 -108.5t10 -136.5v-434q0 -41 2 -82t14.5 -73.5t37 -55.5t69.5 -25v-18h-455v18q45 4 70 26t37 55.5 t14 73.5t2 81v354q0 59 -6 109.5t-23.5 87.5t-48 57.5t-81.5 20.5q-70 0 -138.5 -45t-109.5 -105q-47 -70 -54.5 -133t-7.5 -145v-201q0 -41 2 -81t13.5 -72.5t36 -55t69.5 -29.5v-16h-452v18q45 4 69.5 27t36.5 55.5t14 71.5t2 80v481z" />
<glyph unicode="o" d="M631 932q-86 0 -147.5 -33t-100.5 -87t-57.5 -125t-18.5 -148q0 -78 17.5 -160t57.5 -148.5t103.5 -109.5t155.5 -43q76 0 135.5 34.5t100.5 92t62.5 131.5t21.5 153q0 76 -17.5 155t-56.5 142.5t-102.5 104.5t-153.5 41zM623 -20q-117 0 -217.5 35.5t-174 102 t-115.5 163t-42 217.5q0 123 44 222t120.5 167.5t180 105.5t224.5 37q117 0 218.5 -33.5t175 -99.5t115.5 -161t42 -218q0 -125 -44 -225t-121 -170t-181 -106.5t-225 -36.5z" />
<glyph unicode="p" d="M397 924v-635q0 -51 6.5 -89t28 -63.5t62.5 -38t110 -12.5q90 0 160 34t118 90t72.5 132t24.5 162q0 98 -33 177t-91 132t-139 82t-177 29h-142zM608 1010q133 0 243 -33t187.5 -97.5t119.5 -161.5t42 -226t-46 -223.5t-124 -156t-183 -88.5q-92 -24 -194 -25 q-15 0 -30 1l-224 8v-186q0 -41 2 -82t13.5 -74t36 -55.5t69.5 -24.5v-18h-454v18q45 2 69.5 24.5t36.5 55.5t14 73t2 81v938q0 41 -2 82t-14 73.5t-36.5 53t-69.5 24.5v19h542z" />
<glyph unicode="q" d="M866 723q0 61 -5 100t-24.5 61.5t-60.5 31t-112 8.5q-84 0 -151 -31t-114 -84t-72.5 -124t-25.5 -150q0 -111 37 -193t96.5 -137t134 -82t150.5 -27q53 0 86 2t61 6v619zM1075 -178q0 -41 2 -82t14.5 -74t37 -55.5t69.5 -24.5v-18h-455v18q45 2 70 24.5t37 55.5t14 74 t2 82v186q-47 -4 -96 -6t-121 -2q-137 0 -242.5 45t-178 119t-110.5 168t-38 194q0 111 39 204t123 165q88 76 198.5 95.5t221.5 19.5h536v-19q-45 -2 -69.5 -23.5t-37 -54t-14.5 -73.5t-2 -82v-936z" />
<glyph unicode="r" horiz-adv-x="778" d="M178 731q0 39 -2 79t-14 72.5t-37 55.5t-70 27v18l283 27q25 -53 35 -109.5t12 -116.5q20 49 57 93.5t82 78t94.5 53t94.5 19.5q61 0 90 -10l-45 -205q-29 18 -60.5 30.5t-66.5 12.5q-74 0 -122 -35t-74.5 -91t-37 -128t-10.5 -145v-164q0 -63 2 -111.5t14.5 -82t37 -53 t69.5 -28.5v-18h-455v18q45 4 70 27t37 55.5t14 72.5t2 79v479z" />
<glyph unicode="s" horiz-adv-x="1024" d="M877 682l-15 -2q-10 61 -46 107.5t-85 79t-107.5 49t-115.5 16.5q-31 0 -65.5 -6t-64.5 -20.5t-49.5 -39t-19.5 -63.5q0 -53 48.5 -84t120 -54.5t156.5 -46t156.5 -57.5t119.5 -90t48 -143t-39.5 -153.5t-104 -108.5t-143.5 -64.5t-155 -21.5q-68 0 -130 9t-115 21 l-89 22q-37 9 -51 9q-18 0 -29.5 -8t-21.5 -21l-17 402l17 4q8 -78 44 -140.5t90 -107.5t123 -68.5t146 -23.5q43 0 90.5 11t86 34.5t64.5 59.5t26 85q0 57 -48.5 91t-120 57.5t-156.5 46t-156.5 58.5t-120 91.5t-48.5 147.5q0 76 37 127t93.5 82.5t124 46t128.5 14.5 t113.5 -7t95.5 -16l74 -17q31 -7 47 -7q27 0 49 16z" />
<glyph unicode="t" horiz-adv-x="696" d="M137 903h-135v19q86 23 129 94t43 162q0 27 -4 52l-8 52l184 82v-373h164q39 0 69.5 3t61.5 32l-57 -145q-16 16 -42 19t-46 3h-150v-598q0 -100 26.5 -153.5t119.5 -53.5q117 0 194 95l12 -7l-69 -168q-61 -20 -127 -29t-129 -9q-74 0 -120 23.5t-71.5 63t-35 94 t-9.5 118.5v624z" />
<glyph unicode="u" d="M918 0q-20 49 -28.5 102.5t-12.5 106.5q-45 -41 -95.5 -82t-105.5 -74t-114.5 -53t-123.5 -20q-72 0 -120 23.5t-75.5 65.5t-38.5 97t-11 119v446q0 41 -2.5 81t-14.5 73t-36.5 54.5t-69.5 25.5v18l331 27v-617q0 -135 28 -202.5t122 -67.5q76 0 147.5 44t112.5 105 q47 72 56.5 150t9.5 160v149q0 43 -2.5 84t-14.5 73t-36.5 53.5t-69.5 23.5v18l331 27v-762q0 -37 2.5 -78t14.5 -75t38 -56q23 -21 65 -21h7v-18h-294z" />
<glyph unicode="v" horiz-adv-x="1105" d="M838 846q21 54 21 91q0 6 -1 11q-4 39 -67 43v19h301v-19q-33 -4 -55.5 -22.5t-39 -45t-28.5 -56.5l-23 -56l-260 -643q-30 -70 -30 -105t46 -45v-18h-340v18q44 4 45 35q0 30 -22 92l-248 684l-17 51q-9 28 -22.5 52t-33 41.5t-50.5 17.5v19h406v-19q-37 -4 -54.5 -20.5 t-20.5 -41t5 -57t21 -71.5l211 -635z" />
<glyph unicode="w" horiz-adv-x="1556" d="M1286 791q12 41 21.5 76.5t7.5 62t-18.5 43t-53.5 18.5v19h316v-19q-39 0 -65 -20.5t-42 -51t-26.5 -65.5l-20.5 -66l-207 -641q-21 -68 -21 -94q0 -31 44 -35v-18h-312v18q35 2 34 30t-19 79l-164 453l-162 -465q-12 -35 -16 -62.5t34 -34.5v-18h-303v18q39 8 38 40 t-17 92l-199 665q-8 25 -16 55.5t-22.5 57t-37 45t-55.5 18.5v19h404v-19q-33 -2 -48.5 -17.5t-18.5 -40t2 -57t15 -67.5l166 -653l275 837h16l291 -805z" />
<glyph unicode="x" horiz-adv-x="1146" d="M979 160q14 -18 29.5 -42t34 -44.5t41 -37t46.5 -18.5v-18h-423v18q41 6 54 22.5t6 43.5t-27.5 60.5t-47.5 72.5l-153 232l-148 -185q-47 -59 -77.5 -103t-41 -74t3 -46t54.5 -23v-18h-316v18q55 10 91 52l71 84l305 376l-172 248l-40 61q-24 36 -50 69.5t-57 57 t-64 25.5v19h441v-19q-43 -4 -57.5 -22.5t-9.5 -45t23.5 -57t39.5 -61.5l77 -115l93 121l44 61q22 31 29.5 56.5t-3.5 42t-54 20.5v19h342v-19q-41 -4 -78 -26.5t-69.5 -54t-61.5 -67.5l-53 -67l-137 -164z" />
<glyph unicode="y" horiz-adv-x="1024" d="M766 768q14 43 29.5 82t18.5 68.5t-12.5 49t-58.5 23.5v19h314v-19q-37 -4 -60.5 -22.5t-41 -45t-29 -57l-23.5 -59.5l-348 -911q-25 -66 -54.5 -126.5t-71.5 -106.5t-99.5 -73.5t-139.5 -27.5q-53 0 -106 19.5t-94 53.5l127 277l16 -10q-8 -27 -8 -54q0 -8 1 -16 q3 -35 16.5 -62.5t39 -46t62.5 -18.5q49 0 85 24.5t60.5 62.5t35.5 83t11 86q0 74 -28.5 159t-57.5 152l-219 547q-10 27 -23.5 57.5t-30 56t-38 42t-49.5 16.5v19h411v-19q-39 -4 -53 -21.5t-14 -41t9 -52t19 -55.5l211 -565z" />
<glyph unicode="z" horiz-adv-x="1024" d="M362 104l102 -8q52 -4 128 -4q39 0 93 10.5t108.5 37t103.5 71.5t80 117l16 -4l-123 -344q-10 8 -25.5 12t-31.5 6t-30 2h-23h-709l629 913q-29 0 -61.5 2.5t-81.5 2.5q-43 0 -98.5 -7.5t-109 -29t-99.5 -58.5t-70 -98l-17 4l68 311q18 -23 53 -28q16 -2 32 -2h30h665z " />
<glyph unicode="{" horiz-adv-x="573" d="M360 -4q0 -88 29 -138.5t117 -78.5q-80 -2 -133.5 5t-100.5 44q-49 37 -59 92t-10 111v354q0 43 -4 76t-35 69q-41 51 -111 64q47 12 77 28.5t46.5 41t21.5 58.5t5 81v313q0 80 12 135.5t46 90t92.5 49t152.5 10.5q-86 -25 -116 -77t-30 -136v-334q0 -49 -5 -92 t-22.5 -76t-50 -56.5t-85.5 -35.5q100 -23 131.5 -84t31.5 -158v-356z" />
<glyph unicode="|" horiz-adv-x="1228" d="M555 1536h117v-2048h-117v2048z" />
<glyph unicode="}" horiz-adv-x="573" d="M213 1188q0 84 -29.5 136t-115.5 77q94 4 152.5 -10.5t92 -49t46 -90t12.5 -135.5v-313q0 -47 5 -81t21.5 -58.5t46 -41t76.5 -28.5q-70 -12 -110 -64q-31 -37 -35 -69.5t-4 -75.5v-354q0 -55 -10.5 -110.5t-59.5 -92.5q-47 -37 -100.5 -44t-132.5 -5q88 29 116.5 79 t28.5 138v356q0 96 30.5 157.5t133.5 84.5q-53 12 -86 35.5t-50.5 56.5t-22.5 76t-5 92v334z" />
<glyph unicode="~" horiz-adv-x="1228" d="M1030 782q-14 -27 -39.5 -63.5t-60.5 -69.5t-80 -56.5t-96 -23.5q-16 0 -28.5 1t-34 7.5l-57.5 17.5t-99 34q-27 10 -60 17t-67 7q-29 0 -49.5 -6t-39 -19.5t-37.5 -32.5l-44 -46l-37 22q20 37 46.5 75t60.5 68.5t76 51t91 20.5q41 0 85 -13t91 -30q63 -23 97 -30.5 t63 -7.5q53 0 97 26.5t85 73.5z" />
<glyph unicode="&#xa1;" horiz-adv-x="696" d="M166 -336q25 51 41 103.5t27.5 112t15.5 133t4 169.5q0 98 -3 168t-9 123t-17.5 98t-27.5 93q68 -61 151.5 -61.5t149.5 61.5q-16 -47 -27.5 -92.5t-18 -98.5t-9.5 -122.5t-3 -168.5q0 -96 4.5 -169.5t15.5 -133t27.5 -112t40.5 -103.5h-362zM344 1030q57 0 94 -45 t37 -100q0 -59 -39 -102.5t-100 -43.5q-57 0 -93 44t-36 98q0 55 39 102t98 47z" />
<glyph unicode="&#xa2;" horiz-adv-x="1310" d="M694 1047q-70 -4 -124 -32t-91 -74t-56.5 -106.5t-19.5 -125.5q0 -100 34 -181.5t110 -146.5zM811 1122l52 -8q26 -4 52 -4q27 0 43.5 6t38.5 19l-53 -322l-14 2q4 70 -35 130.5t-102 86.5l-156 -698q72 -33 143 -33q82 0 161 32t138 91l-86 -197q-59 -25 -118.5 -35 t-104.5 -10q-43 0 -83 4t-77 11l-28 -127q-4 -16 -7.5 -34t-2.5 -34t9.5 -27.5t28.5 -13.5v-18h-196v18q35 6 46 40t17 62l35 160q-147 55 -232 172t-85 277q0 106 34.5 191t98 144.5t149.5 91t191 31.5h47l30 148q8 35 9.5 69.5t-27.5 36.5v19h193v-19q-37 -6 -50.5 -38.5 t-21.5 -65.5z" />
<glyph unicode="&#xa3;" horiz-adv-x="1310" d="M190 172q0 -25 13.5 -44t33 -32.5t43 -20.5t46.5 -7q70 0 127 35.5t94 93.5q-55 27 -116.5 45t-121.5 18q-41 0 -80 -20.5t-39 -67.5zM909 922l-12 4q33 35 50.5 72.5t17.5 88.5q0 86 -53.5 137.5t-137.5 51.5q-59 0 -105 -25.5t-78 -67.5t-49.5 -94.5t-17.5 -105.5 t20.5 -97t54.5 -75t80 -47t99 -16q82 0 144.5 32.5t121.5 85.5l13 -4l-105 -229q-10 16 -21 18t-28 2l-309 19q90 -57 134 -126t44 -177q0 -72 -33 -148q45 -25 89 -44t98 -19q51 0 92 22.5t72.5 57t57.5 76.5t48 83l12 -4l-149 -399q-104 -6 -199.5 35t-183.5 94 q-57 -76 -152.5 -113t-187.5 -37q-47 0 -102.5 12.5t-102.5 38t-77.5 66.5t-30.5 100q0 45 24.5 80t61 56.5t80.5 33t83 11.5q76 0 158 -24.5t152 -55.5q6 23 10 45t4 45q0 53 -18.5 103.5t-52 88t-81 61t-102.5 23.5q-61 0 -110.5 -29.5t-94.5 -84.5l-12 4l102 235 q12 -18 17.5 -21t27.5 -5l172 -13q-53 39 -79.5 98.5t-26.5 125.5q0 82 42 157.5t101 128.5q139 121 322 121q72 0 135 -22.5t109.5 -64.5t72 -102.5t23.5 -135.5z" />
<glyph unicode="&#xa4;" horiz-adv-x="1310" d="M285 393q-33 47 -52.5 109.5t-19.5 134.5t21.5 135.5t50.5 108.5l-201 196l127 131l201 -200q47 33 109.5 50t133.5 17q72 0 133.5 -19.5t106.5 -47.5l201 200l131 -131l-201 -196q29 -47 48.5 -109.5t19.5 -134.5t-19.5 -133.5t-48.5 -106.5l201 -200l-131 -131 l-201 200q-45 -29 -106.5 -50t-133.5 -21t-134 21.5t-109 49.5l-201 -200l-127 131zM655 879q-102 0 -165.5 -70t-63.5 -172q0 -51 16.5 -95t47 -78t72.5 -53.5t93 -19.5t92 19.5t71 53.5t46.5 78t16.5 95q0 102 -62 172t-164 70z" />
<glyph unicode="&#xa5;" horiz-adv-x="1310" d="M397 16q47 6 74 20.5t40 45.5t16 85t3 140v215h-282q-25 0 -37 -3t-29 -25v153q4 -6 17.5 -16t46.5 -10h270l-100 159h-211q-25 0 -36 -7t-26 -23v151q16 -16 33 -20t27 -4h153l-145 229q-49 76 -79 118t-51.5 63.5t-41 28.5t-49.5 13v19h485v-19q-37 -2 -58.5 -13 t-30.5 -25.5t-11 -27t-2 -16.5q0 -35 18.5 -73.5t57.5 -98.5l227 -366l246 370q23 35 49 85t26 89q0 51 -30.5 62.5t-61.5 13.5v19h383v-19q-29 -2 -50 -8t-41.5 -21.5t-42 -44t-52.5 -77.5l-193 -301h181q29 0 40 4t23 26v-157q-16 18 -30.5 24t-30.5 6h-246l-103 -159h308 q29 0 40 8t21 18v-158q-16 23 -30.5 28t-28.5 5h-320v-215q0 -92 5 -147.5t20.5 -85t45.5 -40.5t79 -18v-16h-486v16z" />
<glyph unicode="&#xa6;" horiz-adv-x="1228" d="M555 358h117v-716h-117v716zM555 1382h117v-716h-117v716z" />
<glyph unicode="&#xa7;" horiz-adv-x="1310" d="M897 389q90 45 90 176q0 43 -17.5 73t-46 52.5t-66.5 38.5t-79 29l-110 37q-63 -6 -111.5 -26.5t-82.5 -48.5t-51 -57.5t-17 -54.5q0 -31 18 -51t45 -34.5t57.5 -24t53.5 -15.5zM1040 1030l-12 -2q-20 57 -58 105.5t-88.5 82t-108.5 52t-120 18.5q-31 0 -68.5 -7 t-69.5 -24.5t-53.5 -44t-21.5 -65.5q0 -31 18.5 -51.5t45 -35t57.5 -23.5l53 -15l238 -72q57 -16 114.5 -39.5t102.5 -66.5q47 -45 68.5 -102.5t21.5 -123.5q0 -55 -15.5 -103t-38 -85t-49 -62.5t-48.5 -37.5q68 -55 92 -118t24 -130q0 -92 -42 -167t-109.5 -127t-153.5 -80 t-174 -28q-45 0 -86 8.5t-78 19.5t-69.5 19.5t-63.5 8.5q-27 0 -41 -9.5t-26 -21.5l-99 422l17 6q23 -74 62.5 -139.5t95 -112.5t125 -74.5t151.5 -27.5q68 0 127 18.5t102 50t67.5 73.5t24.5 91q0 55 -22.5 92t-58 61.5t-79.5 40t-87 27.5l-226 70q-49 14 -94 34.5 t-79 51.5t-53 72t-19 100q0 35 11 76t43 80t86 71.5t140 51.5v4q-49 14 -94 33.5t-79 49t-53.5 70.5t-19.5 101q0 76 37 129t93.5 87t125 48t131.5 14q47 0 82 -6t65 -12t55.5 -12.5t51.5 -6.5q23 0 36.5 7.5t25.5 23.5z" />
<glyph unicode="&#xa8;" horiz-adv-x="778" d="M428 1280q0 47 33 80t80 33t79.5 -33t32.5 -80t-32.5 -80t-79.5 -33t-80 33t-33 80zM129 1280q0 47 33 80t80 33t79.5 -33t32.5 -80t-32.5 -80t-79.5 -33t-80 33t-33 80z" />
<glyph unicode="&#xa9;" horiz-adv-x="1556" d="M150 682q0 -121 46 -234.5t130 -201.5t199.5 -140.5t254.5 -52.5q133 0 248 50.5t200 136.5t133 200.5t48 241.5q0 129 -49 243.5t-133 200.5t-200 136.5t-247 50.5q-139 0 -254.5 -53.5t-199.5 -140.5t-130 -200.5t-46 -236.5zM70 682q0 135 51 263t145 227.5t225.5 160 t288.5 60.5q150 0 279 -56.5t224 -154t150.5 -226.5t55.5 -274q0 -143 -54.5 -272t-149.5 -225.5t-225 -154t-280 -57.5q-158 0 -288 59.5t-224 158t-146 226.5t-52 265zM1071 279q-10 4 -14 5t-15 1q-10 0 -32.5 -1t-48 -3t-48 -3.5t-30.5 -1.5q-158 0 -258.5 44.5 t-158.5 111t-81 141t-23 136.5q0 63 22 127.5t72 117t133 84t206 31.5q37 0 62.5 -2t68.5 -8q14 -2 24 -2h15q23 0 32 7t19 23l59 -233l-20 -6q-10 23 -26.5 46.5t-51.5 47.5q-35 27 -84 41t-102 14q-55 0 -104.5 -16t-85.5 -50t-57.5 -85t-21.5 -121q0 -84 28 -152.5 t76 -117.5t113.5 -77t139.5 -28q66 0 111.5 20.5t77.5 49.5t50 59l29 49l22 -8z" />
<glyph unicode="&#xaa;" horiz-adv-x="860" d="M518 1139q-35 -6 -80 -20.5t-85 -36t-68.5 -52.5t-28.5 -74q0 -41 27.5 -61.5t62.5 -20.5q43 0 84 23t64 61q16 31 20 74t4 78v29zM633 997v-51q0 -27 7 -48t22.5 -37.5t46.5 -18.5v-17h-150q-33 39 -37 99q-31 -57 -90 -84t-121 -27q-31 0 -61.5 6t-57 21.5t-43 40 t-16.5 61.5q0 63 42 105.5t101.5 68t125 40.5l114.5 26v20q0 59 -23.5 85t-82.5 26q-82 0 -142.5 -37t-95.5 -113l16 180q14 -16 31 -14t53 14q47 16 87 23.5t90 7.5q55 0 90.5 -11t56 -34.5t29 -60.5t8.5 -90v-181z" />
<glyph unicode="&#xab;" horiz-adv-x="737" d="M274 778l56 -26l-84 -246l84 -252l-56 -25l-147 277zM553 778l55 -26l-84 -246l84 -252l-55 -25l-147 277z" />
<glyph unicode="&#xac;" horiz-adv-x="1228" d="M793 618h-625v115h893v-547h-268v432z" />
<glyph unicode="&#xad;" horiz-adv-x="532" d="M442 412q-18 16 -42 16h-46h-178q-47 0 -88 -5t-68 -48h-16l86 229q18 -16 42 -16h46h178q47 0 88 5t68 48h16z" />
<glyph unicode="&#xae;" horiz-adv-x="1556" d="M150 682q0 -121 46 -234.5t130 -201.5t199.5 -140.5t254.5 -52.5q133 0 248 50.5t200 136.5t133 200.5t48 241.5q0 129 -49 243.5t-133 200.5t-200 136.5t-247 50.5q-139 0 -254.5 -53.5t-199.5 -140.5t-130 -200.5t-46 -236.5zM70 682q0 135 51 263t145 227.5t225.5 160 t288.5 60.5q150 0 279 -56.5t224 -154t150.5 -226.5t55.5 -274q0 -143 -54.5 -272t-149.5 -225.5t-225 -154t-280 -57.5q-158 0 -288 59.5t-224 158t-146 226.5t-52 265zM645 715q37 10 85 27.5t91 42t74 56t31 72.5q0 31 -14.5 47.5t-36 25.5t-48 11t-51.5 2 q-49 0 -75.5 -4t-39 -15t-14.5 -28.5t-2 -42.5v-194zM1204 301h-268v23q16 2 30.5 9t14.5 29q0 10 -6 34t-26.5 64t-58.5 96t-102 134q-41 -14 -69 -22l-74 -21v-168q0 -51 3 -80.5t12.5 -45t25.5 -20.5t43 -9v-23h-307v23q25 4 41 9t24.5 20.5t11.5 44t3 81.5v406 q0 53 -3 81.5t-11.5 44t-25 20.5t-40.5 11v21h469q20 0 52 -2t60.5 -14.5t50 -38t21.5 -72.5q0 -39 -16.5 -68.5t-40 -53t-50.5 -40.5l-50 -29q61 -66 114 -157.5t98 -192.5q16 -41 31 -53t43 -20v-21z" />
<glyph unicode="&#xaf;" horiz-adv-x="901" d="M780 1343v-120h-645v120h645z" />
<glyph unicode="&#xb0;" horiz-adv-x="819" d="M614 1067q0 45 -18 86t-49 71.5t-72 49t-88 18.5t-87 -18.5t-70.5 -49t-48 -71.5t-17.5 -86q0 -47 17.5 -88t48 -71.5t71.5 -48t88 -17.5q45 0 86 17.5t72 48t49 71.5t18 88zM696 1067q0 -63 -24.5 -119.5t-66.5 -97.5t-97 -65.5t-119 -24.5q-63 0 -119.5 24.5 t-97.5 65.5t-65.5 97.5t-24.5 119.5t23.5 118.5t65.5 97.5t98.5 66.5t119.5 24.5t118.5 -24.5t97.5 -66.5t66.5 -97.5t24.5 -118.5z" />
<glyph unicode="&#xb1;" horiz-adv-x="1228" d="M158 131q6 -8 18 -17.5t45 -9.5h789q29 0 41 8.5t22 18.5v-188q-16 25 -30.5 29.5t-30.5 4.5h-789q-25 0 -37 -4t-28 -24v182zM680 301q0 -29 7 -40t18 -21h-187q23 14 29 29.5t6 31.5v332h-330q-25 0 -37 -4t-28 -25v182q6 -8 18 -17t45 -9h332v327q0 25 -4 37.5 t-27 28.5h185q-8 -4 -18.5 -17.5t-10.5 -45.5v-330h332q29 0 41 8t22 18v-188q-16 25 -30.5 30t-30.5 5h-332v-332z" />
<glyph unicode="&#xb2;" horiz-adv-x="786" d="M82 1311q63 29 141 46t150 17q51 0 109.5 -12t106.5 -38t79.5 -68t31.5 -99q0 -66 -33.5 -123t-92 -114.5t-134.5 -117.5l-157 -132h225q43 2 81 4t68.5 11t54 30.5t40.5 64.5l18 -2l-86 -243q-8 14 -25 14q-8 2 -15 1t-17 -1h-598q143 106 242.5 194t161 160t89 132.5 t27.5 113.5q0 80 -51.5 118t-132.5 38q-49 0 -91.5 -15.5t-71 -42t-44 -64.5t-8.5 -83l-19 -2z" />
<glyph unicode="&#xb3;" horiz-adv-x="786" d="M449 1135q61 -6 116.5 -28t97.5 -57.5t66.5 -83.5t24.5 -110q0 -76 -36 -135t-93.5 -101t-130 -65t-148.5 -23q-92 0 -176 27t-162 70l137 188l19 -6q-16 -16 -20.5 -29.5t-4.5 -31.5q0 -37 19.5 -65t50.5 -46t67.5 -28.5t71.5 -10.5q51 0 99.5 17.5t86 47t61 71.5 t23.5 91q0 53 -26.5 94.5t-69.5 68t-96 39.5t-104 13q-27 0 -51.5 -3t-39.5 -7l-18 4l297 211h-207q-66 0 -107.5 -10t-68.5 -70l-18 4l63 201q4 -4 8 -6t8 -6q12 -4 19 -4h463l26 -41z" />
<glyph unicode="&#xb4;" horiz-adv-x="655" d="M281 1382q23 29 50 57.5t68 28.5q43 0 75 -30.5t32 -73.5q0 -27 -12.5 -46.5t-31 -34.5t-41 -26.5t-42.5 -19.5l-211 -96l-33 43z" />
<glyph unicode="&#xb5;" d="M918 0q-20 49 -28.5 102.5t-12.5 106.5q-45 -41 -95.5 -82t-105.5 -74t-114.5 -53t-123.5 -20h-24q-12 0 -23 2v-17q0 -90 19.5 -191.5t68.5 -205.5h-362q49 104 69.5 205.5t18.5 191.5l-12 766q0 41 -3.5 81t-14.5 73t-35.5 54.5t-69.5 25.5v18l331 27v-617 q0 -135 28 -202.5t122 -67.5q76 0 147.5 44t112.5 105q47 72 56.5 150t9.5 160v149q0 43 -2.5 84t-14.5 73t-36.5 53.5t-69.5 23.5v18l331 27v-762q0 -37 2.5 -78t14.5 -75t37.5 -56.5t72.5 -20.5v-18h-294z" />
<glyph unicode="&#xb6;" horiz-adv-x="1024" d="M764 1098h-88q-63 0 -113.5 -43t-77.5 -86q-31 -51 -41 -114.5t-10 -115.5q0 -92 24.5 -158.5t61.5 -109.5t79 -62.5t77 -19.5h96zM971 1171q41 0 58.5 5.5t33.5 21.5l-51 -119q-8 14 -16.5 16.5t-24.5 2.5h-74v-965q0 -88 -19.5 -156.5t-91.5 -128.5 q-72 -59 -158.5 -83.5t-156.5 -24.5q-82 0 -160 25.5t-143 66.5q-47 29 -76 57.5t-47 51.5l191 311l16 -10q-4 -10 -8 -27.5l-8.5 -38t-7.5 -42t-3 -40.5q0 -33 11.5 -78t42 -85t83 -68.5t136.5 -28.5q55 0 103 17.5t85 49t57.5 78t20.5 105.5v231h-133q-57 0 -110.5 4.5 t-102.5 19.5t-93 45t-83 83t-59.5 115.5t-20.5 128.5q0 104 40 189t109.5 145.5t164.5 93t204 32.5h84v142q25 10 42 18t31.5 17.5t27.5 21.5l32 29v-228h74z" />
<glyph unicode="&#xb7;" horiz-adv-x="655" d="M326 528q-59 0 -96 45t-37 101q0 59 38.5 102t100.5 43q59 0 94 -44t35 -97q0 -55 -38 -102.5t-97 -47.5z" />
<glyph unicode="&#xb8;" horiz-adv-x="696" d="M346 -88q23 4 46.5 7t45.5 3q53 0 95 -31.5t42 -91.5q0 -47 -29.5 -81.5t-76.5 -57t-104.5 -35t-112.5 -12.5q-12 0 -27.5 -1t-19.5 -18l-70 127q31 -16 57.5 -24t63.5 -8q25 0 58.5 6t62.5 19.5t49 36t20 52.5q0 37 -22.5 55.5t-58.5 18.5q-53 0 -106.5 -28.5 t-94.5 -63.5l26 156q10 -10 33 -5t49 15l121 49h117z" />
<glyph unicode="&#xb9;" horiz-adv-x="786" d="M317 1143q0 23 -2 51.5t-10 52t-24.5 37.5t-44.5 8l-60 -12v27l293 73v-635q0 -41 2 -73.5t16.5 -57t42 -37t80.5 -10.5v-26h-434v26q51 -2 80 10.5t43 37t16 57.5t2 73v398z" />
<glyph unicode="&#xba;" horiz-adv-x="860" d="M426 868q45 0 77 19.5t53.5 50.5t31.5 70t10 77q0 41 -10 83t-31.5 76t-55.5 55.5t-83 21.5q-47 0 -79 -17.5t-53.5 -46t-30.5 -66.5t-9 -79t9 -85t30.5 -79t56.5 -57.5t84 -22.5zM416 815q-127 0 -210 73t-83 204q0 66 23.5 118t64.5 88.5t96 56t119 19.5 q61 0 115.5 -18.5t94.5 -53t62.5 -86t22.5 -116.5q0 -66 -23.5 -119t-65.5 -90t-97.5 -56.5t-118.5 -19.5z" />
<glyph unicode="&#xbb;" horiz-adv-x="737" d="M463 229l-55 27l84 246l-84 252l55 24l147 -276zM184 229l-55 27l84 246l-84 252l55 24l148 -276z" />
<glyph unicode="&#xbc;" horiz-adv-x="1966" d="M1200 225h-53q-27 0 -49 -10q-2 25 9 49.5t28.5 51t40.5 54.5l45 56l46 62q26 36 47 75t36.5 78t15.5 74q0 16 -7 31.5t-30 17.5l187 129q4 -14 6 -28.5t2 -30.5q0 -51 -16.5 -102.5t-51.5 -96.5l-90 -126q-43 -62 -94 -124l-33 -41q-16 -20 -29 -43h316v346q53 16 86 53 t49 86h18q-14 -55 -16 -111.5t-2 -111.5v-262h33h48q22 0 39 5t31.5 17.5t24.5 34.5l18 -2l-43 -155q-12 23 -24 23.5t-41 0.5h-86v-69q0 -25 1 -50.5t9 -45t24.5 -31t45.5 -11.5v-18h-295v18q29 0 45 12.5t23.5 32t9.5 44t2 49.5v69h-326zM348 1135q0 23 -2 51t-10 52 t-24.5 38t-45.5 8l-59 -12v26l293 74v-635q0 -41 2 -73.5t16 -57t42 -37t81 -10.5v-27h-434v27q51 -2 79.5 10.5t43 37t16.5 57t2 73.5v398zM1079 1180l19 47q10 27 13 50t-4 38.5t-32 13.5v19h230v-19q-25 2 -44.5 -18.5t-35 -49t-26.5 -58t-19 -48.5l-432 -1024 q-6 -16 -15.5 -36.5t-12.5 -38t4 -29t34 -9.5v-18h-230v18q47 14 62.5 41t36.5 72z" />
<glyph unicode="&#xbd;" horiz-adv-x="1966" d="M1079 1180l19 47q10 27 13 50t-4 38.5t-32 13.5v19h230v-19q-25 2 -44.5 -18.5t-35 -49t-26.5 -58t-19 -48.5l-432 -1024q-6 -16 -15.5 -36.5t-12.5 -38t4 -29t34 -9.5v-18h-230v18q47 14 62.5 41t36.5 72zM1167 762q63 29 141 46t150 17q51 0 109.5 -12t106.5 -37.5 t80 -67.5t32 -100q0 -66 -34 -123t-92 -114.5t-134 -117.5l-158 -132h225q43 2 81 4t69 11t54.5 30.5t39.5 64.5l18 -2l-86 -243q-2 6 -10 10q-4 4 -14 4q-8 2 -15.5 1t-17.5 -1h-598q143 106 242.5 194.5t161 160t89 132t27.5 113.5q0 80 -51 118t-133 38q-49 0 -91 -15.5 t-70.5 -42t-44 -64.5t-9.5 -83l-18 -2zM348 1143q0 23 -2 51.5t-10 52t-24.5 37.5t-45.5 8l-59 -12v27l293 73v-635q0 -41 2 -73.5t16 -57t42 -37t81 -10.5v-26h-434v26q51 -2 79.5 10.5t43 37t16.5 57.5t2 73v398z" />
<glyph unicode="&#xbe;" horiz-adv-x="1966" d="M1221 225q-27 0 -54.5 -1t-48.5 -9q-2 25 9.5 49.5t29 51t39.5 54.5l45 56l46 62q26 36 47.5 75t36.5 78t15 74q0 16 -7 31.5t-29 17.5l186 129q4 -14 6 -28.5t2 -30.5q0 -111 -67 -199l-91 -126q-43 -62 -94 -124l-32 -41q-16 -20 -29 -43h315v346q53 16 86 53t49 86h19 q-14 -55 -16.5 -111.5t-2.5 -111.5v-262h33h48q22 0 39.5 5t31.5 17.5t25 34.5l18 -2l-43 -155q-12 23 -24.5 23.5t-41.5 0.5h-86v-69q0 -25 1 -50.5t9.5 -45t25 -31t44.5 -11.5v-18h-295v18q29 0 45.5 12.5t23.5 32t9 44t2 49.5v69h-325zM489 1126q61 -6 117 -27.5 t97.5 -57t66.5 -84t25 -109.5q0 -76 -36 -135.5t-93.5 -101.5t-130 -64.5t-148.5 -22.5q-92 0 -176 27t-162 70l137 188l19 -6q-16 -16 -20.5 -29.5t-4.5 -32.5q0 -37 19.5 -64.5t50.5 -46t67.5 -28.5t71.5 -10q51 0 99.5 17.5t86 47t61 71.5t23.5 91q0 53 -26.5 94 t-69.5 68t-96 40t-105 13q-27 0 -51 -3t-39 -7l-18 4l297 211h-207q-66 0 -107.5 -10t-68.5 -70l-18 4l63 201l18 -12q12 -4 17 -4h463l26 -41zM1182 1180l18 47q10 27 13.5 50t-4 38.5t-31.5 13.5v19h229v-19q-25 2 -44.5 -18.5t-34.5 -49t-26.5 -58l-19.5 -48.5 l-432 -1024q-6 -16 -15.5 -36.5t-12.5 -38t4.5 -29t33.5 -9.5v-18h-229v18q47 14 62.5 41t35.5 72z" />
<glyph unicode="&#xbf;" horiz-adv-x="1064" d="M604 1030q59 0 96 -45t37 -100q0 -59 -39 -102.5t-100 -43.5q-57 0 -93 43t-36 99q0 55 38 102t97 47zM401 301q25 12 53.5 28.5t54.5 36t43 45t17 58.5q0 51 -37.5 75.5t-82.5 26.5v19h16q72 0 123 13t108 56q25 -29 41.5 -62.5t16.5 -72.5q0 -70 -38 -111.5t-87 -82.5 l-137 -115l-69 -59.5t-62.5 -65.5t-46 -76t-17.5 -88q0 -49 19.5 -88t51 -65.5t74.5 -40t90 -13.5q70 0 136.5 25t118 69t82 105.5t30.5 134.5q0 16 -2 32.5t-6 33.5h18l86 -393q-20 8 -34 8q-31 0 -69 -16l-90 -34q-52 -19 -124 -35t-170 -16q-72 0 -150.5 17.5 t-144.5 56.5t-109 99.5t-43 146.5q0 49 18.5 91t49.5 77t69 61.5t78 48.5z" />
<glyph unicode="&#xc0;" horiz-adv-x="1351" d="M819 1444l-209 96q-20 8 -42.5 19.5t-41 27t-31 34.5t-12.5 46q0 43 31 74t74 31q41 0 68.5 -29t50.5 -57l147 -199zM657 1194l-186 -492q115 2 224.5 -38.5t189.5 -124.5zM322 274q-12 -35 -22.5 -71.5t-10.5 -73.5q0 -49 33.5 -77.5t78.5 -33.5v-18h-417v18 q37 8 60.5 20.5t45.5 45.5q29 41 52.5 93t39.5 97l330 871l20 58q10 30 11 61q0 29 -18.5 45t-45.5 20v19h455v-19q-59 -16 -60 -74q0 -18 6.5 -40.5t12.5 -38.5l350 -1008q23 -55 43.5 -94t81.5 -56v-18h-465v18q55 12 78 51.5t23 92.5q0 70 -42 146.5t-117 140 t-178.5 106.5t-226.5 45z" />
<glyph unicode="&#xc1;" horiz-adv-x="1351" d="M690 1690q23 29 50.5 57.5t68.5 28.5q43 0 74.5 -31t31.5 -74q0 -27 -12 -46t-30.5 -34.5t-41 -27t-43.5 -19.5l-210 -96l-33 43zM657 1194l-186 -492q115 2 224.5 -38.5t189.5 -124.5zM322 274q-12 -35 -22.5 -71.5t-10.5 -73.5q0 -49 33.5 -77.5t78.5 -33.5v-18h-417 v18q37 8 60.5 20.5t45.5 45.5q29 41 52.5 93t39.5 97l330 871l20 58q10 30 11 61q0 29 -18.5 45t-45.5 20v19h455v-19q-59 -16 -60 -74q0 -18 6.5 -40.5t12.5 -38.5l350 -1008q23 -55 43.5 -94t81.5 -56v-18h-465v18q55 12 78 51.5t23 92.5q0 70 -42 146.5t-117 140 t-178.5 106.5t-226.5 45z" />
<glyph unicode="&#xc2;" horiz-adv-x="1351" d="M979 1520l-27 -52l-233 80l-232 -80l-24 52l256 178zM657 1194l-186 -492q115 2 224.5 -38.5t189.5 -124.5zM322 274q-12 -35 -22.5 -71.5t-10.5 -73.5q0 -49 33.5 -77.5t78.5 -33.5v-18h-417v18q37 8 60.5 20.5t45.5 45.5q29 41 52.5 93t39.5 97l330 871l20 58 q10 30 11 61q0 29 -18.5 45t-45.5 20v19h455v-19q-59 -16 -60 -74q0 -18 6.5 -40.5t12.5 -38.5l350 -1008q23 -55 43.5 -94t81.5 -56v-18h-465v18q55 12 78 51.5t23 92.5q0 70 -42 146.5t-117 140t-178.5 106.5t-226.5 45z" />
<glyph unicode="&#xc3;" horiz-adv-x="1351" d="M971 1677q-14 -72 -61.5 -121t-123.5 -49q-35 0 -62.5 7.5t-53 16.5t-51 17t-56.5 8q-27 0 -43 -12t-28 -33h-50q18 72 58.5 120t120.5 48q31 0 56 -8l51 -17t52.5 -16.5t55.5 -7.5q35 0 53 11.5t33 41.5zM657 1194l-186 -492q115 2 224.5 -38.5t189.5 -124.5zM322 274 q-12 -35 -22.5 -71.5t-10.5 -73.5q0 -49 33.5 -77.5t78.5 -33.5v-18h-417v18q37 8 60.5 20.5t45.5 45.5q29 41 52.5 93t39.5 97l330 871l20 58q10 30 11 61q0 29 -18.5 45t-45.5 20v19h455v-19q-59 -16 -60 -74q0 -18 6.5 -40.5t12.5 -38.5l350 -1008q23 -55 43.5 -94 t81.5 -56v-18h-465v18q55 12 78 51.5t23 92.5q0 70 -42 146.5t-117 140t-178.5 106.5t-226.5 45z" />
<glyph unicode="&#xc4;" horiz-adv-x="1351" d="M715 1587q0 47 32.5 80t79.5 33t80 -33t33 -80t-33 -79.5t-80 -32.5t-79.5 32.5t-32.5 79.5zM416 1587q0 47 32.5 80t79.5 33t80 -33t33 -80t-33 -79.5t-80 -32.5t-79.5 32.5t-32.5 79.5zM657 1194l-186 -492q115 2 224.5 -38.5t189.5 -124.5zM322 274 q-12 -35 -22.5 -71.5t-10.5 -73.5q0 -49 33.5 -77.5t78.5 -33.5v-18h-417v18q37 8 60.5 20.5t45.5 45.5q29 41 52.5 93t39.5 97l330 871l20 58q10 30 11 61q0 29 -18.5 45t-45.5 20v19h455v-19q-59 -16 -60 -74q0 -18 6.5 -40.5t12.5 -38.5l350 -1008q23 -55 43.5 -94 t81.5 -56v-18h-465v18q55 12 78 51.5t23 92.5q0 70 -42 146.5t-117 140t-178.5 106.5t-226.5 45z" />
<glyph unicode="&#xc5;" horiz-adv-x="1351" d="M524 1612q0 70 49.5 119t118.5 49q70 0 119 -49.5t49 -118.5q0 -70 -49 -119t-119 -49t-119 49t-49 119zM606 1612q0 -35 25.5 -60.5t60.5 -25.5t60.5 25.5t25.5 60.5t-25.5 60.5t-60.5 25.5t-60.5 -25.5t-25.5 -60.5zM657 1194l-186 -492q115 2 224.5 -38.5 t189.5 -124.5zM322 274q-12 -35 -22.5 -71.5t-10.5 -73.5q0 -49 33.5 -77.5t78.5 -33.5v-18h-417v18q37 8 60.5 20.5t45.5 45.5q29 41 52.5 93t39.5 97l330 871l20 58q10 30 11 61q0 29 -18.5 45t-45.5 20v19h455v-19q-59 -16 -60 -74q0 -18 6.5 -40.5t12.5 -38.5l350 -1008 q23 -55 43.5 -94t81.5 -56v-18h-465v18q55 12 78 51.5t23 92.5q0 70 -42 146.5t-117 140t-178.5 106.5t-226.5 45z" />
<glyph unicode="&#xc6;" horiz-adv-x="2048" d="M1004 1241q0 6 -1.5 24.5t-11.5 18.5t-19 -16.5t-14 -20.5l-393 -612q104 63 213 113.5t226 80.5v412zM1860 -27q-4 12 -16.5 17.5t-28.5 7.5q-16 4 -31 3t-25 -1h-889v18q23 0 54.5 15.5t48.5 40.5q23 35 25.5 81l5.5 99v485q-117 -39 -225.5 -84t-207.5 -116 q-41 -31 -90 -77t-91 -99.5t-69.5 -111.5t-27.5 -114q0 -57 29.5 -83.5t83.5 -35.5v-18h-498v18q57 14 95 40t79 69q45 49 89 111.5l81 119.5l493 762l23 33q14 20 26.5 43t21.5 43.5t9 36.5q0 27 -22.5 37t-42.5 16v19h1038q16 0 29.5 3t32.5 23l90 -418l-17 -4 q-31 76 -86 133.5t-124.5 94.5t-147.5 55t-158 18q-33 0 -75 -5t-70 -21q-31 -18 -37 -59.5t-6 -77.5v-211l119 14l89 8q44 4 77.5 20.5t54 48t20.5 91.5l19 4l82 -471l-17 -6q-41 117 -123 164t-200 47q-33 0 -64 -3t-57 -12v-473q0 -59 6 -101t25.5 -67.5t58.5 -37 t106 -11.5q203 0 356.5 106.5t237.5 286.5l19 -6z" />
<glyph unicode="&#xc7;" horiz-adv-x="1433" d="M1255 -20q-16 8 -33.5 8t-33.5 -2l-248 -13h-33q-16 0 -33 2l-118 -63q23 4 46 7t46 3q53 0 95 -31.5t42 -91.5q0 -47 -29.5 -81.5t-77 -57t-104.5 -35t-112 -12.5q-12 0 -28 -1t-20 -18l-69 127q31 -16 57.5 -24t63.5 -8q25 0 58.5 6t62 19.5t49 36t20.5 52.5 q0 37 -22.5 55.5t-59.5 18.5q-53 0 -106.5 -28.5t-94.5 -63.5l27 156q10 -10 32.5 -5t49.5 15l84 35q-117 14 -224.5 54t-199.5 118q-133 111 -198.5 262t-65.5 321q0 135 49 261t154 215q111 92 240.5 124.5t269.5 32.5q45 0 86 -3t77 -7q37 -4 69 -8t58 -4q25 0 47.5 9 t32.5 32l94 -387l-16 -7q-29 68 -76 118t-106.5 84t-128 50.5t-137.5 16.5q-102 0 -184.5 -29t-151.5 -109q-66 -78 -98.5 -175t-32.5 -199q0 -133 44 -256t123.5 -216.5t193.5 -148.5t255 -55q164 0 275.5 88t177.5 231l20 -8z" />
<glyph unicode="&#xc8;" d="M758 1444l-209 96q-20 8 -43 19.5t-41.5 27t-30.5 34.5t-12 46q0 43 30.5 74t73.5 31q41 0 69 -29t50 -57l148 -199zM430 319q0 -59 4 -102t23.5 -70.5t62.5 -40t121 -12.5q221 0 369.5 100.5t244.5 294.5l21 -6l-174 -510q-12 18 -41 25q-10 2 -24 2h-25h-940v18 q16 0 45.5 12.5t50.5 37.5q29 35 33 84t4 102v825q0 41 -2 83t-15.5 76t-40 58.5t-75.5 32.5v19h876q29 0 58.5 1t52.5 23l92 -411l-16 -7q-33 78 -87.5 134.5t-124 93.5t-147.5 54t-158 17q-53 0 -88.5 -6t-58 -24.5t-32 -52t-9.5 -89.5v-116h158h77q40 0 73.5 10t56 35.5 t20.5 76.5l19 7l79 -459l-16 -6q-27 90 -64.5 138t-89 70.5t-117 26.5t-147.5 4h-49v-549z" />
<glyph unicode="&#xc9;" d="M629 1690q23 29 50.5 57.5t68.5 28.5q43 0 74.5 -31t31.5 -74q0 -27 -12.5 -46t-30.5 -34.5t-40.5 -27t-43.5 -19.5l-211 -96l-33 43zM430 319q0 -59 4 -102t23.5 -70.5t62.5 -40t121 -12.5q221 0 369.5 100.5t244.5 294.5l21 -6l-174 -510q-12 18 -41 25q-10 2 -24 2 h-25h-940v18q16 0 45.5 12.5t50.5 37.5q29 35 33 84t4 102v825q0 41 -2 83t-15.5 76t-40 58.5t-75.5 32.5v19h876q29 0 58.5 1t52.5 23l92 -411l-16 -7q-33 78 -87.5 134.5t-124 93.5t-147.5 54t-158 17q-53 0 -88.5 -6t-58 -24.5t-32 -52t-9.5 -89.5v-116h158h77 q40 0 73.5 10t56 35.5t20.5 76.5l19 7l79 -459l-16 -6q-27 90 -64.5 138t-89 70.5t-117 26.5t-147.5 4h-49v-549z" />
<glyph unicode="&#xca;" d="M897 1520l-27 -52l-233 80l-231 -80l-25 52l256 178zM430 319q0 -59 4 -102t23.5 -70.5t62.5 -40t121 -12.5q221 0 369.5 100.5t244.5 294.5l21 -6l-174 -510q-12 18 -41 25q-10 2 -24 2h-25h-940v18q16 0 45.5 12.5t50.5 37.5q29 35 33 84t4 102v825q0 41 -2 83 t-15.5 76t-40 58.5t-75.5 32.5v19h876q29 0 58.5 1t52.5 23l92 -411l-16 -7q-33 78 -87.5 134.5t-124 93.5t-147.5 54t-158 17q-53 0 -88.5 -6t-58 -24.5t-32 -52t-9.5 -89.5v-116h158h77q40 0 73.5 10t56 35.5t20.5 76.5l19 7l79 -459l-16 -6q-27 90 -64.5 138t-89 70.5 t-117 26.5t-147.5 4h-49v-549z" />
<glyph unicode="&#xcb;" d="M674 1587q0 47 32.5 80t79.5 33t80 -33t33 -80t-32.5 -79.5t-80.5 -32.5q-47 0 -79.5 32.5t-32.5 79.5zM375 1587q0 47 32.5 80t79.5 33t80 -33t33 -80t-32.5 -79.5t-80.5 -32.5q-47 0 -79.5 32.5t-32.5 79.5zM430 319q0 -59 4 -102t23.5 -70.5t62.5 -40t121 -12.5 q221 0 369.5 100.5t244.5 294.5l21 -6l-174 -510q-12 18 -41 25q-10 2 -24 2h-25h-940v18q16 0 45.5 12.5t50.5 37.5q29 35 33 84t4 102v825q0 41 -2 83t-15.5 76t-40 58.5t-75.5 32.5v19h876q29 0 58.5 1t52.5 23l92 -411l-16 -7q-33 78 -87.5 134.5t-124 93.5t-147.5 54 t-158 17q-53 0 -88.5 -6t-58 -24.5t-32 -52t-9.5 -89.5v-116h158h77q40 0 73.5 10t56 35.5t20.5 76.5l19 7l79 -459l-16 -6q-27 90 -64.5 138t-89 70.5t-117 26.5t-147.5 4h-49v-549z" />
<glyph unicode="&#xcc;" horiz-adv-x="655" d="M471 1444l-209 96q-20 8 -42.5 19.5t-41 27t-31 34.5t-12.5 46q0 43 31 74t74 31q41 0 68.5 -29t49.5 -57l148 -199zM440 268q0 -43 2 -84t15.5 -75.5t40 -59t75.5 -31.5v-18h-491v18q49 6 75.5 28t40 54.5t15.5 71.5t2 82v825q0 43 -2 84t-15.5 76t-40 59.5t-75.5 30.5 v19h491v-19q-49 -8 -75.5 -29.5t-40 -54.5t-15.5 -71.5t-2 -81.5v-824z" />
<glyph unicode="&#xcd;" horiz-adv-x="655" d="M332 1690q23 29 50.5 57.5t68.5 28.5q43 0 74.5 -31t31.5 -74q0 -27 -12.5 -46t-30.5 -34.5t-40.5 -27t-43.5 -19.5l-211 -96l-33 43zM440 268q0 -43 2 -84t15.5 -75.5t40 -59t75.5 -31.5v-18h-491v18q49 6 75.5 28t40 54.5t15.5 71.5t2 82v825q0 43 -2 84t-15.5 76 t-40 59.5t-75.5 30.5v19h491v-19q-49 -8 -75.5 -29.5t-40 -54.5t-15.5 -71.5t-2 -81.5v-824z" />
<glyph unicode="&#xce;" horiz-adv-x="655" d="M590 1520l-27 -52l-233 80l-232 -80l-24 52l256 178zM440 268q0 -43 2 -84t15.5 -75.5t40 -59t75.5 -31.5v-18h-491v18q49 6 75.5 28t40 54.5t15.5 71.5t2 82v825q0 43 -2 84t-15.5 76t-40 59.5t-75.5 30.5v19h491v-19q-49 -8 -75.5 -29.5t-40 -54.5t-15.5 -71.5 t-2 -81.5v-824z" />
<glyph unicode="&#xcf;" horiz-adv-x="655" d="M367 1587q0 47 32.5 80t79.5 33t80 -33t33 -80t-33 -79.5t-80 -32.5t-79.5 32.5t-32.5 79.5zM68 1587q0 47 32.5 80t79.5 33t80 -33t33 -80t-33 -79.5t-80 -32.5t-79.5 32.5t-32.5 79.5zM440 268q0 -43 2 -84t15.5 -75.5t40 -59t75.5 -31.5v-18h-491v18q49 6 75.5 28 t40 54.5t15.5 71.5t2 82v825q0 43 -2 84t-15.5 76t-40 59.5t-75.5 30.5v19h491v-19q-49 -8 -75.5 -29.5t-40 -54.5t-15.5 -71.5t-2 -81.5v-824z" />
<glyph unicode="&#xd0;" horiz-adv-x="1474" d="M432 858v-524q0 -63 4 -108.5t25.5 -75t65.5 -43t124 -13.5q135 0 230.5 45t156 118t87 165t26.5 188q0 61 -12.5 133t-39 143.5t-70.5 137.5t-105.5 116t-144.5 79.5t-189 29.5q-59 0 -92 -13t-47.5 -37.5t-16.5 -59.5t-2 -76v-107h289v-98h-289zM74 858v98h133v82 q0 96 -5 149.5t-19.5 81t-40 39t-64.5 21.5v19h508q119 0 209 -17.5t159.5 -45.5t119.5 -62.5t89 -69.5q115 -104 174.5 -242.5t59.5 -281.5q0 -74 -15.5 -145.5t-43 -136t-67.5 -118t-89 -90.5q-57 -43 -111.5 -70.5t-114 -43t-131 -20.5t-163.5 -5h-584v16 q39 10 64.5 22.5t40 41.5t19.5 82t5 147v549h-133z" />
<glyph unicode="&#xd1;" horiz-adv-x="1433" d="M971 1677q-14 -72 -61.5 -121t-123.5 -49q-35 0 -62.5 7.5t-53 16.5t-51 17t-56.5 8q-27 0 -43 -12t-28 -33h-50q18 72 58.5 120t120.5 48q31 0 56 -8l51 -17t52.5 -16.5t55.5 -7.5q35 0 53 11.5t33 41.5zM1098 1079q0 43 -2 86t-15.5 78t-41 57.5t-78.5 28.5v19h403v-19 q-49 -6 -75.5 -28.5t-40 -54.5t-15.5 -71.5t-2 -80.5v-826q0 -43 2 -85t15.5 -75.5t40 -58t75.5 -31.5v-18h-403v18q49 6 76.5 27t41 53.5t16.5 72.5t3 83v84v43v50q0 26 -2 49.5t-6 41.5q-10 41 -42 69l-63 54l-647 539v-916q0 -43 2 -86t15.5 -77.5t40 -58t75.5 -28.5v-18 h-399v18q49 6 75.5 29t40 54.5t15.5 71.5t2 81v825q0 43 -2 84t-15.5 76t-40 59.5t-75.5 30.5v19h538v-19q-51 -4 -41.5 -31.5t62.5 -72.5l467 -389v243z" />
<glyph unicode="&#xd2;" horiz-adv-x="1638" d="M942 1444l-209 96q-20 8 -42.5 19.5t-41 27t-31 34.5t-12.5 46q0 43 31 74t74 31q41 0 68.5 -29t49.5 -57l148 -199zM338 743q0 -115 34 -232.5t100.5 -213.5t163.5 -156.5t226 -60.5q106 0 188.5 43t137.5 114.5t82.5 165t27.5 191.5q0 137 -43 259t-115.5 214 t-169 146.5t-204.5 54.5q-111 0 -190.5 -45t-133 -119t-79 -168.5t-25.5 -192.5zM815 -27q-141 0 -270 45t-234 144q-104 98 -161.5 232t-57.5 276q0 154 56.5 282.5t153.5 223t228.5 146.5t282.5 52q156 0 290 -53t232.5 -148.5t153.5 -227.5t55 -290q0 -150 -59.5 -274.5 t-160.5 -215.5t-233.5 -141.5t-275.5 -50.5z" />
<glyph unicode="&#xd3;" horiz-adv-x="1638" d="M813 1690q23 29 50.5 57.5t68.5 28.5q43 0 74.5 -31t31.5 -74q0 -27 -12 -46t-30.5 -34.5t-41 -27t-43.5 -19.5l-211 -96l-32 43zM338 743q0 -115 34 -232.5t100.5 -213.5t163.5 -156.5t226 -60.5q106 0 188.5 43t137.5 114.5t82.5 165t27.5 191.5q0 137 -43 259 t-115.5 214t-169 146.5t-204.5 54.5q-111 0 -190.5 -45t-133 -119t-79 -168.5t-25.5 -192.5zM815 -27q-141 0 -270 45t-234 144q-104 98 -161.5 232t-57.5 276q0 154 56.5 282.5t153.5 223t228.5 146.5t282.5 52q156 0 290 -53t232.5 -148.5t153.5 -227.5t55 -290 q0 -150 -59.5 -274.5t-160.5 -215.5t-233.5 -141.5t-275.5 -50.5z" />
<glyph unicode="&#xd4;" horiz-adv-x="1638" d="M1061 1520l-27 -52l-233 80l-232 -80l-24 52l256 178zM338 743q0 -115 34 -232.5t100.5 -213.5t163.5 -156.5t226 -60.5q106 0 188.5 43t137.5 114.5t82.5 165t27.5 191.5q0 137 -43 259t-115.5 214t-169 146.5t-204.5 54.5q-111 0 -190.5 -45t-133 -119t-79 -168.5 t-25.5 -192.5zM815 -27q-141 0 -270 45t-234 144q-104 98 -161.5 232t-57.5 276q0 154 56.5 282.5t153.5 223t228.5 146.5t282.5 52q156 0 290 -53t232.5 -148.5t153.5 -227.5t55 -290q0 -150 -59.5 -274.5t-160.5 -215.5t-233.5 -141.5t-275.5 -50.5z" />
<glyph unicode="&#xd5;" horiz-adv-x="1638" d="M1073 1677q-14 -72 -61 -121t-123 -49q-35 0 -62.5 7.5t-53 16.5t-51.5 17t-56 8q-27 0 -43.5 -12t-28.5 -33h-49q18 72 58 120t120 48q31 0 56.5 -8t51 -17t52 -16.5t55.5 -7.5q35 0 53.5 11.5t32.5 41.5zM338 743q0 -115 34 -232.5t100.5 -213.5t163.5 -156.5 t226 -60.5q106 0 188.5 43t137.5 114.5t82.5 165t27.5 191.5q0 137 -43 259t-115.5 214t-169 146.5t-204.5 54.5q-111 0 -190.5 -45t-133 -119t-79 -168.5t-25.5 -192.5zM815 -27q-141 0 -270 45t-234 144q-104 98 -161.5 232t-57.5 276q0 154 56.5 282.5t153.5 223 t228.5 146.5t282.5 52q156 0 290 -53t232.5 -148.5t153.5 -227.5t55 -290q0 -150 -59.5 -274.5t-160.5 -215.5t-233.5 -141.5t-275.5 -50.5z" />
<glyph unicode="&#xd6;" horiz-adv-x="1638" d="M838 1587q0 47 32.5 80t79.5 33t80 -33t33 -80t-33 -79.5t-80 -32.5t-79.5 32.5t-32.5 79.5zM539 1587q0 47 32.5 80t79.5 33t80 -33t33 -80t-33 -79.5t-80 -32.5t-79.5 32.5t-32.5 79.5zM338 743q0 -115 34 -232.5t100.5 -213.5t163.5 -156.5t226 -60.5q106 0 188.5 43 t137.5 114.5t82.5 165t27.5 191.5q0 137 -43 259t-115.5 214t-169 146.5t-204.5 54.5q-111 0 -190.5 -45t-133 -119t-79 -168.5t-25.5 -192.5zM815 -27q-141 0 -270 45t-234 144q-104 98 -161.5 232t-57.5 276q0 154 56.5 282.5t153.5 223t228.5 146.5t282.5 52 q156 0 290 -53t232.5 -148.5t153.5 -227.5t55 -290q0 -150 -59.5 -274.5t-160.5 -215.5t-233.5 -141.5t-275.5 -50.5z" />
<glyph unicode="&#xd7;" horiz-adv-x="1228" d="M342 313q-20 -20 -23.5 -33.5t-1.5 -27.5l-129 129q27 -8 41.5 -1t26.5 19l274 277l-262 262q-16 16 -27.5 22.5t-39.5 4.5l125 125q0 -10 2 -25.5t24 -38.5l264 -266l273 274q18 16 24.5 27.5t1.5 38.5l125 -125q-8 2 -24.5 -1t-38.5 -26l-275 -272l267 -266 q20 -20 34.5 -23.5t26.5 -1.5l-127 -129q6 29 -2 43t-18 25l-265 264z" />
<glyph unicode="&#xd8;" horiz-adv-x="1597" d="M608 160q49 -35 110.5 -57.5t129.5 -22.5q111 0 193.5 45t137 119.5t81 170t26.5 197.5q0 76 -14.5 156t-45 154.5t-76.5 140t-110 111.5zM948 1229q-43 23 -92 31t-98 8q-109 0 -193 -43t-140 -116t-85 -166t-29 -193q0 -145 50.5 -285.5t160.5 -239.5zM1018 1397l11 27 l15 36q8 18 13.5 35.5t5.5 28.5q0 14 -6 26h174q-43 -29 -65 -76l-42 -96l-24 -59q100 -41 178 -106.5t132 -149.5t83 -183.5t29 -207.5q0 -150 -55.5 -278t-150.5 -221t-224 -146.5t-277 -53.5q-135 0 -266 47l-47 -112q-4 -10 -10.5 -23.5t-6.5 -23.5q0 -16 7 -29h-179 q47 27 70 76l45 96l25 57q-88 41 -158 108t-119 149.5t-74.5 176t-25.5 189.5q0 156 59.5 283t159.5 218t234.5 140t285.5 49q88 0 184 -22z" />
<glyph unicode="&#xd9;" horiz-adv-x="1392" d="M840 1444l-209 96q-20 8 -43 19.5t-41.5 27t-30.5 34.5t-12 46q0 43 30.5 74t73.5 31q41 0 69 -29t50 -57l147 -199zM66 1348h524v-19q-53 -4 -86 -16.5t-51.5 -43t-26.5 -86t-12 -145.5l-27 -522q-6 -106 3 -181t56 -134q41 -53 119 -83t160 -30q49 0 98 11.5t92 29.5 t77 42t52 50q41 61 50.5 124t5.5 147l-23 546q-4 92 -12 147.5t-27.5 86.5t-53.5 42t-91 15v19h436v-19q-41 -10 -66.5 -21.5t-39 -40t-15.5 -81.5t2 -148l21 -538q6 -135 -18.5 -217t-75.5 -138q-53 -59 -117 -94t-125 -52t-112.5 -21.5t-80.5 -4.5q-39 0 -92 5.5 t-108.5 17.5t-107.5 31.5t-91 50.5q-47 37 -74.5 76t-43 77.5t-19.5 78.5t-2 81l29 647q4 90 0.5 144.5t-16.5 84t-39.5 42t-71.5 20.5v19z" />
<glyph unicode="&#xda;" horiz-adv-x="1392" d="M752 1720q23 29 50 57.5t68 28.5q43 0 75 -30.5t32 -73.5q0 -27 -12.5 -46.5t-31 -34.5t-41 -26.5t-42.5 -19.5l-211 -96l-33 43zM66 1348h524v-19q-53 -4 -86 -16.5t-51.5 -43t-26.5 -86t-12 -145.5l-27 -522q-6 -106 3 -181t56 -134q41 -53 119 -83t160 -30 q49 0 98 11.5t92 29.5t77 42t52 50q41 61 50.5 124t5.5 147l-23 546q-4 92 -12 147.5t-27.5 86.5t-53.5 42t-91 15v19h436v-19q-41 -10 -66.5 -21.5t-39 -40t-15.5 -81.5t2 -148l21 -538q6 -135 -18.5 -217t-75.5 -138q-53 -59 -117 -94t-125 -52t-112.5 -21.5t-80.5 -4.5 q-39 0 -92 5.5t-108.5 17.5t-107.5 31.5t-91 50.5q-47 37 -74.5 76t-43 77.5t-19.5 78.5t-2 81l29 647q4 90 0.5 144.5t-16.5 84t-39.5 42t-71.5 20.5v19z" />
<glyph unicode="&#xdb;" horiz-adv-x="1392" d="M999 1550l-26 -51l-234 80l-231 -80l-25 51l256 179zM66 1348h524v-19q-53 -4 -86 -16.5t-51.5 -43t-26.5 -86t-12 -145.5l-27 -522q-6 -106 3 -181t56 -134q41 -53 119 -83t160 -30q49 0 98 11.5t92 29.5t77 42t52 50q41 61 50.5 124t5.5 147l-23 546q-4 92 -12 147.5 t-27.5 86.5t-53.5 42t-91 15v19h436v-19q-41 -10 -66.5 -21.5t-39 -40t-15.5 -81.5t2 -148l21 -538q6 -135 -18.5 -217t-75.5 -138q-53 -59 -117 -94t-125 -52t-112.5 -21.5t-80.5 -4.5q-39 0 -92 5.5t-108.5 17.5t-107.5 31.5t-91 50.5q-47 37 -74.5 76t-43 77.5 t-19.5 78.5t-2 81l29 647q4 90 0.5 144.5t-16.5 84t-39.5 42t-71.5 20.5v19z" />
<glyph unicode="&#xdc;" horiz-adv-x="1392" d="M776 1618q0 47 33 80t80 33t79.5 -33t32.5 -80t-32.5 -80t-79.5 -33t-80 33t-33 80zM477 1618q0 47 33 80t80 33t79.5 -33t32.5 -80t-32.5 -80t-79.5 -33t-80 33t-33 80zM66 1348h524v-19q-53 -4 -86 -16.5t-51.5 -43t-26.5 -86t-12 -145.5l-27 -522q-6 -106 3 -181 t56 -134q41 -53 119 -83t160 -30q49 0 98 11.5t92 29.5t77 42t52 50q41 61 50.5 124t5.5 147l-23 546q-4 92 -12 147.5t-27.5 86.5t-53.5 42t-91 15v19h436v-19q-41 -10 -66.5 -21.5t-39 -40t-15.5 -81.5t2 -148l21 -538q6 -135 -18.5 -217t-75.5 -138q-53 -59 -117 -94 t-125 -52t-112.5 -21.5t-80.5 -4.5q-39 0 -92 5.5t-108.5 17.5t-107.5 31.5t-91 50.5q-47 37 -74.5 76t-43 77.5t-19.5 78.5t-2 81l29 647q4 90 0.5 144.5t-16.5 84t-39.5 42t-71.5 20.5v19z" />
<glyph unicode="&#xdd;" horiz-adv-x="1228" d="M670 1690q23 29 50.5 57.5t67.5 28.5q43 0 75 -31t32 -74q0 -27 -12.5 -46t-30.5 -34.5t-41 -27t-43 -19.5l-211 -96l-33 43zM725 268q0 -47 2 -90t15.5 -77.5t40 -57.5t75.5 -25v-18h-491v18q49 6 75.5 27t40 53.5t15.5 72.5t2 83v369l-328 516l-38 60 q-19 32 -42.5 59.5t-53.5 47t-69 23.5v19h531v-19q-66 -4 -85.5 -32.5t-13 -70.5t31 -88t48.5 -83l191 -305l188 309q33 55 58.5 103t31.5 84t-13 57.5t-75 25.5v19h398v-19q-41 -6 -73 -25.5t-56.5 -46t-43.5 -54.5l-32 -50l-330 -530v-355z" />
<glyph unicode="&#xde;" horiz-adv-x="1146" d="M434 438q57 18 141 49t161 76t131.5 105.5t54.5 136.5q0 51 -21.5 84t-61.5 51t-94.5 25.5t-117.5 7.5q-18 0 -45 -2t-53.5 -8.5t-49 -17.5t-30.5 -30q-4 -10 -7.5 -28.5t-5.5 -39t-2 -39.5v-32v-338zM209 1079q0 43 -2 84t-15.5 76t-40 59.5t-75.5 30.5v19h491v-19 q-49 -8 -75.5 -30.5t-40 -56.5t-15.5 -79t-2 -96h393q61 0 119 -8t104 -33t73.5 -70t27.5 -118q0 -72 -38 -132.5t-99.5 -110.5t-139 -91t-157.5 -72t-154 -54.5t-129 -37.5v-72q0 -43 2 -86t15.5 -77.5t40 -58t75.5 -28.5v-18h-491v18q49 6 75.5 29t40 54.5t15.5 70.5t2 82 v825z" />
<glyph unicode="&#xdf;" horiz-adv-x="1228" d="M530 178q0 -53 45.5 -82.5t94.5 -29.5q61 0 117.5 24.5t98.5 67.5t67.5 98t25.5 117q0 70 -28.5 120t-74 86.5t-101.5 62.5t-111 48q-18 8 -41 16.5t-42.5 20.5t-32.5 30.5t-13 43.5q0 23 11 40t27.5 29.5t35.5 21.5l38 17l43 19q66 31 103.5 72.5t37.5 117.5 q0 70 -38.5 117t-112.5 47q-84 0 -134 -36t-78 -96t-37 -141t-9 -171v-549q0 -256 -112.5 -383t-327.5 -127q-63 0 -121 12l16 135q33 -61 109 -61q66 0 109.5 31.5t69 96t37 164t11.5 236.5v279h-41q-39 0 -63.5 -1t-59.5 -20l49 125q16 -16 34 -16h40h41q0 57 2 113.5 t9 110.5t23.5 104.5t45.5 93.5q66 98 170 142t219 44q55 0 111.5 -14.5t101.5 -44t72.5 -76.5t27.5 -111q0 -72 -30.5 -119t-66.5 -77.5t-66.5 -48t-30.5 -29.5q0 -10 10 -16.5t20 -10.5q68 -29 128.5 -62.5t106.5 -79.5t73.5 -106.5t27.5 -144.5q0 -104 -42 -187 t-111.5 -141.5t-160.5 -89t-189 -30.5q-61 0 -121 11t-119 32l96 196l12 -6z" />
<glyph unicode="&#xe0;" horiz-adv-x="1146" d="M717 1137l-209 96q-20 8 -43 19.5t-41 26.5t-30.5 34.5t-12.5 46.5q0 43 30.5 73.5t73.5 30.5q41 0 69 -28.5t50 -57.5l148 -198zM786 588q-61 -12 -143 -38t-157.5 -67t-128 -99t-52.5 -138q0 -72 50.5 -112t115.5 -40q98 0 159.5 40t96.5 101.5t47 133t12 135.5v84z M872 0q-31 41 -49 87t-20 97q-31 -55 -76 -94t-99.5 -63.5t-113.5 -35.5t-119 -11q-70 0 -129 16t-102 47t-67.5 75t-24.5 101q0 80 36.5 141.5t96 106.5t135.5 78t155.5 56.5t155.5 39.5t135 31v39q0 115 -46 159.5t-160 44.5q-147 0 -261 -70.5t-176 -207.5l33 336 q29 -23 53.5 -26t77.5 16l90 29q41 13 83 21.5t85 12.5t97 4q98 0 163.5 -17.5t106.5 -58.5t58.5 -106.5t17.5 -161.5v-385q0 -47 2 -92t16 -84t44 -67.5t83 -39.5v-18h-281z" />
<glyph unicode="&#xe1;" horiz-adv-x="1146" d="M557 1382q23 29 50.5 57.5t68.5 28.5q43 0 74.5 -30.5t31.5 -73.5q0 -27 -12 -46.5t-30.5 -34.5t-41 -26.5t-43.5 -19.5l-211 -96l-32 43zM786 588q-61 -12 -143 -38t-157.5 -67t-128 -99t-52.5 -138q0 -72 50.5 -112t115.5 -40q98 0 159.5 40t96.5 101.5t47 133 t12 135.5v84zM872 0q-31 41 -49 87t-20 97q-31 -55 -76 -94t-99.5 -63.5t-113.5 -35.5t-119 -11q-70 0 -129 16t-102 47t-67.5 75t-24.5 101q0 80 36.5 141.5t96 106.5t135.5 78t155.5 56.5t155.5 39.5t135 31v39q0 115 -46 159.5t-160 44.5q-147 0 -261 -70.5t-176 -207.5 l33 336q29 -23 53.5 -26t77.5 16l90 29q41 13 83 21.5t85 12.5t97 4q98 0 163.5 -17.5t106.5 -58.5t58.5 -106.5t17.5 -161.5v-385q0 -47 2 -92t16 -84t44 -67.5t83 -39.5v-18h-281z" />
<glyph unicode="&#xe2;" horiz-adv-x="1146" d="M836 1212l-27 -51l-234 80l-231 -80l-25 51l256 179zM786 588q-61 -12 -143 -38t-157.5 -67t-128 -99t-52.5 -138q0 -72 50.5 -112t115.5 -40q98 0 159.5 40t96.5 101.5t47 133t12 135.5v84zM872 0q-31 41 -49 87t-20 97q-31 -55 -76 -94t-99.5 -63.5t-113.5 -35.5 t-119 -11q-70 0 -129 16t-102 47t-67.5 75t-24.5 101q0 80 36.5 141.5t96 106.5t135.5 78t155.5 56.5t155.5 39.5t135 31v39q0 115 -46 159.5t-160 44.5q-147 0 -261 -70.5t-176 -207.5l33 336q29 -23 53.5 -26t77.5 16l90 29q41 13 83 21.5t85 12.5t97 4q98 0 163.5 -17.5 t106.5 -58.5t58.5 -106.5t17.5 -161.5v-385q0 -47 2 -92t16 -84t44 -67.5t83 -39.5v-18h-281z" />
<glyph unicode="&#xe3;" horiz-adv-x="1146" d="M827 1370q-14 -72 -61 -121t-123 -49q-35 0 -62.5 7t-53 16.5t-51 17.5t-56.5 8q-27 0 -43.5 -12t-28.5 -33h-49q18 72 58 120t120 48q31 0 56.5 -8t51 -17.5t52.5 -16.5t55 -7q35 0 53.5 11.5t32.5 41.5zM786 588q-61 -12 -143 -38t-157.5 -67t-128 -99t-52.5 -138 q0 -72 50.5 -112t115.5 -40q98 0 159.5 40t96.5 101.5t47 133t12 135.5v84zM872 0q-31 41 -49 87t-20 97q-31 -55 -76 -94t-99.5 -63.5t-113.5 -35.5t-119 -11q-70 0 -129 16t-102 47t-67.5 75t-24.5 101q0 80 36.5 141.5t96 106.5t135.5 78t155.5 56.5t155.5 39.5t135 31 v39q0 115 -46 159.5t-160 44.5q-147 0 -261 -70.5t-176 -207.5l33 336q29 -23 53.5 -26t77.5 16l90 29q41 13 83 21.5t85 12.5t97 4q98 0 163.5 -17.5t106.5 -58.5t58.5 -106.5t17.5 -161.5v-385q0 -47 2 -92t16 -84t44 -67.5t83 -39.5v-18h-281z" />
<glyph unicode="&#xe4;" horiz-adv-x="1146" d="M612 1280q0 47 33 80t80 33t80 -33t33 -80t-33 -80t-80 -33t-80 33t-33 80zM313 1280q0 47 33 80t80 33t80 -33t33 -80t-33 -80t-80 -33t-80 33t-33 80zM786 588q-61 -12 -143 -38t-157.5 -67t-128 -99t-52.5 -138q0 -72 50.5 -112t115.5 -40q98 0 159.5 40t96.5 101.5 t47 133t12 135.5v84zM872 0q-31 41 -49 87t-20 97q-31 -55 -76 -94t-99.5 -63.5t-113.5 -35.5t-119 -11q-70 0 -129 16t-102 47t-67.5 75t-24.5 101q0 80 36.5 141.5t96 106.5t135.5 78t155.5 56.5t155.5 39.5t135 31v39q0 115 -46 159.5t-160 44.5q-147 0 -261 -70.5 t-176 -207.5l33 336q29 -23 53.5 -26t77.5 16l90 29q41 13 83 21.5t85 12.5t97 4q98 0 163.5 -17.5t106.5 -58.5t58.5 -106.5t17.5 -161.5v-385q0 -47 2 -92t16 -84t44 -67.5t83 -39.5v-18h-281z" />
<glyph unicode="&#xe5;" horiz-adv-x="1146" d="M432 1305q0 70 49 119t119 49t119 -49.5t49 -118.5q0 -70 -49 -119t-119 -49t-119 49t-49 119zM514 1305q0 -35 25.5 -60.5t60.5 -25.5t60.5 25.5t25.5 60.5t-25.5 60.5t-60.5 25.5t-60.5 -25.5t-25.5 -60.5zM786 588q-61 -12 -143 -38t-157.5 -67t-128 -99t-52.5 -138 q0 -72 50.5 -112t115.5 -40q98 0 159.5 40t96.5 101.5t47 133t12 135.5v84zM872 0q-31 41 -49 87t-20 97q-31 -55 -76 -94t-99.5 -63.5t-113.5 -35.5t-119 -11q-70 0 -129 16t-102 47t-67.5 75t-24.5 101q0 80 36.5 141.5t96 106.5t135.5 78t155.5 56.5t155.5 39.5t135 31 v39q0 115 -46 159.5t-160 44.5q-147 0 -261 -70.5t-176 -207.5l33 336q29 -23 53.5 -26t77.5 16l90 29q41 13 83 21.5t85 12.5t97 4q98 0 163.5 -17.5t106.5 -58.5t58.5 -106.5t17.5 -161.5v-385q0 -47 2 -92t16 -84t44 -67.5t83 -39.5v-18h-281z" />
<glyph unicode="&#xe6;" horiz-adv-x="1843" d="M805 590q-63 -10 -149.5 -35t-163 -67t-131 -100t-54.5 -138q0 -78 51.5 -117t122.5 -39q90 0 151.5 36t100.5 96.5t55.5 139t16.5 166.5v58zM1550 715q-16 45 -39.5 84t-55.5 68.5t-73 47t-92 17.5q-72 0 -127 -29t-93 -76t-58.5 -107.5t-20.5 -125.5l2 -35zM1004 471 q14 -80 51 -148.5t92 -118.5t125.5 -80t154.5 -30q121 0 218.5 68.5t140.5 181.5l16 -4l-104 -342q-16 14 -53 14q-53 0 -123 -16t-136 -16q-147 0 -280 51t-229 176q-92 -111 -218.5 -169t-267.5 -58q-57 0 -113.5 14t-100.5 44t-71.5 77t-27.5 112q0 80 37 140.5t97 105.5 t138 77t158 55.5t155.5 40l135.5 30.5v61q0 104 -55.5 149.5t-153.5 45.5q-145 0 -262 -76t-176 -211l32 334q20 -14 34.5 -19.5t29.5 -5.5q10 0 49 12.5t96.5 26t129 25.5t149.5 12q39 0 82 -4t84 -15.5t75.5 -34t59.5 -58.5q72 57 161 84.5t181 27.5q80 0 155.5 -23.5 t138 -68.5t108.5 -107.5t69 -142.5z" />
<glyph unicode="&#xe7;" horiz-adv-x="1105" d="M973 -14q-4 4 -10.5 5t-10.5 3q-6 2 -22 2q-23 0 -51.5 -2t-59.5 -6q-29 -4 -60.5 -6t-60.5 -2h-18l-129 -68q23 4 46.5 7t45.5 3q53 0 95 -31.5t42 -91.5q0 -47 -29.5 -81.5t-76.5 -57t-104.5 -35t-112.5 -12.5q-12 0 -27.5 -1t-19.5 -18l-70 127q31 -16 57.5 -24 t63.5 -8q25 0 58.5 6t62 19.5t49 36t20.5 52.5q0 37 -22.5 55.5t-59.5 18.5q-53 0 -106 -28.5t-94 -63.5l26 156q10 -10 33 -5t49 15l96 39q-102 16 -192 61t-155.5 115t-103.5 164t-38 209q0 106 35 196t98.5 155.5t151.5 102.5t194 37q35 0 73 -3t73 -7l70 -8q34 -4 61 -4 t45 4t41 18l59 -315l-12 -6q-51 102 -135 162.5t-201 60.5q-82 0 -143.5 -36t-103.5 -93.5t-63.5 -130t-21.5 -148.5q0 -82 25.5 -157.5t79.5 -139.5q53 -63 133 -106t164 -43q106 0 205.5 56t150.5 155l14 -8z" />
<glyph unicode="&#xe8;" horiz-adv-x="1187" d="M737 1137l-209 96q-20 8 -42.5 19.5t-41 26.5t-31 34.5t-12.5 46.5q0 43 31 73.5t74 30.5q41 0 68.5 -28.5t50.5 -57.5l147 -198zM858 705q-14 43 -37.5 83.5t-55.5 72.5t-73 51.5t-90 19.5q-78 0 -135 -34t-94 -89t-54.5 -124t-15.5 -138zM315 461q12 -80 50 -149.5 t94.5 -122t129.5 -82t152 -29.5q61 0 131 29.5t117 70.5q37 33 61.5 73t47.5 83l18 -8l-106 -338q-10 10 -25 12q-10 2 -43 2q-35 0 -64.5 -4t-62.5 -8l-69.5 -8.5t-88.5 -4.5q-66 0 -163 27t-189 89.5t-157.5 162.5t-65.5 248q0 115 42 211t114.5 166.5t171 109.5t211.5 39 q82 0 159.5 -24.5t140 -69.5t108.5 -110.5t69 -147.5z" />
<glyph unicode="&#xe9;" horiz-adv-x="1187" d="M578 1382q23 29 50 57.5t68 28.5q43 0 75 -30.5t32 -73.5q0 -27 -12.5 -46.5t-31 -34.5t-41 -26.5t-42.5 -19.5l-211 -96l-33 43zM858 705q-14 43 -37.5 83.5t-55.5 72.5t-73 51.5t-90 19.5q-78 0 -135 -34t-94 -89t-54.5 -124t-15.5 -138zM315 461q12 -80 50 -149.5 t94.5 -122t129.5 -82t152 -29.5q61 0 131 29.5t117 70.5q37 33 61.5 73t47.5 83l18 -8l-106 -338q-10 10 -25 12q-10 2 -43 2q-35 0 -64.5 -4t-62.5 -8l-69.5 -8.5t-88.5 -4.5q-66 0 -163 27t-189 89.5t-157.5 162.5t-65.5 248q0 115 42 211t114.5 166.5t171 109.5t211.5 39 q82 0 159.5 -24.5t140 -69.5t108.5 -110.5t69 -147.5z" />
<glyph unicode="&#xea;" horiz-adv-x="1187" d="M856 1212l-27 -51l-233 80l-231 -80l-25 51l256 179zM858 705q-14 43 -37.5 83.5t-55.5 72.5t-73 51.5t-90 19.5q-78 0 -135 -34t-94 -89t-54.5 -124t-15.5 -138zM315 461q12 -80 50 -149.5t94.5 -122t129.5 -82t152 -29.5q61 0 131 29.5t117 70.5q37 33 61.5 73t47.5 83 l18 -8l-106 -338q-10 10 -25 12q-10 2 -43 2q-35 0 -64.5 -4t-62.5 -8l-69.5 -8.5t-88.5 -4.5q-66 0 -163 27t-189 89.5t-157.5 162.5t-65.5 248q0 115 42 211t114.5 166.5t171 109.5t211.5 39q82 0 159.5 -24.5t140 -69.5t108.5 -110.5t69 -147.5z" />
<glyph unicode="&#xeb;" horiz-adv-x="1187" d="M633 1280q0 47 32.5 80t79.5 33t80 -33t33 -80t-32.5 -80t-80.5 -33q-47 0 -79.5 33t-32.5 80zM334 1280q0 47 32.5 80t79.5 33t80 -33t33 -80t-32.5 -80t-80.5 -33q-47 0 -79.5 33t-32.5 80zM858 705q-14 43 -37.5 83.5t-55.5 72.5t-73 51.5t-90 19.5q-78 0 -135 -34 t-94 -89t-54.5 -124t-15.5 -138zM315 461q12 -80 50 -149.5t94.5 -122t129.5 -82t152 -29.5q61 0 131 29.5t117 70.5q37 33 61.5 73t47.5 83l18 -8l-106 -338q-10 10 -25 12q-10 2 -43 2q-35 0 -64.5 -4t-62.5 -8l-69.5 -8.5t-88.5 -4.5q-66 0 -163 27t-189 89.5 t-157.5 162.5t-65.5 248q0 115 42 211t114.5 166.5t171 109.5t211.5 39q82 0 159.5 -24.5t140 -69.5t108.5 -110.5t69 -147.5z" />
<glyph unicode="&#xec;" horiz-adv-x="573" d="M369 1137l-209 96q-20 8 -43 19.5t-41.5 26.5t-30.5 34.5t-12 46.5q0 43 30.5 73.5t73.5 30.5q41 0 68.5 -28.5t50.5 -57.5l147 -198zM391 1010v-758q0 -41 2 -82t14.5 -74t37 -54.5t69.5 -23.5v-18h-455v18q45 4 70 26t37 54.5t14 72.5t2 81v479q0 39 -2 79t-14 72.5 t-37 55.5t-70 27v18z" />
<glyph unicode="&#xed;" horiz-adv-x="573" d="M270 1382q23 29 50.5 57.5t68.5 28.5q43 0 75 -30.5t32 -73.5q0 -27 -12.5 -46.5t-31 -34.5t-41 -26.5t-42.5 -19.5l-211 -96l-33 43zM391 1010v-758q0 -41 2 -82t14.5 -74t37 -54.5t69.5 -23.5v-18h-455v18q45 4 70 26t37 54.5t14 72.5t2 81v479q0 39 -2 79t-14 72.5 t-37 55.5t-70 27v18z" />
<glyph unicode="&#xee;" horiz-adv-x="573" d="M549 1212l-27 -51l-233 80l-232 -80l-24 51l256 179zM391 1010v-758q0 -41 2 -82t14.5 -74t37 -54.5t69.5 -23.5v-18h-455v18q45 4 70 26t37 54.5t14 72.5t2 81v479q0 39 -2 79t-14 72.5t-37 55.5t-70 27v18z" />
<glyph unicode="&#xef;" horiz-adv-x="573" d="M326 1280q0 47 32.5 80t79.5 33t80 -33t33 -80t-33 -80t-80 -33t-79.5 33t-32.5 80zM27 1280q0 47 32.5 80t79.5 33t80 -33t33 -80t-33 -80t-80 -33t-79.5 33t-32.5 80zM391 1010v-758q0 -41 2 -82t14.5 -74t37 -54.5t69.5 -23.5v-18h-455v18q45 4 70 26t37 54.5t14 72.5 t2 81v479q0 39 -2 79t-14 72.5t-37 55.5t-70 27v18z" />
<glyph unicode="&#xf0;" d="M350 1464q39 0 89 -7t103.5 -22.5t108 -37t101.5 -47.5l211 137l53 -82l-168 -111q166 -125 256 -306t90 -429q0 -141 -44 -249.5t-121 -182.5t-181.5 -110.5t-224.5 -36.5q-123 0 -224.5 34.5t-173 99t-111.5 155.5t-40 202q0 102 38 198.5t106.5 170t165.5 119 t216 45.5q51 0 98 -11.5t85 -27t64.5 -33t41.5 -31.5l4 8q-16 70 -64.5 148t-126.5 145l-200 -129l-56 86l168 109q-74 57 -148.5 87.5t-146.5 43.5zM307 498q0 -72 17.5 -145.5t57.5 -135t103.5 -100.5t155.5 -39q76 0 135.5 31.5t100.5 84t62.5 120t21.5 139.5 q0 70 -18.5 141.5t-58.5 129.5t-102.5 95t-150.5 37q-84 0 -144.5 -29.5t-100.5 -79t-59.5 -114.5t-19.5 -135z" />
<glyph unicode="&#xf1;" d="M889 1370q-14 -72 -61.5 -121t-122.5 -49q-35 0 -63 7t-53.5 16.5t-51 17.5t-56.5 8q-27 0 -43 -12t-28 -33h-50q18 72 58.5 120t120.5 48q31 0 56.5 -8t51 -17.5t52 -16.5t55.5 -7q35 0 53 11.5t33 41.5zM190 733q0 39 -2 79t-13 73t-34.5 54.5t-66.5 25.5v18l274 27 q29 -49 39 -104.5t12 -110.5q41 43 88.5 85t100.5 75.5t110.5 54t116.5 20.5q82 0 133 -25.5t80 -71.5t39 -108.5t10 -136.5v-434q0 -41 2 -82t14.5 -73.5t37 -55.5t69.5 -25v-18h-455v18q45 4 70 26t37 55.5t14 73.5t2 81v354q0 59 -6 109.5t-23.5 87.5t-48 57.5 t-81.5 20.5q-70 0 -138.5 -45t-109.5 -105q-47 -70 -54.5 -133t-7.5 -145v-201q0 -41 2 -81t13.5 -72.5t36 -55t69.5 -29.5v-16h-452v18q45 4 69.5 27t36.5 55.5t14 71.5t2 80v481z" />
<glyph unicode="&#xf2;" d="M778 1137l-209 96q-20 8 -42.5 19.5t-41 26.5t-31 34.5t-12.5 46.5q0 43 31 73.5t74 30.5q41 0 68.5 -28.5t50.5 -57.5l147 -198zM631 932q-86 0 -147.5 -33t-100.5 -87t-57.5 -125t-18.5 -148q0 -78 17.5 -160t57.5 -148.5t103.5 -109.5t155.5 -43q76 0 135.5 34.5 t100.5 92t62.5 131.5t21.5 153q0 76 -17.5 155t-56.5 142.5t-102.5 104.5t-153.5 41zM623 -20q-117 0 -217.5 35.5t-174 102t-115.5 163t-42 217.5q0 123 44 222t120.5 167.5t180 105.5t224.5 37q117 0 218.5 -33.5t175 -99.5t115.5 -161t42 -218q0 -125 -44 -225t-121 -170 t-181 -106.5t-225 -36.5z" />
<glyph unicode="&#xf3;" d="M618 1382q23 29 50.5 57.5t68.5 28.5q43 0 75 -30.5t32 -73.5q0 -27 -12.5 -46.5t-31 -34.5t-41 -26.5t-42.5 -19.5l-211 -96l-33 43zM631 932q-86 0 -147.5 -33t-100.5 -87t-57.5 -125t-18.5 -148q0 -78 17.5 -160t57.5 -148.5t103.5 -109.5t155.5 -43q76 0 135.5 34.5 t100.5 92t62.5 131.5t21.5 153q0 76 -17.5 155t-56.5 142.5t-102.5 104.5t-153.5 41zM623 -20q-117 0 -217.5 35.5t-174 102t-115.5 163t-42 217.5q0 123 44 222t120.5 167.5t180 105.5t224.5 37q117 0 218.5 -33.5t175 -99.5t115.5 -161t42 -218q0 -125 -44 -225t-121 -170 t-181 -106.5t-225 -36.5z" />
<glyph unicode="&#xf4;" d="M897 1212l-27 -51l-233 80l-231 -80l-25 51l256 179zM631 932q-86 0 -147.5 -33t-100.5 -87t-57.5 -125t-18.5 -148q0 -78 17.5 -160t57.5 -148.5t103.5 -109.5t155.5 -43q76 0 135.5 34.5t100.5 92t62.5 131.5t21.5 153q0 76 -17.5 155t-56.5 142.5t-102.5 104.5 t-153.5 41zM623 -20q-117 0 -217.5 35.5t-174 102t-115.5 163t-42 217.5q0 123 44 222t120.5 167.5t180 105.5t224.5 37q117 0 218.5 -33.5t175 -99.5t115.5 -161t42 -218q0 -125 -44 -225t-121 -170t-181 -106.5t-225 -36.5z" />
<glyph unicode="&#xf5;" d="M889 1370q-14 -72 -61.5 -121t-122.5 -49q-35 0 -63 7t-53.5 16.5t-51 17.5t-56.5 8q-27 0 -43 -12t-28 -33h-50q18 72 58.5 120t120.5 48q31 0 56.5 -8t51 -17.5t52 -16.5t55.5 -7q35 0 53 11.5t33 41.5zM631 932q-86 0 -147.5 -33t-100.5 -87t-57.5 -125t-18.5 -148 q0 -78 17.5 -160t57.5 -148.5t103.5 -109.5t155.5 -43q76 0 135.5 34.5t100.5 92t62.5 131.5t21.5 153q0 76 -17.5 155t-56.5 142.5t-102.5 104.5t-153.5 41zM623 -20q-117 0 -217.5 35.5t-174 102t-115.5 163t-42 217.5q0 123 44 222t120.5 167.5t180 105.5t224.5 37 q117 0 218.5 -33.5t175 -99.5t115.5 -161t42 -218q0 -125 -44 -225t-121 -170t-181 -106.5t-225 -36.5z" />
<glyph unicode="&#xf6;" d="M674 1280q0 47 32.5 80t79.5 33t80 -33t33 -80t-32.5 -80t-80.5 -33q-47 0 -79.5 33t-32.5 80zM375 1280q0 47 32.5 80t79.5 33t80 -33t33 -80t-32.5 -80t-80.5 -33q-47 0 -79.5 33t-32.5 80zM631 932q-86 0 -147.5 -33t-100.5 -87t-57.5 -125t-18.5 -148 q0 -78 17.5 -160t57.5 -148.5t103.5 -109.5t155.5 -43q76 0 135.5 34.5t100.5 92t62.5 131.5t21.5 153q0 76 -17.5 155t-56.5 142.5t-102.5 104.5t-153.5 41zM623 -20q-117 0 -217.5 35.5t-174 102t-115.5 163t-42 217.5q0 123 44 222t120.5 167.5t180 105.5t224.5 37 q117 0 218.5 -33.5t175 -99.5t115.5 -161t42 -218q0 -125 -44 -225t-121 -170t-181 -106.5t-225 -36.5z" />
<glyph unicode="&#xf7;" horiz-adv-x="1228" d="M725 985q0 -53 -35 -88t-78 -35q-47 0 -77.5 38t-30.5 83q0 47 33.5 83t80.5 36q53 0 80 -38t27 -79zM725 373q0 -53 -35 -88t-78 -35q-47 0 -77.5 38t-30.5 83q0 47 33.5 82.5t80.5 35.5q53 0 80 -37.5t27 -78.5zM1073 578q-16 25 -30.5 29.5t-30.5 4.5h-789 q-25 0 -37 -4t-28 -24v182q6 -8 18 -17.5t45 -9.5h789q29 0 41 8.5t22 18.5v-188z" />
<glyph unicode="&#xf8;" horiz-adv-x="1310" d="M1214 518q0 -125 -44 -225t-120.5 -170t-181 -106.5t-225.5 -36.5q-102 0 -184 26l-2 -2l-35 -72q-18 -37 -2 -57h-158q37 31 59 74l44 90l2 4q-125 59 -199 176t-74 279q0 123 44 222t121 167.5t180.5 105.5t224.5 37q39 0 75.5 -3t73.5 -13l34 68q17 36 13 75h152 q-39 -35 -62 -83l-41 -89q139 -55 222 -173t83 -294zM512 121q61 -43 150 -43q76 0 135 34.5t100 92t62.5 131.5t21.5 153q0 100 -29.5 201t-101.5 164zM764 909q-51 23 -113 23q-86 0 -147.5 -33t-100 -87t-57 -125t-18.5 -148q0 -92 24.5 -186.5t81.5 -162.5z" />
<glyph unicode="&#xf9;" d="M737 1137l-209 96q-20 8 -42.5 19.5t-41 26.5t-31 34.5t-12.5 46.5q0 43 31 73.5t74 30.5q41 0 68.5 -28.5t50.5 -57.5l147 -198zM918 0q-20 49 -28.5 102.5t-12.5 106.5q-45 -41 -95.5 -82t-105.5 -74t-114.5 -53t-123.5 -20q-72 0 -120 23.5t-75.5 65.5t-38.5 97 t-11 119v446q0 41 -2.5 81t-14.5 73t-36.5 54.5t-69.5 25.5v18l331 27v-617q0 -135 28 -202.5t122 -67.5q76 0 147.5 44t112.5 105q47 72 56.5 150t9.5 160v149q0 43 -2.5 84t-14.5 73t-36.5 53.5t-69.5 23.5v18l331 27v-762q0 -37 2.5 -78t14.5 -75t37.5 -56.5t72.5 -20.5 v-18h-294z" />
<glyph unicode="&#xfa;" d="M649 1382q23 29 50.5 57.5t68.5 28.5q43 0 74.5 -30.5t31.5 -73.5q0 -27 -12 -46.5t-30.5 -34.5t-41 -26.5t-42.5 -19.5l-211 -96l-33 43zM918 0q-20 49 -28.5 102.5t-12.5 106.5q-45 -41 -95.5 -82t-105.5 -74t-114.5 -53t-123.5 -20q-72 0 -120 23.5t-75.5 65.5 t-38.5 97t-11 119v446q0 41 -2.5 81t-14.5 73t-36.5 54.5t-69.5 25.5v18l331 27v-617q0 -135 28 -202.5t122 -67.5q76 0 147.5 44t112.5 105q47 72 56.5 150t9.5 160v149q0 43 -2.5 84t-14.5 73t-36.5 53.5t-69.5 23.5v18l331 27v-762q0 -37 2.5 -78t14.5 -75t37.5 -56.5 t72.5 -20.5v-18h-294z" />
<glyph unicode="&#xfb;" d="M897 1212l-27 -51l-233 80l-231 -80l-25 51l256 179zM918 0q-20 49 -28.5 102.5t-12.5 106.5q-45 -41 -95.5 -82t-105.5 -74t-114.5 -53t-123.5 -20q-72 0 -120 23.5t-75.5 65.5t-38.5 97t-11 119v446q0 41 -2.5 81t-14.5 73t-36.5 54.5t-69.5 25.5v18l331 27v-617 q0 -135 28 -202.5t122 -67.5q76 0 147.5 44t112.5 105q47 72 56.5 150t9.5 160v149q0 43 -2.5 84t-14.5 73t-36.5 53.5t-69.5 23.5v18l331 27v-762q0 -37 2.5 -78t14.5 -75t37.5 -56.5t72.5 -20.5v-18h-294z" />
<glyph unicode="&#xfc;" d="M674 1280q0 47 32.5 80t79.5 33t80 -33t33 -80t-32.5 -80t-80.5 -33q-47 0 -79.5 33t-32.5 80zM375 1280q0 47 32.5 80t79.5 33t80 -33t33 -80t-32.5 -80t-80.5 -33q-47 0 -79.5 33t-32.5 80zM918 0q-20 49 -28.5 102.5t-12.5 106.5q-45 -41 -95.5 -82t-105.5 -74 t-114.5 -53t-123.5 -20q-72 0 -120 23.5t-75.5 65.5t-38.5 97t-11 119v446q0 41 -2.5 81t-14.5 73t-36.5 54.5t-69.5 25.5v18l331 27v-617q0 -135 28 -202.5t122 -67.5q76 0 147.5 44t112.5 105q47 72 56.5 150t9.5 160v149q0 43 -2.5 84t-14.5 73t-36.5 53.5t-69.5 23.5v18 l331 27v-762q0 -37 2.5 -78t14.5 -75t37.5 -56.5t72.5 -20.5v-18h-294z" />
<glyph unicode="&#xfd;" horiz-adv-x="1024" d="M567 1382q23 29 50.5 57.5t68.5 28.5q43 0 75 -30.5t32 -73.5q0 -27 -12.5 -46.5t-31 -34.5t-41 -26.5t-42.5 -19.5l-211 -96l-33 43zM766 768q14 43 29.5 82t18.5 68.5t-12.5 49t-58.5 23.5v19h314v-19q-37 -4 -60.5 -22.5t-41 -45t-29 -57l-23.5 -59.5l-348 -911 q-25 -66 -54.5 -126.5t-71.5 -106.5t-99.5 -73.5t-139.5 -27.5q-53 0 -106 19.5t-94 53.5l127 277l16 -10q-10 -35 -7 -70t16.5 -62.5t39 -46t62.5 -18.5q49 0 85 24.5t60.5 62.5t35.5 83t11 86q0 74 -28.5 159t-57.5 152l-219 547q-10 27 -23.5 57.5t-30 56t-38 42 t-49.5 16.5v19h411v-19q-39 -4 -53 -21.5t-14 -41t9 -52t19 -55.5l211 -565z" />
<glyph unicode="&#xfe;" d="M188 1096q0 43 -2 84t-14 72.5t-36.5 53t-69.5 23.5v19l331 53v-391h138q178 0 304 -35t205.5 -100.5t117.5 -163t38 -219.5q0 -109 -38 -203t-117.5 -162t-205.5 -101.5t-300 -21.5l-142 10v-192q0 -41 2 -82t13.5 -74t36 -55.5t69.5 -24.5v-18h-452v18q45 2 69.5 24.5 t36.5 55.5t14 73t2 81v1276zM397 289q0 -51 6.5 -89t28 -63.5t62.5 -38t110 -12.5q90 0 160 34t118 90t72.5 132t24.5 162t-25.5 161.5t-83 133t-149.5 91.5t-223 34h-101v-635z" />
<glyph unicode="&#xff;" horiz-adv-x="1024" d="M612 1280q0 47 33 80t80 33t80 -33t33 -80t-33 -80t-80 -33t-80 33t-33 80zM313 1280q0 47 33 80t80 33t80 -33t33 -80t-33 -80t-80 -33t-80 33t-33 80zM766 768q14 43 29.5 82t18.5 68.5t-12.5 49t-58.5 23.5v19h314v-19q-37 -4 -60.5 -22.5t-41 -45t-29 -57 l-23.5 -59.5l-348 -911q-25 -66 -54.5 -126.5t-71.5 -106.5t-99.5 -73.5t-139.5 -27.5q-53 0 -106 19.5t-94 53.5l127 277l16 -10q-10 -35 -7 -70t16.5 -62.5t39 -46t62.5 -18.5q49 0 85 24.5t60.5 62.5t35.5 83t11 86q0 74 -28.5 159t-57.5 152l-219 547q-10 27 -23.5 57.5 t-30 56t-38 42t-49.5 16.5v19h411v-19q-39 -4 -53 -21.5t-14 -41t9 -52t19 -55.5l211 -565z" />
<glyph unicode="&#x152;" horiz-adv-x="2129" d="M721 1255q-100 0 -175 -42t-125 -113.5t-74.5 -165.5t-24.5 -199q0 -127 31.5 -243.5t91 -205.5t144.5 -141.5t191 -52.5q92 0 163 43t118 117t70.5 170t23.5 201q0 104 -20.5 216.5t-69.5 205t-133 151.5t-211 59zM1155 188q-80 -104 -186.5 -159.5t-245.5 -55.5 q-125 0 -241.5 55.5t-207 150.5t-144.5 223t-54 274q0 133 48 259t134 223t204 156.5t257 59.5q127 0 242.5 -56t193.5 -151v181h657q27 0 59 1t48 25l94 -409l-16 -7q-27 68 -75 122.5t-108.5 92t-130 59t-139.5 21.5q-61 0 -94 -15t-48.5 -44t-18.5 -69t-3 -91v-61h62h80 q43 0 77.5 9t57 34.5t20.5 79.5l17 6l82 -461l-17 -4q-25 72 -53.5 118t-67.5 73.5t-92 38t-127 10.5h-39v-558q0 -59 7.5 -102t27 -70.5t57 -40t99.5 -12.5q88 0 171 33t154.5 88t128 127t91.5 150l18 -7l-174 -512q-8 12 -19.5 17.5t-25.5 9.5q-14 2 -27.5 1t-27.5 -1 h-705v188z" />
<glyph unicode="&#x153;" horiz-adv-x="1966" d="M627 932q-84 0 -143.5 -32t-98.5 -85t-56.5 -121.5t-17.5 -144.5q0 -80 15.5 -163t54.5 -151.5t101.5 -112.5t158.5 -44q84 0 143.5 37t98.5 96t56 134t17 153q0 76 -18 153.5t-57 140t-102.5 101.5t-151.5 39zM1690 702q-14 45 -37 87t-54.5 74t-74.5 50.5t-99 18.5 q-74 0 -130 -35t-94 -90t-55.5 -123t-10.5 -135zM1145 461q14 -78 51 -147.5t92 -122t126 -83t153 -30.5q123 0 217 69.5t141 182.5l17 -4l-107 -340q-16 14 -48 15t-74 -4l-88 -11q-46 -6 -91 -6q-63 0 -128 8t-127 28.5t-117.5 53t-100.5 80.5q-41 -45 -93.5 -77 t-110.5 -52.5t-120.5 -30.5t-120.5 -10q-117 0 -216 35.5t-170.5 103t-111.5 164t-40 217.5t44 219t119.5 166.5t179 106.5t220.5 38t229.5 -39t190.5 -133q74 86 178 129t217 43q84 0 160 -25.5t137.5 -71.5t105.5 -111.5t66 -145.5z" />
<glyph unicode="&#x178;" horiz-adv-x="1228" d="M653 1587q0 47 33 80t80 33t80 -33t33 -80t-33 -79.5t-80 -32.5t-80 32.5t-33 79.5zM354 1587q0 47 33 80t80 33t80 -33t33 -80t-33 -79.5t-80 -32.5t-80 32.5t-33 79.5zM725 268q0 -47 2 -90t15.5 -77.5t40 -57.5t75.5 -25v-18h-491v18q49 6 75.5 27t40 53.5t15.5 72.5 t2 83v369l-328 516l-38 60q-19 32 -42.5 59.5t-53.5 47t-69 23.5v19h531v-19q-66 -4 -85.5 -32.5t-13 -70.5t31 -88t48.5 -83l191 -305l188 309q33 55 58.5 103t31.5 84t-13 57.5t-75 25.5v19h398v-19q-41 -6 -73 -25.5t-56.5 -46t-43.5 -54.5l-32 -50l-330 -530v-355z" />
<glyph unicode="&#x2c6;" horiz-adv-x="778" d="M651 1212l-26 -51l-234 80l-231 -80l-25 51l256 179z" />
<glyph unicode="&#x2dc;" horiz-adv-x="819" d="M664 1370q-14 -72 -61.5 -121t-123.5 -49q-35 0 -62.5 7t-53 16.5t-51 17.5t-56.5 8q-27 0 -43 -12t-29 -33h-49q18 72 58 120t120 48q31 0 56.5 -8t51 -17.5t52.5 -16.5t55 -7q35 0 53.5 11.5t32.5 41.5z" />
<glyph unicode="&#x2000;" horiz-adv-x="903" />
<glyph unicode="&#x2001;" horiz-adv-x="1806" />
<glyph unicode="&#x2002;" horiz-adv-x="903" />
<glyph unicode="&#x2003;" horiz-adv-x="1806" />
<glyph unicode="&#x2004;" horiz-adv-x="602" />
<glyph unicode="&#x2005;" horiz-adv-x="450" />
<glyph unicode="&#x2006;" horiz-adv-x="301" />
<glyph unicode="&#x2007;" horiz-adv-x="301" />
<glyph unicode="&#x2008;" horiz-adv-x="225" />
<glyph unicode="&#x2009;" horiz-adv-x="360" />
<glyph unicode="&#x200a;" horiz-adv-x="100" />
<glyph unicode="&#x2010;" horiz-adv-x="532" d="M442 412q-18 16 -42 16h-46h-178q-47 0 -88 -5t-68 -48h-16l86 229q18 -16 42 -16h46h178q47 0 88 5t68 48h16z" />
<glyph unicode="&#x2011;" horiz-adv-x="532" d="M442 412q-18 16 -42 16h-46h-178q-47 0 -88 -5t-68 -48h-16l86 229q18 -16 42 -16h46h178q47 0 88 5t68 48h16z" />
<glyph unicode="&#x2012;" horiz-adv-x="532" d="M442 412q-18 16 -42 16h-46h-178q-47 0 -88 -5t-68 -48h-16l86 229q18 -16 42 -16h46h178q47 0 88 5t68 48h16z" />
<glyph unicode="&#x2013;" horiz-adv-x="1024" d="M43 604q18 -16 42 -16h46h764q47 0 88 5t68 48h16l-86 -229q-18 16 -42 16h-46h-764q-47 0 -88 -5t-68 -48h-16z" />
<glyph unicode="&#x2014;" horiz-adv-x="2048" d="M289 604q18 -16 42 -16h46h1296q47 0 88 5t68 48h16l-86 -229q-18 16 -42 16h-46h-1296q-47 0 -88 -5t-68 -48h-16z" />
<glyph unicode="&#x2018;" horiz-adv-x="614" d="M106 934l234 414h168q-23 -20 -38 -46t-30 -55l-78 -164q-23 -51 -38 -92t2 -57h-220z" />
<glyph unicode="&#x2019;" horiz-adv-x="614" d="M508 1348l-234 -414h-168q23 20 38.5 46t29.5 54l78 164q25 51 39 92t-2 58h219z" />
<glyph unicode="&#x201a;" horiz-adv-x="655" d="M528 242l-233 -414h-168q23 20 38 46l30 54l77 164q25 51 39.5 92t-2.5 58h219z" />
<glyph unicode="&#x201c;" horiz-adv-x="901" d="M88 934l234 414h167q-23 -20 -38 -46t-29 -55l-78 -164q-23 -51 -38 -92t1 -57h-219zM412 934l233 414h168q-23 -20 -38 -46t-30 -55l-77 -164q-23 -51 -38.5 -92t1.5 -57h-219z" />
<glyph unicode="&#x201d;" horiz-adv-x="901" d="M813 1348l-233 -414h-168q23 20 38 46t29 54l78 164q25 51 39 92t-2 58h219zM489 1348l-233 -414h-168q23 20 38 46l30 54l77 164q25 51 39.5 92t-2.5 58h219z" />
<glyph unicode="&#x201e;" horiz-adv-x="901" d="M813 242l-233 -414h-168q23 20 38 46t29 54l78 164q25 51 39 92t-2 58h219zM489 242l-233 -414h-168q23 20 38 46l30 54l77 164q25 51 39.5 92t-2.5 58h219z" />
<glyph unicode="&#x2022;" horiz-adv-x="737" d="M365 455q-43 0 -80 18.5t-62.5 49t-41 69.5t-15.5 80q0 45 15.5 85t43 70.5t66.5 48t86 17.5q43 0 77.5 -18.5t60.5 -48t40 -67.5t14 -79t-15 -82t-43 -72.5t-65.5 -51t-80.5 -19.5z" />
<glyph unicode="&#x2026;" horiz-adv-x="2048" d="M1704 -20q-29 0 -53.5 12t-42 32.5t-27.5 46t-10 52.5q0 59 39 103t100 44q57 0 93 -44t36 -97q0 -55 -38 -102t-97 -47zM1020 -20q-57 0 -94 45t-37 98q0 59 39 103t100 44q57 0 93 -44t36 -97q0 -55 -39 -102t-98 -47zM340 -20q-29 0 -53.5 12t-42 32.5t-27.5 46 t-10 52.5q0 59 39 103t100 44q59 0 94 -44t35 -97q0 -55 -38 -102t-97 -47z" />
<glyph unicode="&#x202f;" horiz-adv-x="360" />
<glyph unicode="&#x2039;" horiz-adv-x="450" d="M279 778l55 -26l-84 -246l84 -252l-55 -25l-148 277z" />
<glyph unicode="&#x203a;" horiz-adv-x="450" d="M172 229l-55 27l84 246l-84 252l55 24l147 -276z" />
<glyph unicode="&#x205f;" horiz-adv-x="450" />
<glyph unicode="&#x20ac;" horiz-adv-x="1310" d="M930 567q-16 18 -30.5 24.5t-31.5 6.5h-456q20 -106 67 -201.5t113.5 -168t151.5 -114.5t184 -42q125 0 213 85t147 228l21 -4l-133 -401q-14 4 -37 4h-39q-20 0 -36.5 -1t-37.5 -3q-37 -6 -98 -7q-156 0 -283 40t-239 145q-92 86 -147.5 198.5t-76.5 241.5h-90 q-25 0 -36 -7t-25 -24v154q16 -16 32.5 -20.5t26.5 -4.5h84q0 10 -1 22.5t-1 22.5q0 51 6 101h-86q-25 0 -36 -7.5t-25 -23.5v154q16 -16 32.5 -20.5t26.5 -4.5h107q20 80 58 151.5t97 125.5q98 92 209 124.5t234 32.5q41 0 71.5 -3t63.5 -7t61.5 -8t50.5 -4q23 0 41.5 9 t28.5 32l84 -387l-20 -5q-51 135 -153.5 205t-227.5 70q-80 0 -142.5 -25.5t-108.5 -71.5t-78 -107.5t-48 -131.5h448q29 0 40.5 4t23.5 27v-160q-16 18 -30.5 24.5t-31.5 6.5h-467q-2 -23 -3 -43.5t-1 -42.5v-30q0 -13 2 -30h467q29 0 40.5 4.5t23.5 26.5v-160z" />
<glyph unicode="&#x2122;" horiz-adv-x="1884" d="M1059 1253v-483q0 -53 3 -84t12 -46t24.5 -21.5t42.5 -10.5v-20h-250v20q25 6 40 12.5t22.5 21.5t10.5 45t3 83v414q0 53 -3 81.5t-10.5 44t-23 21.5t-39.5 12v23h315v-23q-20 -2 -20 -20q0 -12 8 -25l139 -247l140 219q4 6 13 21.5t9 29.5q0 16 -25 22v23h302v-23 q-25 -6 -40.5 -12t-23.5 -21.5t-10 -45t-2 -80.5v-414q0 -53 2 -83t10 -45t23.5 -21.5t40.5 -12.5v-20h-302v20q27 6 42.5 12.5t24.5 21.5t12 45t3 83v485l-258 -403zM555 770q0 -53 3 -84t12.5 -47t27.5 -21.5t47 -7.5v-22h-321v22q29 2 47 7.5t27.5 21.5t12.5 47t3 84v522 q-66 0 -112 -10t-77.5 -30.5t-53 -50.5t-36.5 -68l-22 6l55 250q12 -16 22 -21q10 -2 39 -2h500q27 0 37 3t22 20l64 -250l-23 -6q-12 27 -29.5 56.5t-48 53t-77.5 37.5t-119 12v-522z" />
<glyph unicode="&#xe000;" horiz-adv-x="1010" d="M0 1010h1010v-1010h-1010v1010z" />
<glyph unicode="&#xfb01;" horiz-adv-x="1146" d="M184 903h-137v19q88 4 112.5 53t28.5 125q6 76 21.5 136t73.5 118q66 63 145.5 86.5t167.5 23.5q43 0 106.5 -10t124 -34.5t102.5 -63.5t42 -96q0 -53 -39 -88t-92 -35q-68 0 -92.5 35.5t-40 78.5t-40 79t-92.5 36t-105.5 -28.5t-54 -72.5t-19.5 -99.5t-3 -108.5v-66 l553 19v-785q0 -31 3 -66.5t15.5 -66.5t37 -51.5t67.5 -22.5v-18h-455v18q45 0 70 21.5t37 55.5t14 74t2 77v481q0 57 -5 92t-23.5 53.5t-53 24.5t-92.5 6h-170v-717q0 -43 3 -74.5t15.5 -52t37 -31t67.5 -10.5v-18h-455v18q45 2 70 23.5t37 54.5t14 72t2 80v655z" />
<glyph unicode="&#xfb02;" horiz-adv-x="1146" d="M182 903h-135v19q45 0 71.5 14t40 37.5t18.5 54.5t9 68q4 74 20.5 138t74.5 118q63 59 148 85.5t169 26.5q90 0 176 -20.5t172 -48.5v-1149q0 -35 3 -75t15.5 -74t37 -56.5t67.5 -22.5v-18h-455v18q45 -2 70 20.5t37 57.5t14 76t2 76v842q0 53 -2 103t-17.5 88t-51 61.5 t-101.5 23.5t-100.5 -27.5t-51 -71.5t-19.5 -99.5t-3 -110.5v-66h113q41 0 70.5 1t58.5 34l-64 -147q0 23 -25.5 23.5t-39.5 0.5h-113v-657q0 -43 2 -86t14.5 -75t37 -51.5t69.5 -15.5v-18h-455v18q45 2 70 25t37 54.5t14 71.5t2 79v655z" />
<glyph unicode="&#xfb03;" horiz-adv-x="1966" d="M1682 1141q-61 0 -101.5 43t-40.5 104q0 63 37 107.5t103 44.5q59 0 98 -44t39 -102q0 -57 -37 -105t-98 -48zM1784 1010v-758q0 -41 2 -82t14.5 -74t37 -54.5t69.5 -23.5v-18h-455v18q45 4 70 26t37 54.5t14 72.5t2 81v479q0 39 -2 79t-14 72.5t-37 55.5t-70 27v18z M878 903h-135v19q88 8 112.5 54t28.5 124q4 72 21.5 135t73.5 117q59 57 140 84.5t161 27.5q55 0 103 -10t101 -27l-67 -215l-14 2q1 9 0 18q0 55 -34 91q-40 41 -108 41q-66 0 -101.5 -28.5t-52 -73.5t-19.5 -98.5t-3 -104.5v-68h117q35 0 67.5 2t59.5 31l-55 -139 q-10 20 -32 19t-40 -1h-115v-651q0 -45 2 -87t14.5 -75t37 -52.5t69.5 -19.5v-18h-455v18q45 4 70 26t37 54.5t14 72.5t2 81v651zM182 903h-135v19q88 8 112.5 54t28.5 124q4 72 21.5 135t73.5 117q59 57 140 84.5t161 27.5q55 0 103 -10t101 -27l-67 -215l-14 2q1 9 0 18 q0 55 -34 91q-40 41 -108 41q-66 0 -101.5 -28.5t-52 -73.5t-19.5 -98.5t-3 -104.5v-68h117q35 0 67.5 2t59.5 31l-55 -139q-10 20 -32 19t-40 -1h-115v-651q0 -45 2 -87t14.5 -75t37 -52.5t69.5 -19.5v-18h-455v18q45 4 70 26t37 54.5t14 72.5t2 81v651z" />
<glyph unicode="&#xfb04;" horiz-adv-x="1966" d="M1784 1401v-1149q0 -41 2 -82t14.5 -74t37 -54.5t69.5 -23.5v-18h-455v18q45 6 70 29t37 54.5t14 71.5t2 79v844q0 43 -2 84t-14 72.5t-37 53t-70 23.5v19zM878 903h-135v19q88 8 112.5 54t28.5 124q4 72 21.5 135t73.5 117q59 57 140 84.5t161 27.5q55 0 103 -10 t101 -27l-67 -215l-14 2q1 9 0 18q0 55 -34 91q-40 41 -108 41q-66 0 -101.5 -28.5t-52 -73.5t-19.5 -98.5t-3 -104.5v-68h117q35 0 67.5 2t59.5 31l-55 -139q-10 20 -32 19t-40 -1h-115v-651q0 -45 2 -87t14.5 -75t37 -52.5t69.5 -19.5v-18h-455v18q45 4 70 26t37 54.5 t14 72.5t2 81v651zM182 903h-135v19q88 8 112.5 54t28.5 124q4 72 21.5 135t73.5 117q59 57 140 84.5t161 27.5q55 0 103 -10t101 -27l-67 -215l-14 2q1 9 0 18q0 55 -34 91q-40 41 -108 41q-66 0 -101.5 -28.5t-52 -73.5t-19.5 -98.5t-3 -104.5v-68h117q35 0 67.5 2 t59.5 31l-55 -139q-10 20 -32 19t-40 -1h-115v-651q0 -45 2 -87t14.5 -75t37 -52.5t69.5 -19.5v-18h-455v18q45 4 70 26t37 54.5t14 72.5t2 81v651z" />
</font>
</defs>
</svg>
