<?xml version="1.0" standalone="no"?>
<!DOCTYPE svg PUBLIC "-//W3C//DTD SVG 1.1//EN" "http://www.w3.org/Graphics/SVG/1.1/DTD/svg11.dtd" >
<svg xmlns="http://www.w3.org/2000/svg">
<metadata>
This is a custom SVG webfont generated by Font Squirrel.
Copyright   : Copyright c Andrew Paglinawan 2008 All rights reserved
Designer    : Andrew Paglinawan
Foundry     : Andrew Paglinawan
</metadata>
<defs>
<font id="webfontirlyzaXn" horiz-adv-x="880" >
<font-face units-per-em="2048" ascent="1638" descent="-410" />
<missing-glyph horiz-adv-x="614" />
<glyph unicode=" "  horiz-adv-x="614" />
<glyph unicode="&#x09;" horiz-adv-x="614" />
<glyph unicode="&#xa0;" horiz-adv-x="614" />
<glyph unicode="!" horiz-adv-x="516" d="M201 115l8 45q8 45 47 78.5t86 33.5t74.5 -32.5t19.5 -79.5l-8 -45q-8 -47 -47 -80t-86 -33t-74.5 33t-19.5 80zM281 563l133 758q8 47 47 81t86 34t74.5 -34t19.5 -81l-133 -758q-10 -47 -49 -80.5t-86 -33.5t-73.5 33.5t-18.5 80.5z" />
<glyph unicode="&#x22;" horiz-adv-x="839" d="M141 887l37 438q4 49 36 82t81 33h80q31 0 49 -18.5t18 -49.5q0 -12 -8 -45l-149 -455q-23 -63 -74 -63q-31 0 -51.5 21.5t-18.5 56.5zM592 887l35 438q4 49 35.5 82t80.5 33h82q29 0 47.5 -18.5t18.5 -49.5q0 -12 -8 -45l-150 -455q-23 -63 -74 -63q-31 0 -50 21.5 t-17 56.5z" />
<glyph unicode="#" horiz-adv-x="1433" d="M92 436q0 43 31 75t76 32h131l61 356h-119q-43 0 -74.5 32t-31.5 75t31.5 74.5t74.5 31.5h156l41 244q6 39 36 63.5t70 24.5q49 0 81 -38t26 -87l-37 -207h322l41 244q6 39 36.5 63.5t71.5 24.5q49 0 81 -39t24 -86l-35 -207h94q43 0 74.5 -30.5t31.5 -75.5 q0 -43 -31.5 -75t-74.5 -32h-131l-62 -356h117q45 0 76 -31t31 -76q0 -43 -31 -74.5t-76 -31.5h-153l-43 -252q-6 -39 -36 -63.5t-71 -24.5q-49 0 -82 38t-24 87l39 215h-322l-43 -252q-6 -37 -36 -62.5t-73 -25.5q-49 0 -80.5 36.5t-23.5 88.5l37 215h-94q-45 0 -76 30.5 t-31 75.5zM549 543h319l62 356h-320z" />
<glyph unicode="$" horiz-adv-x="1294" d="M131 262q10 47 48 80t85 33q37 0 64 -23q133 -111 278 -137l72 403q-219 59 -307 155.5t-58 266.5q29 164 166 269.5t334 122.5l8 43q6 37 37 62.5t68 25.5t58.5 -26t14.5 -62l-8 -45q166 -20 297 -113q55 -33 45 -98q-8 -47 -48 -80t-87 -33q-31 0 -57 18 q-102 68 -197 90l-70 -393q225 -59 312.5 -158.5t58.5 -263.5q-29 -166 -167 -273.5t-339 -125.5l-22 -123q-6 -37 -36 -62.5t-66.5 -25.5t-59.5 25.5t-16 62.5l22 127q-225 25 -391 160q-47 35 -39 98zM559 1055q-12 -68 21.5 -111t140.5 -80l63 363q-96 -8 -155.5 -55 t-69.5 -117zM768 207q205 23 233 178q12 70 -23.5 114t-143.5 81z" />
<glyph unicode="&#x26;" horiz-adv-x="1425" d="M147 492q37 217 224 362q-41 96 -21 199q27 158 158 269.5t288.5 111.5t250 -112t63.5 -269q-8 -47 -47 -80t-86 -33t-73.5 33t-18.5 80q10 63 -27 108t-100.5 45t-116.5 -44t-66 -109q-12 -82 43 -125q33 -27 34 -70t-27 -82h-2l-5 -8q-10 -10 -26 -23l-8 -4q-2 0 -2 -2 l-4 -2q-8 -4 -11 -6q-74 -33 -126 -97.5t-66 -141.5q-20 -109 44 -187t173 -78q111 0 202 78t111 187q0 2 1 6t1 6q-119 0 -164 -39q-18 -16 -24 -45q-2 -10 -2 -21q6 -45 -23.5 -86t-77.5 -55q-10 -4 -32 -4q-37 0 -63.5 21.5t-31.5 58.5q-8 27 5 86q18 123 120 207 q127 104 338 104q10 0 33 -1t35 -1h4q18 0 24.5 2t6.5 4q4 0 4 13q4 16 2 32q-2 47 29.5 86t79 49.5t83 -15.5t37.5 -71q2 -37 -4 -81q-20 -125 -125 -193q-12 -10 -22 -14l-6 -49q-37 -205 -206 -348.5t-374 -143.5t-323 143.5t-83 348.5z" />
<glyph unicode="'" horiz-adv-x="471" d="M141 887l37 438q4 49 36 82t81 33h80q31 0 50 -18.5t19 -49.5q0 -12 -8 -45l-149 -455q-23 -63 -76 -63q-31 0 -51.5 21.5t-18.5 56.5z" />
<glyph unicode="(" d="M188 82q-59 213 0 543q43 248 125 422q100 213 250 315q119 82 260 82q53 0 84 -38t21 -91t-54.5 -92t-97.5 -39q-51 0 -90 -27q-45 -29 -90 -100q-102 -156 -147 -432q-39 -203 -21 -351q14 -137 70 -182q29 -27 82 -29q53 0 83.5 -37.5t20.5 -91.5q-8 -53 -53 -91 t-99 -38h-4q-135 0 -225 80q-78 72 -115 197z" />
<glyph unicode=")" d="M135 -65.5q10 53.5 54 92.5t98 39q51 0 90 26q45 29 90 101q102 156 147 432q39 203 21 350q-14 137 -70 182q-29 27 -82 29q-53 0 -83.5 38t-20.5 91q8 53 53 91t98 38h5q135 0 225 -80q78 -72 114 -197q59 -213 0 -542q-43 -248 -124 -422q-100 -213 -250 -316 q-119 -82 -260 -82q-53 0 -84 38t-21 91.5z" />
<glyph unicode="*" d="M141 1042q8 43 56 60l143 57l-123 55q-41 18 -35 64q4 25 27.5 43t50.5 18q20 0 41 -20l98 -86l7 135q2 33 22.5 54.5t50.5 21.5q29 0 42.5 -21.5t2.5 -52.5l-41 -137l129 86q27 20 51.5 20t41 -19.5t10.5 -43.5q-6 -41 -56 -62l-145 -55l125 -57q41 -16 35 -62 q-4 -27 -27.5 -45t-48.5 -18q-23 0 -43 20l-98 86l-6 -135q-2 -31 -22.5 -52.5t-51.5 -21.5t-43 20.5t-2 53.5l41 135l-129 -86q-27 -20 -49 -20q-27 0 -42.5 19t-11.5 46z" />
<glyph unicode="+" horiz-adv-x="1269" d="M143.5 713q8.5 45 47 76.5t83.5 31.5h177l34 176q10 43 48 76t83.5 33t72 -33t16.5 -76l-35 -176h176q43 0 68.5 -31.5t17.5 -76.5t-48 -78t-83 -33h-176l-37 -176q-10 -43 -49 -76t-84 -33t-71 33t-15 76l37 176h-177q-45 0 -69.5 33t-16 78z" />
<glyph unicode="," horiz-adv-x="471" d="M111 100q0 41 27.5 71t66.5 30q37 0 64.5 -22.5t35.5 -57.5q0 -2 4 -2l2 -13v-26q0 -66 -33.5 -130.5t-123.5 -86.5h-7q-25 0 -30 24q-6 27 24 37q63 14 92 80q-6 -2 -28 -2q-39 0 -66.5 28.5t-27.5 69.5z" />
<glyph unicode="-" horiz-adv-x="835" d="M135 704.5q0 30.5 21.5 52t52.5 21.5h381q31 0 51.5 -21.5t20.5 -52t-20.5 -52t-51.5 -21.5h-381q-31 0 -52.5 21.5t-21.5 52z" />
<glyph unicode="." horiz-adv-x="471" d="M168 102q0 41 30.5 71t71.5 30t71 -30t30 -71t-30 -71.5t-71 -30.5t-71.5 30.5t-30.5 71.5z" />
<glyph unicode="/" horiz-adv-x="1024" d="M11.5 69q-17.5 44 0.5 87l502 1194q18 43 61 60t89 -1q41 -16 58 -60t-1 -85l-502 -1196q-29 -68 -104 -68q-25 0 -41 8q-45 17 -62.5 61z" />
<glyph unicode="0" horiz-adv-x="1454" d="M166 715q49 285 223 489q193 227 420 228q115 0 203 -61.5t137 -166.5q102 -203 51 -489q-49 -285 -223 -490q-188 -227 -420 -227q-115 0 -203 61.5t-137 165.5q-102 203 -51 490zM393 715q-39 -215 35 -363q61 -127 167.5 -127t215.5 127q125 145 164 363 q37 219 -37 364q-63 129 -168 125q-104 4 -215 -125q-125 -149 -162 -364z" />
<glyph unicode="1" horiz-adv-x="686" d="M84 1110q-16 41 3 87t65 69l278 149q0 2 2 2t4 2q8 4 13 4q2 2 6 2t6 2q2 0 5 1.5t5 1.5q4 2 12 2h9h2q8 0 12 -2h10q2 0 5 -2.5t5 -2.5t4 -2t5 -2q8 -4 10 -4l4 -2q4 -2 4 -4l8 -8l6 -6q2 0 2 -4t2 -4q2 -2 4.5 -5.5t2.5 -5.5l2 -2q0 -4 2 -6v-6l2 -4q0 -2 1 -6t1 -6 v-11v-12v-2q0 -4 -2 -4l-213 -1208q-8 -47 -47 -80t-86.5 -33t-74 34t-18.5 79l179 1009l-91 -49q-33 -16 -61 -16q-61 0 -88 55z" />
<glyph unicode="2" horiz-adv-x="1208" d="M108.5 115q10.5 47 51.5 80l702 546q100 80 121 197q18 100 -37 178q-66 86 -180 86q-102 0 -191 -67l-73 -58q-41 -33 -87 -29.5t-73 37.5q-25 33 -13.5 80t50.5 80l74 58q164 127 352 127q217 0 336 -162q102 -139 69 -330q-37 -217 -225 -365l-448 -350h434 q47 0 74.5 -33.5t19.5 -80.5q-10 -47 -49 -80t-84 -33h-723h-4h-4q-51 0 -76 37q-27 35 -16.5 82z" />
<glyph unicode="3" horiz-adv-x="1249" d="M164 231.5q8 47.5 49 82t88 34.5t76 -35q66 -80 180 -80q113 0 211 80q94 82 114.5 197t-44.5 195q-63 78 -181 81q-49 -2 -79 37l-3 2q-27 35 -19.5 82t46.5 82l246 213h-330q-49 0 -76.5 34t-19.5 83q8 47 48 81t89 34h604q47 0 75 -34t19 -81q-2 -23 -22 -55 q-16 -20 -27 -29l-305 -266q78 -39 127 -101q123 -147 86 -358q-37 -209 -213 -360q-178 -150 -387 -150t-334 150q-26 34 -18 81.5z" />
<glyph unicode="4" horiz-adv-x="1359" d="M110.5 364.5q4.5 47.5 39.5 81.5l923 940q0 4 4 5l10 10q2 0 5 2l4 4l12 6q4 4 8 4l12 6q2 0 5.5 1t5.5 1q4 2 12 2q4 2 12 3h4h7q6 0 10 -3q8 0 10 -2h6l4 -2q2 -2 5 -2t5 -2l5 -4q2 -2 4 -2t4 -2l4 -4q2 0 2 -1t2 -1l4 -4q2 0 4 -4l2 -4l2 -4q2 -4 4 -5q0 -2 4 -10 q2 -2 2 -4l3 -6q0 -6 2 -8v-13q2 -2 2 -8q0 -2 -1 -7t-1 -7v-4l-146 -828h21q47 0 73.5 -33.5t18.5 -78.5q-8 -47 -47 -81t-86 -34h-21l-26 -153q-8 -47 -47 -80t-86.5 -33t-75 32.5t-19.5 80.5l29 153h-641h-4q-39 0 -66 27q-33 28 -28.5 75.5zM481 489h408l90 506z" />
<glyph unicode="5" horiz-adv-x="1239" d="M141.5 233.5q8.5 47.5 48.5 81.5q39 33 87.5 33t76.5 -33q63 -78 181 -82q117 4 210 82q94 82 117 197q20 115 -47 194.5t-180 79.5q-115 0 -211 -79q-39 -35 -88 -35t-76 35q-8 8 -16 28v4q-2 2 -2 6.5t-2 6.5v12v4q-2 14 4 35l155 528q16 55 66 82q2 0 4 2l4 4l8 4 q25 12 56 13h604q47 0 74.5 -34t19.5 -83q-8 -47 -48 -81t-87 -34h-504l-61 -203q72 18 141 19q209 0 332 -150q123 -147 86 -358t-213 -360q-178 -150 -387 -150q-213 0 -332 150q-29 34 -20.5 81.5z" />
<glyph unicode="6" horiz-adv-x="1314" d="M150 453q8 78 16 118q41 225 145 420q131 233 326 350q152 90 326 97q47 2 75.5 -30t22.5 -79t-44 -81t-85 -36q-109 -6 -203 -59q-86 -53 -156 -143q-12 -16 -36 -54q109 41 204 41q207 0 327 -146t83 -351q-37 -207 -208 -351.5t-376 -144.5q-193 0 -312.5 128 t-102.5 319zM383 500q-18 -111 46.5 -190t177 -79t204.5 79t113 190q20 113 -44.5 191.5t-177 78.5t-206 -78.5t-113.5 -191.5z" />
<glyph unicode="7" horiz-adv-x="1202" d="M149.5 67q-10.5 44 16.5 87l627 1048h-529q-47 0 -74.5 34t-19.5 81q10 47 49 80t84 33h698q16 0 25 -3q20 -2 37 -16l6 -6l8 -8q2 -4 6 -8q4 -8 4 -11l3 -2q0 -4 2 -4q2 -2 2 -6t2 -6v-10q2 -2 2 -11q0 -27 -8 -45q-2 -12 -11 -22l-721 -1206q-43 -70 -116 -70 q-14 0 -43 8q-39 19 -49.5 63z" />
<glyph unicode="8" horiz-adv-x="1290" d="M162 483q20 125 98 232.5t191 175.5q-51 88 -31 201q25 139 141.5 238.5t255.5 99.5t221 -99.5t58 -238.5q-23 -115 -105 -201q88 -68 128 -175.5t20 -232.5q-35 -201 -204 -344t-372 -143q-201 0 -319.5 143t-81.5 344zM383 483q-18 -109 46.5 -186.5t172.5 -77.5 q111 0 202 78t111 186q18 111 -45 189t-173.5 78t-202 -78t-111.5 -189zM641 1092q-8 -45 20.5 -79t75.5 -36q47 2 86 34.5t49 80.5q8 47 -19.5 80.5t-76.5 33.5q-47 0 -86 -33.5t-49 -80.5z" />
<glyph unicode="9" horiz-adv-x="1314" d="M182 936q37 205 208 350.5t378 145.5q190 0 310 -128t106 -317v-4q-8 -78 -17 -119q-37 -223 -145 -420q-133 -236 -326 -350q-154 -90 -323 -96h-6q-45 0 -73 31.5t-22 76.5q8 47 46 82t85 37q106 2 203 60q84 47 154 143q20 23 37 53q-98 -41 -205 -41 q-205 0 -325 144.5t-85 351.5zM410 936q-20 -113 45 -191.5t177.5 -78.5t205 78.5t112.5 191.5q20 111 -45 189.5t-178 78.5t-205 -78.5t-112 -189.5z" />
<glyph unicode=":" horiz-adv-x="491" d="M186 102q8 41 44 71t77 30t65.5 -30t16.5 -71q-6 -41 -42 -71.5t-77 -30.5q-39 0 -64.5 30.5t-19.5 71.5zM338 969q8 41 44 70.5t77 29.5t65.5 -29.5t16 -70.5t-43 -72t-75.5 -31t-66.5 32t-17.5 71z" />
<glyph unicode=";" horiz-adv-x="491" d="M123 -109q-4 25 31 37q68 14 108 80q-8 -2 -31 -2q-39 0 -60 28.5t-13 69.5t40.5 71t71.5 30q37 0 60.5 -22.5t25.5 -57.5q0 -2 2 -2q0 -14 -4 -39q-8 -39 -24.5 -77t-63.5 -82t-112 -58h-7q-24 -1 -24 24zM324 965q8 41 45 70.5t77.5 29.5t64.5 -29.5t15.5 -70.5 t-43 -72t-75.5 -31t-66.5 32t-17.5 71z" />
<glyph unicode="&#x37e;" horiz-adv-x="491" d="M123 -109q-4 25 31 37q68 14 108 80q-8 -2 -31 -2q-39 0 -60 28.5t-13 69.5t40.5 71t71.5 30q37 0 60.5 -22.5t25.5 -57.5q0 -2 2 -2q0 -14 -4 -39q-8 -39 -24.5 -77t-63.5 -82t-112 -58h-7q-24 -1 -24 24zM324 965q8 41 45 70.5t77.5 29.5t64.5 -29.5t15.5 -70.5 t-43 -72t-75.5 -31t-66.5 32t-17.5 71z" />
<glyph unicode="&#x3c;" horiz-adv-x="1269" d="M123 688v6q0 2 1 5t1 6v14q0 2 1 4t1 4q0 4 2 9t4 7q0 4 2 7q4 12 8 18l2 2q12 23 35 41l684 586q45 39 99.5 39t85.5 -39q33 -39 23.5 -92.5t-54.5 -92.5l-578 -493l404 -494q31 -39 21.5 -93t-54.5 -93q-45 -37 -100 -37q-53 0 -86 39l-478 586q-8 8 -10 16q-2 2 -2 4 t-6 17q-2 2 -2 6q-2 4 -2 14z" />
<glyph unicode="=" horiz-adv-x="1269" d="M162 604q0 31 21.5 52.5t52.5 21.5h380q31 0 51.5 -21.5t20.5 -52.5t-20.5 -52.5t-51.5 -21.5h-380q-31 0 -52.5 21.5t-21.5 52.5zM162 834q0 29 21.5 50t52.5 21h380q31 0 51.5 -21.5t20.5 -49.5q0 -31 -20.5 -51.5t-51.5 -20.5h-380q-31 0 -52.5 20.5t-21.5 51.5z" />
<glyph unicode="&#x3e;" horiz-adv-x="1269" d="M203 132q10 54 55 93l578 494l-404 493q-33 39 -22.5 92.5t55.5 92.5t99 39t85 -39l479 -586q8 -12 11 -18l2 -2q4 -12 6 -17v-2q2 -2 2 -4q0 -10 2 -14v-11v-12q0 -8 -2 -12q0 -6 -2 -8q0 -8 -4 -17v-2l-2 -4l-5 -10q-3 -6 -6 -8l-2 -4q-10 -16 -14 -19l-2 -4l-16 -16 l-686 -586q-41 -39 -99 -39q-55 0 -86 37q-32 39 -22 93z" />
<glyph unicode="?" horiz-adv-x="1093" d="M88 1125q-4 42 25 81q78 102 193.5 164t238.5 62q188 0 296.5 -133.5t76.5 -319.5q-27 -160 -147 -283t-277 -157l-27 -142q-8 -45 -44 -74.5t-79 -29.5t-68.5 29.5t-17.5 74.5l39 226l2 2v2v4q8 43 44 73.5t79 30.5q100 0 184 71t103 173q16 100 -42.5 171t-158.5 71 q-141 0 -232 -121q-29 -37 -71.5 -48.5t-77.5 11.5q-35 20 -39 62zM207 104l6 39q8 45 44 76t81 31q43 0 68.5 -31t17.5 -76l-6 -39q-8 -45 -44 -75.5t-81 -30.5q-43 0 -68.5 30.5t-17.5 75.5z" />
<glyph unicode="@" horiz-adv-x="2007" d="M178 721q53 297 300 507t544 210t470 -210t120 -507q-29 -170 -137 -328v-2l-2 -2l-11 -12q-8 -10 -23 -26l-32 -32q-86 -78 -176 -98q-25 -8 -55 -8q-47 0 -85 22.5t-57 55.5q-14 27 -22 61q-98 -47 -191 -47q-166 0 -260 125q-94 121 -63 291q31 168 166 291 q139 125 305 125t260 -125q94 -121 63 -291q0 -6 -4 -14v-9l-43 -243q2 0 17 10q27 27 30 35q70 98 92 221q35 203 -82.5 346t-320.5 143t-372 -143t-203.5 -346t83 -346.5t320.5 -143.5q68 0 123 15q47 10 84 -13.5t39 -68.5q4 -45 -27 -86t-78 -51q-94 -23 -182 -23 q-297 0 -470 210t-120 507zM725 721q-14 -82 29 -135q37 -53 108 -54q70 0 127 54q63 57 76 135q16 80 -29 135q-37 53 -108 53q-70 0 -127 -53q-64 -57 -76 -135z" />
<glyph unicode="A" horiz-adv-x="1323" d="M132 66q-4 14 -3 27q0 30 16 61l666 1206q39 74 121 74q80 0 96 -74l240 -1206q3 -12 2 -25q0 -32 -20 -63q-28 -43 -74 -60q-20 -6 -41 -6q-35 0 -60.5 20.5t-32.5 53.5l-53 264h-500l-147 -264q-41 -74 -119 -74q-20 0 -39 6q-41 17 -52 60zM614 563h330l-88 441z" />
<glyph unicode="B" horiz-adv-x="1216" d="M225 111l213 1208q8 47 47 80t86 33h2h2h285q162 0 255 -115q72 -89 73 -207q0 -34 -6 -70q-25 -131 -119 -231q84 -59 123 -158q25 -64 25 -136q0 -38 -7 -79q-33 -182 -184.5 -310t-331.5 -128h-364h-5h-2q-47 0 -73 34q-20 26 -21 58q0 10 2 21zM471 225h256 q88 0 162 61.5t88 149.5q4 21 4 41q0 62 -39 110q-51 62 -139 62h-256zM586 877h176q68 0 124 48t68 115q3 16 3 31q0 48 -30 85q-40 48 -108 48h-174z" />
<glyph unicode="C" horiz-adv-x="1472" d="M219 717q53 297 305 507t555 210q260 0 428 -156q30 -26 30 -68q0 -52 -38 -92q-35 -37 -82 -42q-7 -1 -14 -1q-38 0 -66 25q-123 106 -299 106q-209 0 -383 -143q-176 -145 -209 -346q-9 -46 -8 -90q0 -145 94 -256q123 -143 334 -144q180 0 336 107q34 24 71 23 q8 0 16 -1q46 -6 69 -43q14 -23 14 -49q0 -17 -6 -35q-14 -47 -57 -73q-223 -156 -482 -156q-303 0 -481 209q-138 162 -138 379q0 62 11 129z" />
<glyph unicode="D" horiz-adv-x="1472" d="M225 115l211 1206q8 47 48 80t87 33h242q297 0 469 -210q133 -162 133 -376q0 -64 -12 -131q-35 -195 -160 -359.5t-307 -261t-377 -96.5h-240h-2q-47 0 -73 34q-20 26 -21 59q0 11 2 22zM471 227h129q203 0 372 143.5t204 346.5q8 47 7 90q0 147 -90 257 q-118 142 -321 144h-129z" />
<glyph unicode="E" horiz-adv-x="1214" d="M223 109l213 1208q8 47 47 80t86 33h2h2h664q47 0 75 -33q21 -25 21 -59q0 -10 -2 -21q-10 -47 -49 -81t-84 -34h-555l-68 -377h480q47 0 73 -32q20 -25 21 -59q0 -10 -2 -21q-8 -47 -47 -80t-86 -33h-477l-68 -377h555q47 0 75 -34q21 -26 21 -60q0 -10 -2 -20 q-10 -47 -49 -80t-84 -33h-666h-2q-47 0 -74 33q-21 25 -22 59q0 10 2 21z" />
<glyph unicode="F" horiz-adv-x="1228" d="M225 113l213 1208q8 47 47 80t86 33h2h2h664q47 0 74 -34q20 -26 20 -58q0 -10 -2 -21q-8 -47 -47 -81t-86 -34h-553l-67 -377h477q47 0 74 -32q21 -25 22 -59q0 -10 -2 -21q-8 -47 -47 -80t-86 -33h-477l-88 -491q-8 -47 -47 -80t-86.5 -33t-73.5 34q-20 26 -21 58 q0 10 2 21z" />
<glyph unicode="G" horiz-adv-x="1638" d="M219 719q53 299 305 508t555 209q260 0 428 -156q30 -26 30 -67q0 -50 -38 -91q-35 -37 -82 -43q-8 -1 -16 -1q-37 0 -64 24q-121 109 -299 108q-209 0 -385 -145q-174 -147 -207 -346q-9 -46 -8 -90q0 -144 94 -254q123 -145 334 -146q147 0 287 78l49 273h-284 q-47 0 -74 33q-20 26 -21 59q0 10 2 20q8 47 47 80t86 33h394h2q47 0 74 -33q21 -25 22 -59q0 -10 -2 -21l-78 -442q-2 -10 -10 -31l-6 -12l-2 -2q-16 -29 -43 -47q-229 -156 -482 -156h-2q-303 2 -480 211q-137 162 -137 377q0 62 11 129z" />
<glyph unicode="H" horiz-adv-x="1556" d="M225 113l211 1208q10 47 49 80t86 33t74 -34q20 -26 20 -58q0 -10 -1 -21l-86 -492h530l86 492q10 47 49 80t84 33q47 0 75 -33q21 -25 21 -59q0 -10 -2 -21l-213 -1208q-8 -45 -47 -79t-86 -34t-75 33q-21 25 -21 59q0 10 2 21l86 491h-530l-86 -491q-8 -47 -47 -80 t-86.5 -33t-73.5 34q-20 26 -21 58q0 10 2 21z" />
<glyph unicode="I" horiz-adv-x="624" d="M238 111l213 1208q10 47 49 80t84 33q47 0 74 -33q21 -25 22 -59q0 -10 -2 -21l-213 -1208q-8 -45 -47 -79t-86 -34t-75 33q-21 25 -21 59q0 10 2 21z" />
<glyph unicode="J" horiz-adv-x="1216" d="M94 350q-1 8 -1 16q0 37 24 71q29 42 76 57q19 6 36 5q26 0 49 -13q38 -22 44 -66q12 -86 76 -141q62 -53 150 -54h7q117 0 214 82t118 199l143 813q8 45 47 79t86 34t75 -33q21 -25 21 -59q0 -10 -2 -21l-143 -813q-37 -211 -212 -359.5t-386 -148.5q-168 0 -283.5 98 t-138.5 254z" />
<glyph unicode="K" horiz-adv-x="1464" d="M225 113l213 1208q8 47 47 80t86 33t74 -34q20 -26 20 -58q0 -10 -1 -21l-105 -592l791 672q39 33 86 33t73 -33q21 -27 21 -62q0 -9 -1 -19q-7 -46 -46 -79l-537 -457l389 -598q14 -23 14 -50q0 -16 -4 -34q-13 -47 -55 -75q-33 -27 -76 -27q-55 0 -79 41l-377 584 l-254 -217l-53 -295q-8 -47 -47 -80t-86.5 -33t-73.5 34q-20 26 -21 58q0 10 2 21z" />
<glyph unicode="L" horiz-adv-x="1267" d="M225 119l213 1206q8 47 47 80t86 33t74 -33q20 -25 20 -59q0 -10 -1 -21l-193 -1094h555q47 0 75 -32q21 -25 21 -59q0 -10 -2 -21q-10 -47 -49 -81t-86 -34h-663q0 2 -3 2q0 -2 -2 -2q-47 0 -73 34q-20 26 -21 59q0 11 2 22z" />
<glyph unicode="M" horiz-adv-x="1777" d="M223 117l213 1206q8 47 47 80t86 33h2h9q53 0 75 -47l308 -566l507 568q42 45 94 45h9h2q47 0 74 -33q20 -25 20 -59q0 -10 -2 -21l-213 -1206q-8 -47 -47 -81t-86 -34t-75 34q-21 26 -21 60q0 10 2 21l151 860l-364 -410q-43 -47 -101 -47h-4h-2q-59 0 -84 47l-221 410 l-151 -860q-10 -47 -49.5 -81t-84.5 -34q-47 0 -74 34q-21 26 -22 60q0 10 2 21z" />
<glyph unicode="N" horiz-adv-x="1617" d="M225 113l211 1202q10 63 66 96q33 23 68 23q9 0 18 -1q45 -7 65 -47l504 -925l150 854q10 47 49 79.5t84 32.5q47 0 74 -32q21 -25 22 -59q0 -10 -2 -21l-213 -1202q-8 -47 -47 -80t-86 -33q-51 0 -78 39q0 2 -3 6t-5 8l-500 918l-151 -858q-8 -47 -47 -80t-86.5 -33 t-73.5 33q-20 25 -21 58q0 11 2 22z" />
<glyph unicode="O" horiz-adv-x="1740" d="M184 715q53 297 287 504q236 213 522 213q283 0 447 -213q120 -157 120 -362q0 -68 -14 -142q-49 -295 -284 -504q-236 -213 -522.5 -213t-446.5 213q-122 156 -122 362q0 68 13 142zM412 715q-9 -51 -10 -98q0 -142 83 -252q106 -137 295 -142q186 4 344 142 q160 147 197 350q9 51 9 98q0 142 -83 250q-109 141 -295 141t-344 -141q-159 -143 -196 -348z" />
<glyph unicode="P" horiz-adv-x="1193" d="M223 115l213 1208q10 47 49 80t84 33h2h2h363q182 0 289 -128q81 -98 81 -228q0 -40 -8 -83q-33 -182 -183 -310t-333 -130h-254l-77 -442q-8 -45 -47 -79t-86.5 -34t-74.5 33q-21 25 -22 59q0 10 2 21zM569 784h252q88 0 161 62.5t89 150.5q3 20 3 38q0 64 -39 112 q-50 61 -138 61h-254z" />
<glyph unicode="Q" horiz-adv-x="1728" d="M174 707q49 311 301 540q262 227 559 228q150 0 274 -60.5t203 -167.5q129 -172 129 -390q0 -73 -14 -150q-47 -305 -301 -539q-137 -115 -270 -168l-47 -20q125 -76 219 -76q96 0 217 80q38 26 78 25q8 0 16 -1q49 -6 72 -45q16 -26 15 -54q0 -17 -5 -35 q-14 -48 -61 -81q-186 -129 -373 -129h-2q-174 0 -359 123q-59 33 -118 33q-92 0 -154 -37q-32 -15 -60 -15q-34 0 -63 21q-2 0 -5 1t-5 3q0 2 -2 2q-20 20 -27 45q-4 15 -4 31q0 32 17 63q26 47 75 68l4 2q-123 68 -194 164q-130 165 -130 383q0 75 15 156zM414 707 q-9 -53 -9 -103q0 -154 87 -270q121 -152 315 -152q193 0 369 152q176 162 210 373q9 54 9 104q0 156 -86 270q-115 147 -318 148q-201 0 -366 -148q-176 -157 -211 -374z" />
<glyph unicode="R" horiz-adv-x="1280" d="M197 113l213 1208q8 47 47 80t86 33h2h364q182 0 288 -129q80 -98 81 -227q0 -40 -8 -83q-33 -205 -217 -338q33 -35 55 -75q35 -68 35 -151q0 -34 -6 -71q-11 -57 -12 -98q0 -12 1 -22q49 -20 58 -70q1 -8 1 -16q0 -37 -24 -71q-29 -42 -74 -56q-20 -8 -47 -9 q-41 0 -75 23q-39 29 -54 74q-15 41 -15 106q0 60 13 139q3 17 3 33q0 30 -11 53q-12 29 -51 62q-35 25 -107 49h-241l-80 -444q-8 -47 -47 -80t-86 -33t-74 34q-20 26 -20 58q0 10 2 21zM541 782h254q88 0 160.5 62.5t88.5 150.5q3 19 4 38q0 64 -40 112q-51 61 -140 61 h-252z" />
<glyph unicode="S" horiz-adv-x="1366" d="M180 344q33 33 76 37q6 1 11 0q36 0 61 -23q63 -63 159 -109q92 -44 188 -44h9q147 0 260 74q96 63 113 143q2 12 2 23q0 22 -8 40q-18 37 -52 60q-80 61 -258 96h-2h-2q-145 31 -241 78q-117 61 -160 155q-22 49 -22 105q0 28 5 57q33 178 213 291q164 106 363 107 q88 0 174 -31t125 -55.5t106 -73.5q33 -23 33 -65t-28.5 -76.5t-71.5 -43.5q-12 -3 -23 -3q-29 0 -51 18q-57 41 -93 63.5t-92 42t-114 19.5h-8q-128 0 -229 -66q-86 -59 -99 -127q-6 -31 6 -55q8 -23 43 -51q72 -55 236 -88h4q156 -29 262 -84q125 -68 168 -164 q23 -52 23 -110q0 -30 -6 -62q-33 -186 -224 -309q-176 -113 -389 -113q-270 2 -477 201q-26 24 -26 60q0 47 36 83z" />
<glyph unicode="T" horiz-adv-x="1327" d="M115 1321q8 47 47 80t86 33h870q47 0 75 -33q21 -25 21 -59q0 -10 -2 -21q-8 -47 -47 -80t-86 -33h-323l-193 -1093q-8 -47 -47 -81t-86 -34t-74 34q-20 26 -20 59q0 10 2 22l192 1093h-323q-47 0 -74 33q-20 25 -20 59q0 10 2 21z" />
<glyph unicode="U" horiz-adv-x="1667" d="M272 592l127 729q8 47 48 80t87.5 33t73.5 -33q20 -25 21 -59q0 -10 -2 -21l-129 -729q-6 -35 -6 -67q0 -109 68 -191q89 -106 239 -107q152 0 277.5 106.5t152.5 258.5l129 729q8 47 47 80t86 33t75 -33q21 -25 21 -59q0 -10 -2 -21l-129 -729q-43 -244 -246.5 -418 t-449.5 -174t-388 174q-109 134 -110 309q0 52 10 109z" />
<glyph unicode="V" horiz-adv-x="1536" d="M129 1278q-3 13 -3 26q0 32 18 62q26 43 73 61q23 9 45 10q21 0 41 -9q41 -17 51 -62l236 -958l571 958q27 45 74 62q23 8 44 9q22 0 42 -10q41 -18 51 -61q3 -12 3 -24q0 -31 -19 -64l-721 -1206q-8 -12 -12 -17q-2 -2 -2 -4q-2 -2 -7.5 -6t-7.5 -6l-4 -4q-6 -6 -14 -10 q-2 -2 -4 -2q-12 -8 -19 -11h-2l-2 -2q-12 -4 -18 -4l-4 -2q-4 0 -11.5 -1t-9.5 -1q-4 0 -11 1t-9 1t-2 1t-2 1q-4 0 -17 4l-2 2q-6 2 -18 11l-2 2l-11 10l-4 4q-4 8 -8 14v2q-6 6 -6 17z" />
<glyph unicode="W" horiz-adv-x="2256" d="M137 1278q-3 13 -3 25q0 30 18 61q25 43 71 61q24 9 47 10q21 0 41 -9q41 -17 51 -60l234 -958l381 634q41 70 119 70q80 0 96 -70l156 -634l573 958q27 43 72 60q22 8 43 9q22 0 43 -10q41 -18 51 -61q3 -12 3 -24q0 -31 -19 -62l-721 -1206l-13 -19l-2 -2q-2 -2 -6 -7 t-6 -7h-2l-4 -2q-8 -8 -14 -12q-2 0 -3 -3l-10 -5l-10 -5h-2h-2q-12 -4 -16 -6h-7q-6 -2 -20 -2q-12 0 -19 2h-6q-6 2 -14 6h-4q-2 2 -8 5t-8 5l-3 3l-12 12l-2 2q-2 2 -8 14l-2 2l-6 19l-158 641l-383 -641l-12 -19h-2l-2 -2q-2 -2 -6.5 -7t-6.5 -7h-2l-2 -2q-2 -2 -7 -6 t-7 -6q-2 0 -4 -2.5t-8 -5.5l-11 -5h-2h-4q-2 -2 -8 -4t-8 -2h-6q-6 -2 -19 -2h-2q-12 0 -18 2h-6q-8 4 -15 6h-2h-2q-2 2 -7 5t-9 5l-2 3q-8 8 -10 12q-2 0 -2 1t-2 1q-2 2 -4.5 7t-4.5 7v2q-4 6 -8 19z" />
<glyph unicode="X" horiz-adv-x="1478" d="M162 99q0 46 35 83l487 537l-297 536q-13 23 -13 50q0 18 6 36q15 47 58 74q34 21 69 21q9 0 19 -1q45 -7 66 -44l266 -480l434 480q35 37 82 44q10 2 20 1q35 0 60 -21q33 -29 33 -75t-35 -85l-487 -536l297 -537q12 -21 11 -45q0 -18 -6 -38q-15 -46 -57 -74 q-39 -23 -71 -23q-55 0 -84 47l-264 479l-435 -479q-41 -47 -100 -47q-35 0 -61 23q-33 28 -33 74z" />
<glyph unicode="Y" horiz-adv-x="1236" d="M134 1335q15 45 56 74q34 23 71 23q9 0 19 -1q46 -7 66 -47l268 -483l439 483q33 39 81 47q10 1 18 1q36 0 62 -23q33 -29 33 -74t-35 -84l-526 -579l-98 -561q-8 -45 -47 -79t-86 -34t-75 33q-21 25 -21 59q0 10 1 21l101 561l-322 579q-12 22 -11 47q-1 18 6 37z" />
<glyph unicode="Z" horiz-adv-x="1366" d="M145 90q0 4 1 8t1 6v7v2q4 12 5 14q2 4 2 8l6 12q0 2 2 5.5t4 5.5l4 4q2 2 2 4q2 4 8 10v2l932 1026h-657q-47 0 -75 34q-21 26 -21 60q0 10 1 21q8 45 47 79t87 34h882h2q8 0 13 -2h8q2 0 6 -2.5t6 -2.5t4 -2t4 -2q4 0 8 -4q2 0 5.5 -2t5.5 -4l2 -2l4 -4l8 -8l4 -8 q2 -2 4 -5.5t2 -5.5t2 -4t2 -4v-6l2 -4q0 -2 2 -6v-4v-13v-12q0 -4 -2 -6v-2q0 -6 -4 -14q0 -6 -2 -9q-4 -8 -6 -10q0 -4 -4 -12q-4 -4 -6 -8q-4 -2 -8 -11l-2 -2l-932 -1026h659q47 0 74 -34q20 -26 20 -59q0 -10 -2 -21q-8 -47 -47 -80t-86 -33h-880q-14 0 -21 2 q-4 0 -6 2q-2 0 -14 4q0 2 -4 2l-13 6l-4 4q-2 0 -2 2q-2 0 -2 3l-4 2q-2 4 -6 8q-2 2 -4 5t-2 5q-4 4 -4 8q-4 4 -4 10l-2 5l-3 4v12v4z" />
<glyph unicode="[" d="M211 -133l258 1454q8 51 49 87t92 36h422q39 0 63.5 -29t18.5 -69q-8 -39 -42 -68t-75 -29h-305l-229 -1310h305q41 0 64.5 -29t15.5 -68q-6 -39 -40 -68.5t-75 -29.5h-422q-51 0 -79.5 36t-20.5 87z" />
<glyph unicode="\" horiz-adv-x="1024" d="M42 1349q17 44 58 60q45 18 88 1t62 -60l502 -1194q18 -43 0.5 -87t-62.5 -61q-16 -8 -41 -8q-76 0 -104 68l-502 1196q-18 41 -1 85z" />
<glyph unicode="]" d="M121 -158q8 39 42 68t75 29h305l229 1310h-305q-41 0 -64.5 29t-15.5 68q6 39 40 68.5t75 29.5h422q51 0 79.5 -36t20.5 -87l-258 -1454q-8 -51 -49 -87t-92 -36h-422q-39 0 -63.5 28.5t-18.5 69.5z" />
<glyph unicode="^" horiz-adv-x="1024" d="M170 1040q6 29 37 62l250 266q63 74 139 74h18q72 0 113 -74l139 -266q16 -35 11 -62q-10 -41 -66 -41q-47 0 -74.5 18.5t-56.5 72.5l-109 190l-186 -190q-53 -53 -87 -72t-79 -19q-25 0 -39 11.5t-10 29.5z" />
<glyph unicode="_" horiz-adv-x="1228" d="M-37 -231q8 39 42 67.5t75 28.5h1237q39 0 61.5 -27.5t14.5 -68.5q-8 -39 -43 -68t-76 -29h-1237q-39 0 -61.5 28t-12.5 69z" />
<glyph unicode="`" horiz-adv-x="1024" d="M334 1456q0 29 48 54.5t99 25.5q61 0 99 -59l116 -181q18 -27 19 -45q0 -43 -64 -43q-86 0 -143 56l-139 131q-35 30 -35 61z" />
<glyph unicode="a" horiz-adv-x="1267" d="M109 512q33 207 200 360q170 150 375 150q147 0 256 -86q14 37 48 61.5t73 24.5q47 0 72 -32q18 -24 18 -55q0 -10 -2 -22l-139 -800q-10 -47 -46 -79t-81 -32q-41 0 -65.5 24.5t-26.5 63.5q-141 -88 -287 -88q-205 0 -320 152q-86 116 -85 258q0 49 10 100zM324 512 q-5 -29 -5 -56q0 -87 50 -153q61 -84 174 -84q111 0 200 84q96 84 119 209q6 32 7 61q0 83 -52 150q-63 84 -172 84q-104 0 -203 -84q-98 -88 -118 -211z" />
<glyph unicode="b" horiz-adv-x="1351" d="M203 109l209 1212q8 47 47 80t84 33q47 0 73 -34q20 -26 21 -58q0 -10 -2 -21l-64 -381q147 84 293 84q209 0 328 -151q91 -115 91 -266q0 -47 -9 -97q-37 -213 -209 -363.5t-381 -150.5q-152 0 -266 88q-16 -39 -50 -63.5t-73 -24.5q-47 0 -74 33q-20 25 -20 58 q0 11 2 22zM498 510q-6 -31 -6 -59q0 -85 51 -148q66 -86 182 -86q109 0 207 86q96 80 119 207q5 29 5 56q0 84 -48 151q-70 86 -185 86q-111 0 -207 -86q-95 -84 -118 -207z" />
<glyph unicode="c" horiz-adv-x="1169" d="M170 522q39 217 223.5 369.5t403.5 152.5q186 0 311 -112q29 -27 29 -69q0 -49 -37 -89q-33 -35 -80 -41q-8 -1 -16 -1q-37 0 -64 24q-72 66 -182 65q-129 0 -235.5 -88t-129.5 -211q-5 -28 -5 -54q0 -89 58 -158q76 -89 205 -89q111 0 207 68q34 24 70 23q8 0 16 -1 q45 -6 66 -43q14 -23 13 -48q0 -17 -5 -35q-14 -46 -55 -72q-162 -113 -351 -113q-221 0 -351 153q-100 117 -100 273q0 46 9 96z" />
<glyph unicode="d" horiz-adv-x="1351" d="M172 510q37 211 209 362.5t379 151.5q147 0 262 -88l61 387q8 45 47 78t84 33q47 0 74 -33q20 -25 21 -57q0 -10 -2 -21l-209 -1212q-10 -47 -48 -80t-83 -33q-39 0 -66 25.5t-29 62.5q-145 -88 -292 -88q-207 2 -326 152q-91 114 -91 263q0 47 9 97zM395 510 q-7 -31 -6 -60q0 -80 49 -145q70 -84 180 -84q109 0 209 84q98 88 117 205q5 30 5 58q0 86 -48 149q-68 84 -180 84q-115 0 -209 -84q-99 -86 -117 -207z" />
<glyph unicode="e" horiz-adv-x="1247" d="M170 512q39 211 210 361.5t380 150.5q203 0 318 -134q94 -109 94 -266q0 -36 -5 -75q0 -8 -2 -10q0 -10 -4 -19q-10 -37 -45 -59.5t-76 -22.5h-653q0 -80 45 -135q25 -37 76 -62.5t104 -29.5l35 -2q123 0 209 80q35 33 73 33t51 -9.5t24 -19.5q24 -26 23 -60 q0 -43 -32 -75q-92 -86 -188 -122t-234 -36q-209 2 -325 152q-88 112 -88 258q0 49 10 102zM408 612h579q-4 72 -72.5 139.5t-189.5 77.5q-119 -6 -202.5 -73.5t-114.5 -143.5z" />
<glyph unicode="f" horiz-adv-x="741" d="M143 948q10 47 49 80t84 33h54l6 29q18 119 74 200q63 98 170 125q55 18 125 19q47 0 74 -34q21 -26 22 -60q0 -10 -2 -21q-10 -47 -49 -80t-84 -33q-41 0 -54 -6q-10 -4 -14 -6q-20 -20 -37 -104l-4 -29h59q47 0 75 -33q21 -25 22 -59q0 -10 -2 -21q-10 -47 -49 -80.5 t-84 -33.5h-62l-127 -721q-8 -47 -47 -80t-86 -33t-74 33q-20 25 -20 58q0 10 2 22l127 721h-53q-47 0 -75 33q-21 26 -22 60q0 10 2 21z" />
<glyph unicode="g" horiz-adv-x="1351" d="M147 504q37 215 207 364q172 156 379 156q154 0 262 -90q14 39 48 64.5t75 25.5q47 0 73 -33q19 -25 19 -56q0 -10 -2 -22l-71 -407v-2l-68 -381q-35 -205 -205 -350.5t-377 -145.5q-115 0 -208 49q-37 20 -45 64q-2 9 -1 18q0 34 21 66q27 41 73 56q20 7 37 7 q24 0 46 -12q53 -29 116 -29q98 0 185.5 63.5t122.5 158.5q-141 -84 -283 -84q-205 0 -326 155q-87 115 -87 265q0 48 9 100zM369 504q-6 -31 -6 -60q0 -84 49 -151q68 -86 178 -86q113 0 205 86q98 82 120 211l3 2q5 29 4 56q0 89 -52 155q-66 86 -174 86q-111 0 -209 -86 q-98 -88 -118 -213z" />
<glyph unicode="h" horiz-adv-x="1255" d="M201 115l90 465l123 743q8 47 47 80t86 33t75 -33q21 -25 21 -59q0 -10 -2 -21l-55 -354q109 57 229 57q184 0 292 -130q82 -100 82 -232q0 -40 -7 -84l-88 -465q-10 -47 -49 -80t-84 -33q-47 0 -75 33q-21 25 -22 59q0 10 2 21l88 465q4 21 4 41q0 64 -40 113 q-53 65 -143.5 65t-166.5 -64.5t-92 -154.5l-88 -465q-10 -47 -49 -80t-84 -33q-47 0 -75 33q-21 25 -21 59q0 10 2 21z" />
<glyph unicode="i" horiz-adv-x="575" d="M203 111l149 800q8 47 47 80t86 33t74 -34q20 -26 20 -58q0 -10 -1 -21l-148 -800q-8 -47 -47 -80t-86 -33t-75 33q-21 25 -21 59q0 10 2 21zM410 1276l6 43q10 47 49 80t84 33q47 0 75 -33q21 -25 21 -59q0 -10 -2 -21l-8 -43q-8 -47 -47 -81t-86 -34t-74 34 q-20 26 -20 59q0 11 2 22z" />
<glyph unicode="j" horiz-adv-x="509" d="M2 -289q8 47 48 81t87 34l197 1083q8 49 48 82t89 33q47 0 75 -33q21 -25 21 -60q0 -10 -2 -22l-196 -1083q-16 -96 -97.5 -164t-175.5 -68q-47 0 -74 34q-21 26 -22 62q0 10 2 21zM397 1276l9 43q8 47 47 81t88 34q47 0 75 -34q22 -26 23 -61q0 -10 -2 -20l-8 -43 q-8 -49 -48 -84t-89 -35q-47 0 -75 35q-21 27 -22 62q0 11 2 22z" />
<glyph unicode="k" horiz-adv-x="1146" d="M203 113l213 1208q8 47 47 80t86 33t74 -34q20 -26 20 -58q0 -10 -2 -21l-125 -711l496 422q41 33 87 33t72 -33q21 -27 21 -62q0 -9 -1 -19q-7 -46 -46 -79l-361 -307l246 -381q15 -23 15 -50q0 -15 -5 -32q-12 -47 -53 -75q-35 -27 -78 -27q-51 0 -80 41l-235 365 l-133 -115l-33 -178q-8 -47 -47 -80t-86 -33t-74 34q-20 26 -20 58q0 10 2 21z" />
<glyph unicode="l" horiz-adv-x="509" d="M215 113l213 1206q8 47 48 80t87 33t74 -33q20 -25 20 -59q0 -10 -2 -21l-213 -1206q-8 -47 -47 -81t-86 -34t-75 34q-21 26 -21 60q0 10 2 21z" />
<glyph unicode="m" horiz-adv-x="1947" d="M203 115l84 483l55 317q10 47 47 78t82 31q68 0 88 -61q111 61 229 61q193 0 295 -141q152 141 344 141q176 0 279 -125q79 -96 79 -222q0 -38 -7 -79l-86 -483q-6 -45 -44 -78t-83 -33t-71 33q-19 25 -19 57q0 10 2 21l84 483q4 22 4 42q0 61 -38 108q-50 61 -138 61 q-86 0 -158 -60.5t-88 -146.5l-2 -4l-84 -483q-10 -47 -47 -79t-82 -32t-71 32q-21 26 -21 61q0 9 2 18l86 483v4q3 19 3 37q0 63 -40 110q-51 60 -137 60q-84 0 -158 -61.5t-88 -149.5l-86 -483q-8 -45 -45 -78t-82 -33t-71 33q-19 25 -19 57q0 10 2 21z" />
<glyph unicode="n" horiz-adv-x="1255" d="M201 113l86 483l55 319q10 45 47 77t82 32q70 0 86 -63q111 63 231 63q178 0 282 -125q79 -95 79 -220q0 -40 -8 -83l-86 -483q-6 -45 -43 -78t-82 -33t-72 32q-20 24 -20 57q0 10 2 22l86 483q3 20 3 38q0 64 -39 111q-50 61 -138 61.5t-160 -61t-86 -149.5l-88 -483 q-6 -45 -44 -78t-83 -33t-72 33q-20 25 -20 57q0 10 2 21z" />
<glyph unicode="o" horiz-adv-x="1280" d="M168 510q37 207 203 360q174 154 377 154q201 0 323 -154q85 -114 85 -261q0 -48 -9 -99q-37 -213 -205 -360q-168 -154 -375 -154q-203 0 -323 154q-85 113 -85 260q0 48 9 100zM385 510q-6 -32 -6 -61q0 -87 51 -150q66 -86 174.5 -86t206.5 86q94 84 119 211 q6 31 5 59q0 88 -52 150q-61 86 -172 86t-207 -86q-94 -84 -119 -209z" />
<glyph unicode="p" horiz-adv-x="1351" d="M201 -276l211 1187q8 47 46 80t85 33q39 0 64.5 -24.5t27.5 -61.5q145 86 295 86q209 0 327 -152q91 -116 91 -265q0 -47 -9 -97q-37 -211 -210 -362.5t-379 -153.5q-156 4 -263 88l-61 -358q-10 -47 -49 -80t-84 -33t-73 33q-21 25 -21 59q0 10 2 21zM565 510 q-7 -33 -7 -63q0 -79 50 -142q70 -86 180.5 -86t208.5 86q100 80 119 205q6 31 6 60q0 86 -51 147q-70 84 -178 84q-113 0 -213 -84q-97 -90 -115 -207z" />
<glyph unicode="q" horiz-adv-x="1351" d="M172 510q37 213 208 362.5t380 149.5q154 0 262 -86q14 39 49 62.5t76 23.5q45 0 72 -32q20 -24 20 -57q0 -10 -2 -22l-70 -399v-2l-139 -780q-8 -47 -46 -80t-85 -33q-45 0 -72 34q-20 26 -20 58q0 10 2 21l63 354q-137 -82 -290 -86q-207 2 -326 152q-91 114 -91 263 q0 47 9 97zM393 510q-5 -28 -5 -55q0 -85 50 -150q70 -84 180 -84q109 0 207 84q96 84 119 205v2q6 30 6 58q0 84 -51 147q-66 84 -180 84q-111 0 -207 -84t-119 -207z" />
<glyph unicode="r" horiz-adv-x="899" d="M201 109l143 806q6 45 44 77t83 32t72 -32q20 -24 20 -56q0 -10 -2 -21l-4 -14q25 20 57 39q129 84 271 84q45 0 71 -32q20 -24 21 -56q0 -10 -2 -21q-10 -45 -47 -77.5t-80 -32.5q-63 0 -131 -37q-49 -27 -113 -98q-76 -86 -117 -174l-67 -387q-8 -45 -46 -77t-83 -32 t-72 32q-20 24 -20 56q0 10 2 21z" />
<glyph unicode="s" horiz-adv-x="1007" d="M156 293q35 37 82 41h10q40 0 67 -27q33 -35 91 -61q53 -25 104 -25h8q84 0 148 37q45 31 51 59q0 14 -2 23q-8 12 -23 27q-53 35 -157 55h-3q-106 20 -170 53q-86 53 -114 121q-17 44 -17 91q0 17 2 36q27 131 160 223q127 78 264 78q141 0 287 -115q35 -23 36 -67v-3 q0 -43 -32 -79q-29 -37 -75 -46q-13 -3 -24 -3q-31 0 -54 18q-104 78 -174 78q-80 0 -129 -39q-35 -20 -41 -45v-16q4 -10 20 -21q35 -31 137 -47l2 -2h2q111 -20 181 -59q90 -47 122 -123q18 -41 19 -90q0 -23 -4 -48q-27 -139 -168 -233q-131 -82 -281 -82 q-193 2 -336 141q-28 26 -28 64q1 48 39 86z" />
<glyph unicode="t" horiz-adv-x="819" d="M98 909q8 47 47 81t86 34h60l45 299q10 47 49 80t84 33q47 0 75 -33q21 -25 21 -59q0 -10 -2 -21l-45 -299h53q47 0 74 -34q20 -26 20 -59q0 -10 -1 -22q-8 -47 -47 -79.5t-87 -32.5h-53l-106 -568q47 0 74 -33q21 -26 22 -60q0 -10 -2 -21q-10 -47 -49 -80t-84 -33 q-94 0 -150 67q-43 51 -42 119q0 20 3 41l109 568h-62q-47 0 -73 33q-20 26 -21 59q0 9 2 20z" />
<glyph unicode="u" horiz-adv-x="1255" d="M213 430l84 485q8 45 45 77t82 32t72 -31q20 -23 20 -56q0 -10 -2 -22l-86 -485q-3 -19 -3 -36q0 -63 40 -111q51 -61 137 -62q88 0 160 61.5t88 147.5l86 485q8 45 45 77t82 32q47 0 72 -32q18 -24 18 -55q0 -10 -2 -22l-84 -485q-31 -176 -178.5 -302t-323.5 -126 q-178 0 -281 126q-79 96 -79 220q0 40 8 82z" />
<glyph unicode="v" horiz-adv-x="1191" d="M123 862q-3 12 -3 25q0 29 16 57q24 41 69 60q23 8 43.5 8t40.5 -8q39 -16 47 -58l139 -561l334 561q25 41 69 58q22 8 42.5 8t40.5 -8q37 -18 46 -60q3 -11 2 -22q0 -30 -18 -60l-475 -799q-2 -4 -10 -16q-2 0 -2 -1t-2 -1q-2 -2 -5 -6t-5 -6h-3l-2 -2q-6 -6 -14 -11 q-2 -2 -4 -2q-12 -8 -18 -10h-2l-3 -2q-12 -4 -16 -4l-4 -2q-4 0 -10 -1t-8 -1h-2q-4 0 -10.5 1t-8.5 1l-4 2q-4 0 -16 4l-2 2q-6 2 -15 10q-2 0 -2 2q-4 2 -12 11l-2 2q-4 4 -8 12l-2 2q-4 12 -7 16z" />
<glyph unicode="w" horiz-adv-x="1763" d="M133 860q-3 12 -3 25q0 29 16 57q24 41 67 57q24 10 46 10q19 0 37 -8q38 -16 48 -57l137 -557l205 344q41 66 105 66h8h8q67 0 82 -66l84 -344l334 557q25 41 68 57q21 8 40 8q22 0 41 -10q39 -14 48 -56q3 -11 3 -23q0 -30 -18 -60l-473 -790q-8 -12 -12 -17v-4 l-13 -12l-4 -4q-8 -4 -14 -8q-2 0 -2 -1t-2 -1q-2 -2 -8 -6l-11 -5q-2 0 -4 -2q-6 0 -14 -4h-6q-6 -2 -21 -2q-10 0 -16 2h-6q-8 4 -15 4l-2 2h-2q-12 8 -14 11q-2 0 -2 1t-2 1q-2 6 -8 8l-4 4l-7 12q-2 2 -2 4q-2 4 -6 17l-86 350l-211 -350q0 -10 -10 -17q0 -2 -2 -4 l-12 -12l-4 -4q-12 -6 -15 -8q0 -2 -4 -2q-2 -2 -7 -5.5t-9 -5.5h-2q-2 0 -2 -2q-8 0 -17 -4h-6q-6 -2 -18.5 -2t-18.5 2h-6q-8 4 -12 4q-2 2 -4 2h-2q-2 2 -6.5 5t-6.5 6q-2 0 -2 1t-2 1q-2 4 -10 8v2l-2 2q-4 4 -8 12l-2 2v2q-2 4 -6 17z" />
<glyph unicode="x" horiz-adv-x="1167" d="M147 93q0 44 33 79l303 334l-184 332q-12 22 -12 45q0 17 6 36q14 44 55 70q31 21 65 21q9 0 18 -1q44 -7 65 -44l153 -277l254 277q31 37 76 44q10 2 18 1q33 0 58 -21q32 -26 31 -68q0 -45 -33 -83l-303 -332l184 -334q12 -20 12 -44q0 -17 -6 -35q-14 -44 -55 -70 q-33 -20 -68 -21q-51 0 -80 43l-153 279l-250 -279q-43 -43 -96 -43q-37 0 -60 21q-31 26 -31 70z" />
<glyph unicode="y" horiz-adv-x="1204" d="M128 -252q-2 9 -2 18q0 34 21 66q29 41 75 55q19 6 37 6q25 0 46 -12q53 -27 115 -26q88 0 169 51t122 135q-98 -49 -207 -49q-178 0 -283 127q-81 98 -81 227q0 38 7 78l86 491q8 45 46 77t83 32q47 0 74 -32q20 -24 21 -56q0 -10 -2 -21l-88 -491q-4 -21 -4 -41 q0 -62 39 -110q52 -62 140.5 -62t162 62.5t90.5 150.5l84 491q6 33 28 58q45 51 101 51q39 0 59 -20q35 -23 35 -67q0 -10 -2 -22l-29 -157l-110 -631q-35 -205 -205 -349.5t-375 -144.5q-117 0 -209 52q-37 20 -44 63z" />
<glyph unicode="z" horiz-adv-x="1134" d="M125 88q0 2 2 6v4v8v3q0 2 2 6t2 6t2 5t2 5t4 10q0 2 2 5.5t4 5.5q0 6 7 6q4 8 8 10v2l573 633h-373q-45 0 -71 33q-20 25 -21 57q0 10 2 20q8 45 45 77t82 32h590h2q8 0 12 -2h11l4 -2l4 -2q4 0 8 -4q4 0 8 -4q2 -2 4 -2q4 -2 7 -2l6 -7q4 -4 6 -8l4 -4q2 -2 2 -4 q4 -4 4 -8q4 -8 4 -10q2 -2 2 -9q2 -4 2 -12v-4q2 -4 2 -6t-1 -6t-1 -6v-7v-2q-4 -8 -4 -12q-2 -2 -2 -8q-4 -8 -6 -10q-4 -8 -6 -10.5t-4 -5.5t-2 -5l-2 -4q-2 -4 -4 -4l-3 -2l-573 -633h373q45 0 71 -33q20 -25 21 -57q0 -10 -2 -21q-8 -45 -45 -76.5t-82 -31.5h-590 q-14 0 -20 2q-4 0 -7 2q-4 0 -12 4q0 2 -4 2q-2 0 -5 2t-5 4l-4 4h-2l-6 7q-4 4 -7 8q-2 0 -4 4l-2 4q-4 4 -4 8q-4 4 -4 8q-2 2 -2 4q-2 4 -2 7v8q0 2 -1 6t-1 6z" />
<glyph unicode="{" horiz-adv-x="983" d="M123 561q8 41 40 68.5t81 29.5q104 4 158.5 56.5t74.5 167.5q4 18 21 147q29 158 132 252t339 143q49 10 77.5 -14.5t20.5 -69.5q-10 -66 -72 -84q-150 -43 -202 -98t-72 -166q-2 -12 -6 -45t-8.5 -60.5t-8.5 -45.5q-20 -115 -84.5 -181.5t-177.5 -99.5 q102 -35 143.5 -100.5t20.5 -179.5q-2 -12 -14.5 -69.5t-16.5 -82.5q-20 -111 12.5 -166t168.5 -98q53 -20 43 -84q-8 -45 -45 -69.5t-82 -14.5q-219 49 -290 143t-42 254q2 18 14 76.5t14 71.5q20 113 -15.5 166t-137.5 55q-47 2 -70.5 29.5t-15.5 68.5z" />
<glyph unicode="|" horiz-adv-x="585" d="M258 -174l305 1720q8 41 43 70t76 29t64.5 -29t15.5 -70l-307 -1720q-8 -41 -44 -69.5t-77 -28.5q-39 0 -61.5 28.5t-14.5 69.5z" />
<glyph unicode="}" horiz-adv-x="983" d="M119 -219q10 66 71 84q150 43 202 98t73 166q2 12 6 45t8 60.5t8 46.5q20 115 85 181t178 99q-102 35 -143.5 100.5t-20.5 180.5q2 12 14 69.5t16 81.5q20 111 -12.5 166t-167.5 98q-53 20 -43 84q8 45 45 70t82 14q219 -49 290 -143t42 -254q-2 -18 -14.5 -76.5 t-14.5 -70.5q-20 -113 15.5 -166t138.5 -56q47 -2 70.5 -29.5t15.5 -68.5t-40 -68.5t-81 -29.5q-104 -4 -158.5 -56.5t-74.5 -166.5q-4 -18 -21 -148q-29 -158 -132 -252t-339 -143q-49 -10 -77.5 14.5t-20.5 69.5z" />
<glyph unicode="~" horiz-adv-x="942" d="M174 534.5q0 28.5 8 45.5q35 94 82 140t127 46q61 0 161.5 -40t131.5 -40q61 0 96 64q23 43 66 43q31 0 53.5 -21.5t22.5 -48.5q0 -29 -9 -47q-35 -94 -82 -140.5t-126 -46.5q-61 0 -162 41t-131 41q-61 0 -97 -65q-23 -41 -65 -41q-31 0 -53.5 20.5t-22.5 49z" />
<glyph unicode="&#xa2;" horiz-adv-x="1189" d="M150.5 -83q-11.5 44 15.5 87l84 141q-135 156 -96 373t222 369.5t402 154.5h8l93 156q27 43 72.5 60.5t86.5 -1.5q39 -16 48.5 -60t-15.5 -85l-74 -121q55 -29 93 -63q31 -29 28.5 -74t-33.5 -80q-39 -39 -85 -44t-76 24q-14 12 -47 32l-330 -555q37 -12 86 -12 q106 0 207 66q41 29 85 22.5t70 -45.5q18 -33 4 -78t-55 -75q-170 -111 -350 -111q-90 0 -170 29l-66 -111q-41 -68 -116 -68q-25 0 -39 9q-41 16 -52.5 60zM375 518q-14 -74 12 -143l256 430q-100 -29 -176 -109t-92 -178z" />
<glyph unicode="&#xa3;" horiz-adv-x="1318" d="M143 88q10 70 84 90l109 31l63 360h-65q-45 0 -69.5 31t-16.5 76q6 43 43 74.5t82 31.5h65l33 189q41 229 191 356q145 127 366 127q246 0 369 -166q33 -39 24.5 -90t-51.5 -87t-96 -36t-84 39q-80 106 -201 107q-90 0 -160 -58q-80 -70 -104 -198l-31 -183h414 q43 0 68.5 -31.5t19.5 -74.5q-8 -45 -46 -76t-81 -31h-414l-61 -350h565q45 0 73 -32.5t19.5 -78t-46.5 -77t-85 -31.5h-897q-43 0 -64.5 25.5t-15.5 62.5z" />
<glyph unicode="&#xa5;" horiz-adv-x="1404" d="M117 303q6 39 37.5 65.5t68.5 26.5h316l26 150h-315q-37 0 -59.5 26.5t-14.5 63.5q6 39 37 65.5t68 26.5h243l-284 516q-23 39 -17 86q10 49 52 84t96 35q70 0 106 -70l264 -534l455 532q63 72 129 72q51 0 80 -32t18 -85q-8 -49 -45 -88l-473 -516h248q37 0 59.5 -26.5 t16.5 -65.5q-8 -37 -39 -63.5t-68 -26.5h-315l-27 -150h316q37 0 58.5 -26.5t14.5 -65.5q-6 -37 -37.5 -63.5t-68.5 -26.5h-315l-17 -98q-8 -51 -50 -86t-93 -35t-80 34.5t-19 86.5l17 98h-316q-37 0 -58 26.5t-15 63.5z" />
<glyph unicode="&#xa9;" horiz-adv-x="1699" d="M109 713v4q0 305 217 523t526 218t524 -216t215 -521v-4q0 -305 -217 -523.5t-526 -218.5t-524 216.5t-215 521.5zM186 713q0 -276 190.5 -470t471.5 -194q283 0 474 195.5t191 472.5v4q0 276 -190 469.5t-471 193.5q-283 0 -474.5 -195.5t-191.5 -471.5v-4zM465 723v4 q0 168 112.5 284.5t284.5 116.5q158 0 266 -88q33 -23 33 -61q0 -33 -21.5 -54.5t-52.5 -21.5q-23 0 -49 21q-84 66 -176 65q-102 0 -171.5 -75.5t-69.5 -184.5v-4q0 -106 69.5 -183t172 -77t188.5 74q23 18 45 18q29 0 50 -21.5t21 -50.5q0 -33 -22 -51 q-125 -109 -287 -108q-168 0 -280.5 114.5t-112.5 282.5z" />
<glyph unicode="&#xad;" horiz-adv-x="835" d="M135 704.5q0 30.5 21.5 52t52.5 21.5h381q31 0 51.5 -21.5t20.5 -52t-20.5 -52t-51.5 -21.5h-381q-31 0 -52.5 21.5t-21.5 52z" />
<glyph unicode="&#xae;" horiz-adv-x="851" d="M70 1094v2q0 147 104.5 252.5t251.5 105.5q150 0 253 -104.5t103 -251.5v-2q0 -147 -104.5 -253t-251.5 -106q-150 0 -253 105t-103 252zM111 1094q0 -131 91 -224.5t224 -93.5t224 94.5t91 225.5v2q0 131 -91 224t-224 93t-224 -94t-91 -225v-2zM299 911v355q0 33 33 32 h108q53 0 90 -37.5t37 -91.5q0 -57 -47 -98q16 -12 23 -22q18 -29 18 -64q0 -10 1 -22.5t1 -14.5q16 -4 23 -20q10 -31 -23 -41l-4 -2h-8q-12 0 -25 6q-10 6 -18 20q-12 27 -12 74q-4 18 -9 25q-6 10 -18 18q-10 6 -33 14h-69v-131q0 -14 -10.5 -23t-24.5 -9q-33 -1 -33 32z M367 1108h73q25 0 43.5 18.5t18.5 42.5q0 27 -18.5 44.5t-43.5 17.5h-73v-123z" />
<glyph unicode="&#xb4;" horiz-adv-x="1024" d="M412 1251q0 20 16 45l117 181q37 59 98 59q51 0 99.5 -25.5t48.5 -54.5q0 -31 -35 -61l-138 -131q-59 -55 -145 -56q-61 0 -61 43z" />
<glyph unicode="&#x2000;" horiz-adv-x="821" />
<glyph unicode="&#x2001;" horiz-adv-x="1644" />
<glyph unicode="&#x2002;" horiz-adv-x="821" />
<glyph unicode="&#x2003;" horiz-adv-x="1644" />
<glyph unicode="&#x2004;" horiz-adv-x="546" />
<glyph unicode="&#x2005;" horiz-adv-x="409" />
<glyph unicode="&#x2006;" horiz-adv-x="272" />
<glyph unicode="&#x2007;" horiz-adv-x="272" />
<glyph unicode="&#x2008;" horiz-adv-x="204" />
<glyph unicode="&#x2009;" horiz-adv-x="327" />
<glyph unicode="&#x200a;" horiz-adv-x="90" />
<glyph unicode="&#x2010;" horiz-adv-x="835" d="M135 704.5q0 30.5 21.5 52t52.5 21.5h381q31 0 51.5 -21.5t20.5 -52t-20.5 -52t-51.5 -21.5h-381q-31 0 -52.5 21.5t-21.5 52z" />
<glyph unicode="&#x2011;" horiz-adv-x="835" d="M135 704.5q0 30.5 21.5 52t52.5 21.5h381q31 0 51.5 -21.5t20.5 -52t-20.5 -52t-51.5 -21.5h-381q-31 0 -52.5 21.5t-21.5 52z" />
<glyph unicode="&#x2012;" horiz-adv-x="835" d="M135 704.5q0 30.5 21.5 52t52.5 21.5h381q31 0 51.5 -21.5t20.5 -52t-20.5 -52t-51.5 -21.5h-381q-31 0 -52.5 21.5t-21.5 52z" />
<glyph unicode="&#x2013;" horiz-adv-x="1081" d="M154 627q12 49 56 83.5t91 34.5h639q47 0 72.5 -34.5t13.5 -83.5q-14 -47 -57 -82t-90 -35h-639q-47 0 -73.5 35t-12.5 82z" />
<glyph unicode="&#x2014;" horiz-adv-x="1839" d="M156 627q14 49 58 83.5t91 34.5h1397q47 0 72.5 -34.5t11.5 -83.5q-16 -47 -60.5 -82t-91.5 -35h-1396q-47 0 -71.5 35t-10.5 82z" />
<glyph unicode="&#x2018;" horiz-adv-x="471" d="M158 1034v21q0 201 102 299q84 88 193 88q63 0 63 -58q0 -41 -49 -55q-145 -45 -139 -182q49 -14 82.5 -51t33.5 -88v-17q0 -59 -38.5 -98t-100.5 -39q-68 0 -107.5 49t-39.5 131z" />
<glyph unicode="&#x2019;" horiz-adv-x="471" d="M121 913q0 41 47 56q145 45 139 184q-49 12 -83 48t-34 89v17q0 59 39 98t101 39q68 0 107.5 -49t39.5 -131v-21q0 -199 -100 -299q-88 -88 -193 -88q-63 0 -63 57z" />
<glyph unicode="&#x201c;" horiz-adv-x="839" d="M158 1034v21q0 201 102 299q84 88 193 88q63 0 63 -58q0 -41 -49 -55q-145 -45 -139 -182q49 -14 82.5 -51t33.5 -88v-17q0 -59 -38.5 -98t-100.5 -39q-68 0 -107.5 49t-39.5 131zM633 1034v21q0 199 100 299q88 88 193 88q66 0 65 -58q0 -41 -49 -55q-145 -45 -139 -182 q49 -14 83 -51t34 -88v-17q0 -59 -39 -98t-101 -39q-68 0 -107.5 49t-39.5 131z" />
<glyph unicode="&#x201d;" horiz-adv-x="839" d="M121 913q0 41 47 56q145 45 139 184q-49 12 -83 48t-34 89v17q0 59 39 98t101 39q68 0 107.5 -49t39.5 -131v-21q0 -199 -100 -299q-88 -88 -193 -88q-63 0 -63 57zM594 913q0 41 49 56q145 45 139 184q-49 12 -82.5 48t-33.5 89v17q0 59 38.5 98t100.5 39 q68 0 107.5 -49t39.5 -131v-21q0 -201 -102 -299q-84 -88 -193 -88q-63 0 -63 57z" />
<glyph unicode="&#x2026;" horiz-adv-x="1392" d="M168 102q0 41 30.5 71t71.5 30t71 -30t30 -71t-30 -71.5t-71 -30.5t-71.5 30.5t-30.5 71.5zM614 102q0 41 31 71t72 30t70.5 -30t29.5 -71t-29.5 -71.5t-70.5 -30.5t-72 30.5t-31 71.5zM1061 102q0 41 30.5 71t71.5 30t71 -30t30 -71t-30 -71.5t-71 -30.5t-71.5 30.5 t-30.5 71.5z" />
<glyph unicode="&#x202f;" horiz-adv-x="327" />
<glyph unicode="&#x205f;" horiz-adv-x="409" />
<glyph unicode="&#x2122;" horiz-adv-x="1413" d="M49 1386q12 49 60 50h372q20 0 31.5 -14.5t9.5 -35.5q-4 -20 -21.5 -33.5t-35.5 -13.5h-139l-82 -469q-12 -49 -60 -49q-18 0 -29.5 14.5t-7.5 34.5l82 469h-141q-18 0 -29.5 13.5t-9.5 33.5zM600 872l90 517q4 20 20.5 33.5t37.5 13.5h2q25 4 34 -19l134 -243l217 243 q18 20 45 19q20 0 31.5 -13.5t7.5 -33.5l-93 -517q-2 -20 -18 -34.5t-36.5 -14.5t-32 14.5t-9.5 34.5l64 367l-156 -174q-18 -20 -43 -21h-2q-25 0 -37 21l-94 174l-64 -367q-10 -49 -59 -49q-45 0 -39 49z" />
<glyph unicode="&#xe000;" horiz-adv-x="1010" d="M0 1010h1010v-1010h-1010v1010z" />
<glyph unicode="&#xfb01;" horiz-adv-x="1316" d="M944 111l149 800q8 47 47 80t86 33t74 -34q20 -26 20 -58q0 -10 -1 -21l-148 -800q-8 -47 -47 -80t-86 -33t-75 33q-21 25 -21 59q0 10 2 21zM1151 1276l6 43q10 47 49 80t84 33q47 0 75 -33q21 -25 21 -59q0 -10 -2 -21l-8 -43q-8 -47 -47 -81t-86 -34t-74 34 q-20 26 -20 59q0 11 2 22zM143 948q10 47 49 80t84 33h54l6 29q18 119 74 200q63 98 170 125q55 18 125 19q47 0 74 -34q21 -26 22 -60q0 -10 -2 -21q-10 -47 -49 -80t-84 -33q-41 0 -54 -6q-10 -4 -14 -6q-20 -20 -37 -104l-4 -29h59q47 0 75 -33q21 -25 22 -59 q0 -10 -2 -21q-10 -47 -49 -80.5t-84 -33.5h-62l-127 -721q-8 -47 -47 -80t-86 -33t-74 33q-20 25 -20 58q0 10 2 22l127 721h-53q-47 0 -75 33q-21 26 -22 60q0 10 2 21z" />
<glyph unicode="&#xfb02;" horiz-adv-x="1251" d="M956 113l213 1206q8 47 48 80t87 33t74 -33q20 -25 20 -59q0 -10 -2 -21l-213 -1206q-8 -47 -47 -81t-86 -34t-75 34q-21 26 -21 60q0 10 2 21zM143 948q10 47 49 80t84 33h54l6 29q18 119 74 200q63 98 170 125q55 18 125 19q47 0 74 -34q21 -26 22 -60q0 -10 -2 -21 q-10 -47 -49 -80t-84 -33q-41 0 -54 -6q-10 -4 -14 -6q-20 -20 -37 -104l-4 -29h59q47 0 75 -33q21 -25 22 -59q0 -10 -2 -21q-10 -47 -49 -80.5t-84 -33.5h-62l-127 -721q-8 -47 -47 -80t-86 -33t-74 33q-20 25 -20 58q0 10 2 22l127 721h-53q-47 0 -75 33q-21 26 -22 60 q0 10 2 21z" />
<glyph unicode="&#xfb03;" horiz-adv-x="2058" d="M1686 111l149 800q8 47 47 80t86 33t74 -34q20 -26 20 -58q0 -10 -1 -21l-148 -800q-8 -47 -47 -80t-86 -33t-75 33q-21 25 -21 59q0 10 2 21zM1893 1276l6 43q10 47 49 80t84 33q47 0 75 -33q21 -25 21 -59q0 -10 -2 -21l-8 -43q-8 -47 -47 -81t-86 -34t-74 34 q-20 26 -20 59q0 11 2 22zM884 948q10 47 49 80t84 33h54l6 29q18 119 74 200q63 98 170 125q55 18 125 19q47 0 74 -34q21 -26 22 -60q0 -10 -2 -21q-10 -47 -49 -80t-84 -33q-41 0 -54 -6q-10 -4 -14 -6q-20 -20 -37 -104l-4 -29h59q47 0 75 -33q21 -25 22 -59 q0 -10 -2 -21q-10 -47 -49 -80.5t-84 -33.5h-62l-127 -721q-8 -47 -47 -80t-86 -33t-74 33q-20 25 -20 58q0 10 2 22l127 721h-53q-47 0 -75 33q-21 26 -22 60q0 10 2 21zM143 948q10 47 49 80t84 33h54l6 29q18 119 74 200q63 98 170 125q55 18 125 19q47 0 74 -34 q21 -26 22 -60q0 -10 -2 -21q-10 -47 -49 -80t-84 -33q-41 0 -54 -6q-10 -4 -14 -6q-20 -20 -37 -104l-4 -29h59q47 0 75 -33q21 -25 22 -59q0 -10 -2 -21q-10 -47 -49 -80.5t-84 -33.5h-62l-127 -721q-8 -47 -47 -80t-86 -33t-74 33q-20 25 -20 58q0 10 2 22l127 721h-53 q-47 0 -75 33q-21 26 -22 60q0 10 2 21z" />
<glyph unicode="&#xfb04;" horiz-adv-x="1992" d="M1698 113l213 1206q8 47 48 80t87 33t74 -33q20 -25 20 -59q0 -10 -2 -21l-213 -1206q-8 -47 -47 -81t-86 -34t-75 34q-21 26 -21 60q0 10 2 21zM884 948q10 47 49 80t84 33h54l6 29q18 119 74 200q63 98 170 125q55 18 125 19q47 0 74 -34q21 -26 22 -60q0 -10 -2 -21 q-10 -47 -49 -80t-84 -33q-41 0 -54 -6q-10 -4 -14 -6q-20 -20 -37 -104l-4 -29h59q47 0 75 -33q21 -25 22 -59q0 -10 -2 -21q-10 -47 -49 -80.5t-84 -33.5h-62l-127 -721q-8 -47 -47 -80t-86 -33t-74 33q-20 25 -20 58q0 10 2 22l127 721h-53q-47 0 -75 33q-21 26 -22 60 q0 10 2 21zM143 948q10 47 49 80t84 33h54l6 29q18 119 74 200q63 98 170 125q55 18 125 19q47 0 74 -34q21 -26 22 -60q0 -10 -2 -21q-10 -47 -49 -80t-84 -33q-41 0 -54 -6q-10 -4 -14 -6q-20 -20 -37 -104l-4 -29h59q47 0 75 -33q21 -25 22 -59q0 -10 -2 -21 q-10 -47 -49 -80.5t-84 -33.5h-62l-127 -721q-8 -47 -47 -80t-86 -33t-74 33q-20 25 -20 58q0 10 2 22l127 721h-53q-47 0 -75 33q-21 26 -22 60q0 10 2 21z" />
</font>
</defs>
</svg>
