<?xml version="1.0" standalone="no"?>
<!DOCTYPE svg PUBLIC "-//W3C//DTD SVG 1.1//EN" "http://www.w3.org/Graphics/SVG/1.1/DTD/svg11.dtd" >
<svg xmlns="http://www.w3.org/2000/svg">
<metadata>
This is a custom SVG webfont generated by Font Squirrel.
Copyright   : 12 Copyright e  Castcraft Software Inc 19901991
</metadata>
<defs>
<font id="OPDelphinTWO" horiz-adv-x="917" >
<font-face units-per-em="2048" ascent="1638" descent="-410" />
<missing-glyph horiz-adv-x="297" />
<glyph unicode=" "  horiz-adv-x="297" />
<glyph unicode="&#x09;" horiz-adv-x="297" />
<glyph unicode="&#xa0;" horiz-adv-x="297" />
<glyph unicode="!" horiz-adv-x="418" d="M105 70q0 48 34.5 83t82.5 35t83 -34.5t35 -83.5q0 -48 -34.5 -82.5t-83.5 -34.5q-48 0 -82.5 34.5t-34.5 82.5zM180 1121q35 29 81.5 67t79.5 60t49 22q11 0 20 -7.5t9 -20.5q0 -14 -5.5 -41.5l-17.5 -87.5t-39.5 -205t-53 -311t-25.5 -258q0 -22 -9 -30.5t-38 -15.5 q-22 -3 -25 -3q-18 0 -18 24z" />
<glyph unicode="&#x22;" horiz-adv-x="357" d="M41 1338q0 46 14.5 72t50.5 26q37 0 52 -25t15 -72q0 -22 -5 -63.5t-8 -62.5l-36 -295h-33l-37 291q-4 33 -8.5 68t-4.5 61zM232 1339q0 47 14 72t50 25q37 0 52 -25.5t15 -72.5q0 -22 -4.5 -63t-7.5 -62l-36 -295h-33l-37 291q-4 33 -8.5 68.5t-4.5 61.5z" />
<glyph unicode="#" horiz-adv-x="863" d="M14 229l27 78h183l61 167h-184l28 76h182l94 263h95l-91 -263h159l93 263h99l-94 -263h184l-26 -76h-186l-60 -167h185l-26 -78h-187l-94 -268h-97l96 268h-161l-96 -268h-97l95 268h-182zM321 307h160l61 167h-162z" />
<glyph unicode="$" horiz-adv-x="707" d="M41 153q0 64 37 106t75 42q23 0 24 -25q0 -7 -4 -30.5t-4 -38.5q0 -91 48 -138t127 -55v390q-133 59 -200.5 126t-67.5 213q0 129 70 217.5t198 99.5v94h68v-93q95 0 156 -45t61 -127q0 -53 -32.5 -90.5t-64.5 -37.5q-8 0 -17 9t-8 16q0 4 5 27t5 35q0 54 -28.5 91 t-76.5 46v-380q156 -76 226 -138t70 -207q0 -134 -82.5 -229t-213.5 -107v-117h-68v117q-123 0 -213 58.5t-90 170.5zM224 828q0 -65 31 -108t89 -77v342q-51 -12 -85.5 -50t-34.5 -107zM412 15q70 10 102 58.5t32 114.5q0 65 -35.5 108t-98.5 74v-355z" />
<glyph unicode="%" horiz-adv-x="888" d="M41 478q0 144 54 219t203 75q18 0 34 -2.5t30 -6.5q25 -21 42 -59.5t17 -103.5q0 -145 -53 -220t-202 -75q-26 0 -41.5 2.5t-23.5 4.5q-22 15 -41 58.5t-19 107.5zM149 489q0 -80 16.5 -116t59.5 -36q46 0 67.5 61.5t21.5 166.5q0 76 -16 126t-53 50q-53 0 -74.5 -65 t-21.5 -187zM305 -7l257 771h65l-262 -771h-60zM509 166q0 144 53.5 219t203.5 75q18 0 33.5 -2.5t29.5 -6.5q25 -21 42.5 -60t17.5 -104q0 -145 -53.5 -219.5t-202.5 -74.5q-26 0 -41.5 2t-23.5 5q-22 15 -40.5 58.5t-18.5 107.5zM616 177q0 -80 17 -116t59 -36 q46 0 67.5 61.5t21.5 166.5q0 76 -16 125.5t-53 49.5q-53 0 -74.5 -64.5t-21.5 -186.5z" />
<glyph unicode="&#x26;" horiz-adv-x="981" d="M64 104v229q0 227 111 411.5t329 184.5q59 0 88.5 -19t29.5 -70q0 -120 -122.5 -241.5t-275.5 -170.5q0 -10 -3 -43t-3 -55q0 -142 54 -206.5t196 -64.5q124 0 173.5 94t49.5 197q0 26 -1.5 41t-8.5 50q-137 -61 -185 -119.5t-48 -129.5q0 -14 -21 -14q-15 0 -19 18 t-10 59.5t-6 60.5q0 99 64 163t191 132l131 69q84 44 124 76t40 142q0 21 24 21q18 0 21.5 -16t7.5 -70t4 -87v-29q0 -57 -16.5 -82.5t-38 -42t-67 -42.5t-89.5 -53q0 -216 -99.5 -379.5t-323.5 -163.5q-64 0 -124 19.5t-112.5 50t-58.5 39t-6 41.5zM200 992q55 148 182 266 t265 118q69 0 106 -35.5t37 -110.5q0 -68 -33 -171t-80 -151q-8 -10 -25.5 0.5t-10.5 22.5q25 48 48 108t23 114q0 59 -42.5 95t-96.5 36q-79 0 -170.5 -83t-135 -157t-50.5 -74q-8 0 -14.5 7t-2.5 15zM234 486q106 30 178 114.5t72 170.5q0 35 -15.5 60.5t-44.5 25.5 q-90 0 -140 -124t-50 -247z" />
<glyph unicode="'" horiz-adv-x="385" d="M43 847l3 11q69 115 136.5 274.5t67.5 238.5q0 10 13 18t27 8q19 0 25 -14q14 -29 34 -86t37 -109q-21 -32 -59 -87.5t-101.5 -138t-132.5 -151.5q-11 -11 -30.5 3.5t-19.5 32.5z" />
<glyph unicode="(" horiz-adv-x="297" d="M41 337q0 278 59.5 507.5t106 309t60.5 79.5q11 0 20 -8.5t9 -20.5q0 -8 -35.5 -67.5t-64.5 -243t-29 -380.5q0 -184 24.5 -347t41.5 -214t17 -63q0 -17 -18 -25.5t-40 -15t-52 -6.5q-17 0 -25.5 7t-23.5 59t-32.5 173.5t-17.5 255.5z" />
<glyph unicode=")" horiz-adv-x="297" d="M43 -129q0 8 35 68t64 243t29 380q0 184 -24 347t-41.5 216.5t-17.5 60.5q0 17 18 25.5t40.5 15t52.5 6.5q17 0 25 -7t23.5 -59t32.5 -173.5t17 -255.5q0 -278 -59.5 -507.5t-105.5 -309t-60 -79.5q-11 0 -20 8.5t-9 20.5z" />
<glyph unicode="*" horiz-adv-x="483" d="M41 1327h190l70 130l33 -118l150 14l-107 -108l24 -157l-123 112l-162 -112l50 147z" />
<glyph unicode="+" horiz-adv-x="823" d="M29 323v154h323v327h152v-327h320v-154h-320v-323h-152v323h-323z" />
<glyph unicode="," horiz-adv-x="241" d="M-138 -467q57 101 148 336.5t97 279.5t18 52t26 8q17 0 23 -13q15 -32 33 -85t35 -103q-26 -48 -70.5 -131t-119 -199.5t-145.5 -190.5q-11 -12 -33 8t-12 38z" />
<glyph unicode="-" horiz-adv-x="443" d="M45.5 361q4.5 -4 19.5 -4l159 4q29 0 84 -3.5t58 -3.5q8 -1 18 -2q12 0 24 18l33 60q4 8 0 12t-20 4l-176 -4l-125 7q-8 1 -18 2q-12 0 -23 -18l-33 -60q-5 -8 -0.5 -12z" />
<glyph unicode="." horiz-adv-x="265" d="M41 66q0 47 32.5 79.5t79.5 32.5t79.5 -32.5t32.5 -79.5t-32.5 -79.5t-79.5 -32.5t-79.5 32.5t-32.5 79.5z" />
<glyph unicode="/" horiz-adv-x="601" d="M22 -48l534 1158l67 -32l-533 -1158z" />
<glyph unicode="0" d="M162 263q0 256 96 390.5t362 134.5q29 0 59.5 -5.5t55.5 -11.5q48 -40 77.5 -107t29.5 -186q0 -257 -97 -391t-361 -134q-44 0 -73 5t-42 7q-43 28 -75 103.5t-32 194.5zM355 282q0 -274 134 -274q83 0 121 108.5t38 300.5q0 137 -27.5 225.5t-95.5 88.5 q-93 0 -131.5 -118t-38.5 -331z" />
<glyph unicode="1" d="M210 28q0 29 12 29l50 2q61 0 83 38t22 141l21 294v57q0 73 -11 97t-59 24l-50 3q-12 0 -13 29q0 28 13 28q1 0 84 -7t120 -7q70 0 132.5 9.5t79.5 12.5q8 1 13.5 -7t5.5 -21q0 -19 -12 -22l-57 -9q-57 -10 -70.5 -46t-13.5 -141l-21 -294q0 -99 23 -139t82 -40l50 -2 q12 -3 12 -32q0 -25 -12 -25q-7 0 -93 7t-148 7q-54 0 -112.5 -5t-118.5 -9q-12 0 -12 28z" />
<glyph unicode="2" d="M105 17v45q0 17 15 17q160 0 283.5 103.5t123.5 314.5q0 77 -30 121.5t-87 44.5q-65 0 -109.5 -58t-44.5 -120q0 -6 -10.5 -13.5t-18.5 -7.5q-18 0 -18 22q0 109 71.5 204t204.5 95q83 0 155 -54.5t72 -166.5q0 -130 -71.5 -236.5t-138.5 -139.5t-67 -46 q0 -12 37.5 -26.5t173.5 -38.5t237 -24q7 0 9 -3.5t-1 -8.5l-16 -30q-7 -11 -20 -11q-54 1 -194.5 4t-226.5 3q-94 0 -168 -1.5t-143 -5.5q-18 0 -18 17z" />
<glyph unicode="3" d="M116 -359q0 8 3 15l5 14q18 0 69.5 -5.5t64.5 -5.5q164 0 248.5 100.5t84.5 276.5q0 76 -55.5 113.5t-120.5 37.5q-22 0 -50 -8t-40 -10q-12 -4 -20.5 3.5t-8.5 18.5q0 8 69 51t127 110.5t58 175.5q0 55 -24 87.5t-92 32.5q-65 0 -114 -38t-80 -144q-1 -10 -18 -10 q-15 0 -15 12q0 112 73.5 211t219.5 99q40 0 74.5 -10.5t67 -31t48.5 -61.5t16 -103q0 -105 -73 -180q-59 -55 -79.5 -74.5t-20.5 -24.5q0 -7 14 -7q109 0 169.5 -58t60.5 -174q0 -207 -142.5 -325.5t-371.5 -118.5h-49q-43 0 -57.5 3t-27.5 8.5t-13 19.5z" />
<glyph unicode="4" d="M46 40q0 25 23 58l234 314q33 46 112.5 161t114.5 165t50 43q3 -1 46.5 -18t72.5 -25t28 -24l-57 -626q32 -8 70 -11.5t86 -3.5h35q17 0 32 2q33 0 33 -11q0 -4 -10.5 -23t-17.5 -27t-12 -14h-223l-34 -303q-3 -25 -7 -32.5t-24 -18.5l-83 -50q-17 -10 -23 -9 q-11 0 -11 18q1 10 1 15l25 380h-153q-88 0 -152.5 -3t-118.5 -7q-14 6 -25.5 18.5t-11.5 31.5zM178 152l10 -37q72 -11 158.5 -22t166.5 -11l36 584q-44 -64 -94.5 -137t-110 -156t-101.5 -137t-65 -84z" />
<glyph unicode="5" d="M106 -333q0 26 16 22q23 -7 70.5 -12.5t86.5 -5.5q131 0 211.5 68t80.5 186q0 80 -32 118.5t-133 94.5l-22 13q-95 54 -128.5 100t-33.5 111q0 22 1.5 36.5t15.5 100.5l58 287l444 -16l-33 -137h-380q-7 -35 -12.5 -66t-5.5 -53q0 -48 27.5 -86t101.5 -84l71 -43 q102 -62 152 -101.5t50 -167.5q0 -173 -122 -289t-307 -116q-47 0 -92.5 7.5t-65 14t-19.5 18.5z" />
<glyph unicode="6" d="M120 347q0 361 197.5 579t526.5 218q18 0 18 -25q0 -17 -14 -16q-267 -22 -407 -236.5t-140 -523.5q0 -162 40 -254t114 -92q73 0 122.5 106t49.5 254q0 141 -42 211t-119 70q-28 -3 -40 -2q-18 0 -18 20q0 12 31.5 20t100.5 8q131 0 202 -69t71 -245q0 -192 -99 -304.5 t-259 -112.5q-177 0 -256 107t-79 287z" />
<glyph unicode="7" d="M108 594l32 212h724q12 0 24.5 -19t5.5 -30l-314 -523l-355 -615q-6 -10 -28.5 0.5t-16.5 22.5l501 1002h-467q-25 0 -49.5 -18t-44.5 -37z" />
<glyph unicode="8" d="M127 234q0 98 54 172t176 154q-82 87 -115 145.5t-33 123.5q0 127 73 226.5t235 99.5q127 0 200 -57t73 -179q0 -105 -42.5 -168.5t-138.5 -117.5q127 -97 175 -162t48 -166q0 -156 -84.5 -254t-270.5 -98q-166 0 -258 75.5t-92 205.5zM263 267q0 -111 55.5 -194.5 t154.5 -83.5q95 0 149.5 62t54.5 151q0 133 -142 239q-97 64 -138 92q-134 -137 -134 -266zM350 945q0 -80 46 -143.5t150 -136.5q76 48 103 122t27 150q0 72 -42.5 127t-116.5 55q-79 0 -123 -50.5t-44 -123.5z" />
<glyph unicode="9" d="M109 -348q0 17 14 16q257 22 392.5 229t135.5 505q0 155 -39.5 244t-108.5 89t-118 -102t-49 -245q0 -137 40.5 -204.5t115.5 -67.5q7 -1 21.5 1t21.5 2q4 1 7.5 -5t3.5 -15q0 -11 -28.5 -19t-97.5 -8q-127 0 -194.5 66.5t-67.5 235.5q0 187 94.5 295.5t250.5 108.5 q170 0 246 -104.5t76 -275.5q0 -348 -190 -559t-508 -211q-7 0 -12.5 7t-5.5 17z" />
<glyph unicode=":" horiz-adv-x="294" d="M55 66q0 47 32.5 79.5t79.5 32.5t79.5 -32.5t32.5 -79.5t-32.5 -79.5t-79.5 -32.5t-79.5 32.5t-32.5 79.5zM84 656q0 47 32.5 79.5t79.5 32.5t79.5 -32.5t32.5 -79.5t-32.5 -79.5t-79.5 -32.5t-79.5 32.5t-32.5 79.5z" />
<glyph unicode=";" horiz-adv-x="265" d="M-138 -467q57 101 148 336.5t97 279.5t18 52t26 8q17 0 23 -13q15 -32 33 -85t35 -103q-26 -48 -70.5 -131t-119 -199.5t-145.5 -190.5q-11 -12 -33 8t-12 38zM41 457q0 47 32.5 79.5t79.5 32.5t79.5 -32.5t32.5 -79.5t-32.5 -79.5t-79.5 -32.5t-79.5 32.5t-32.5 79.5z " />
<glyph unicode="&#x3c;" horiz-adv-x="630" d="M30 278v146l600 224v-135l-459 -162l459 -163v-135z" />
<glyph unicode="=" horiz-adv-x="849" d="M25 126v131h825v-131h-825zM25 430v131h825v-131h-825z" />
<glyph unicode="&#x3e;" horiz-adv-x="608" d="M29 48v132l442 156l-442 156v130l579 -216v-142z" />
<glyph unicode="?" horiz-adv-x="548" d="M65 1032l70 212q68 23 161 23q109 0 174 -50.5t65 -144.5q0 -91 -70 -245.5t-154 -302t-144 -248.5q-4 -7 -20 -0.5t-12 14.5q55 129 101 238.5t89.5 239.5t43.5 199q0 66 -32 99.5t-87 33.5q-51 0 -80.5 -18t-50.5 -45.5t-29 -27.5q-7 0 -18 6t-7 17zM87 70 q0 48 34.5 83t83.5 35q48 0 82.5 -34.5t34.5 -83.5q0 -48 -34.5 -82.5t-82.5 -34.5t-83 34.5t-35 82.5z" />
<glyph unicode="@" horiz-adv-x="1274" d="M33 377q0 141 63 274t176.5 213t226 111t231.5 31q152 0 274 -52.5t184.5 -137.5t73.5 -166t11 -112q0 -104 -39 -209t-99 -152t-108.5 -63.5t-95.5 -16.5q-40 0 -75 13.5t-56 41.5t-28 77q-46 -73 -99 -103.5t-122 -30.5q-54 0 -103 24.5t-81.5 79t-32.5 133.5 q0 101 48 192.5t122.5 148.5t150.5 57q86 0 126 -28.5t62 -81.5l26 85h170l-90 -315q-14 -48 -22 -86.5t-8 -56.5q0 -28 12 -42q17 -17 47 -17l25 3q54 11 94 57t69 117.5t29 167.5q0 64 -15.5 120.5t-69 130t-176.5 112t-232 38.5q-141 0 -263.5 -70.5t-180.5 -176 t-75 -179.5t-17 -151q0 -69 13.5 -133.5t62 -151.5t167.5 -150.5t241 -63.5q124 0 242 31.5t233 102.5l34 -58q-119 -76 -251.5 -115.5t-263.5 -39.5q-163 0 -302.5 69.5t-222.5 199.5t-83 273q0 8 -1.5 27t-1.5 29zM515 279q0 -54 30.5 -75.5t55.5 -21.5t64.5 19.5 t81.5 132t47.5 154t5.5 58.5q0 51 -27.5 71.5t-63.5 20.5q-15 0 -22 -1q-7 -4 -40 -15t-82.5 -146t-49.5 -197z" />
<glyph unicode="A" horiz-adv-x="1174" d="M44 28q0 29 13 29l49 2q48 0 79 37.5t65 134.5l239 664l15 59q6 23 11.5 28t46.5 14.5t72.5 18t49.5 14.5t23 6.5t6 0.5q19 0 24 -19l26 -87l225 -699q33 -104 55 -138t68 -34l50 -2q12 0 12 -29q0 -28 -12 -28q-3 0 -99.5 7t-131.5 7q-51 0 -110.5 -5t-120.5 -9 q-12 0 -12 28q0 29 12 29l50 2q62 0 62 46q0 17 -7.5 46.5t-22.5 79.5l-39 121h-343l-44 -121q-7 -18 -19.5 -59t-12.5 -64q0 -48 65 -49l50 -2q12 0 13 -29q0 -28 -13 -28q-10 0 -77.5 7t-113.5 7q-54 0 -118.5 -7t-71.5 -7q-13 0 -13 28zM426 428h290l-108 332 q-12 37 -20.5 56.5t-12.5 26.5z" />
<glyph unicode="B" horiz-adv-x="939" d="M44 28q0 29 13 29l49 2q65 0 99 41t34 138v530q0 97 -28.5 138t-90.5 41l-50 2q-12 0 -12 29q0 28 12 28q6 0 101.5 -7t157.5 -7q48 0 149.5 7t118.5 7q112 0 179 -64t67 -174q0 -90 -50.5 -144.5t-130.5 -80.5q122 0 198.5 -63t76.5 -191q0 -138 -81.5 -214t-229.5 -76 q-44 0 -160 7.5t-137 7.5q-54 0 -126.5 -5t-145.5 -9q-13 0 -13 28zM419 228q0 -98 38 -137.5t112 -39.5q95 0 140.5 55.5t45.5 150.5q0 101 -64.5 164.5t-190.5 63.5q-25 0 -45 -2.5t-36 -5.5v-249zM419 553q14 -3 34 -6.5t39 -3.5q79 0 126 55.5t47 149.5q0 111 -65 153.5 t-181 42.5v-391z" />
<glyph unicode="C" horiz-adv-x="1133" d="M44 515q0 229 149.5 383t439.5 154q117 0 232 -23.5t134 -35.5t20.5 -19.5t1.5 -19.5q0 -68 1.5 -120.5t2.5 -99.5q0 -6 -6.5 -10.5t-23.5 -4.5q-23 0 -30 15q-30 87 -114.5 152t-278.5 65q-173 0 -271 -101.5t-98 -295.5q0 -200 114 -321.5t327 -121.5q164 0 257 59 t148 152l26 44q3 4 11 4q15 0 32 -10q12 -8 12 -15q0 -2 -1 -5q-30 -61 -86 -164t-106 -180q-51 -14 -123.5 -28t-184.5 -14q-279 0 -432 150t-153 411z" />
<glyph unicode="D" horiz-adv-x="1166" d="M44 28q0 29 13 29l49 2q65 0 99 41t34 138v530q0 97 -28.5 138t-90.5 41l-50 2q-12 0 -12 29q0 28 12 28q6 0 101.5 -7t157.5 -7q61 0 188 7t164 7q216 0 350 -114.5t134 -355.5q0 -235 -129 -386t-319 -151q-68 0 -212 7.5t-176 7.5q-54 0 -126.5 -5t-145.5 -9 q-13 0 -13 28zM419 297q0 -134 41.5 -185t180.5 -51q184 0 256.5 102t72.5 308q0 207 -107 337t-314 130q-47 0 -73.5 -2t-56.5 -7v-632z" />
<glyph unicode="E" horiz-adv-x="891" d="M44 28q0 29 13 29l49 2q65 0 99 41t34 138v530q0 97 -28.5 138t-90.5 41l-50 2q-12 0 -12 29q0 28 12 28q6 0 101.5 -7t157.5 -7q68 0 245.5 6.5t180.5 6.5q35 0 34 -25l-3 -86l3 -104q0 -12 -29 -12q-32 0 -32 12l-2 50q0 40 -37.5 57.5t-134.5 17.5h-135v-371l135 -2 q104 0 138 12.5t34 54.5l2 50q0 12 32 13q29 0 29 -13l-3 -141l3 -152q0 -12 -29 -12q-32 0 -32 12l-2 50q0 43 -37.5 46.5t-134.5 3.5h-127q-3 -43 -5.5 -95t-2.5 -102q0 -72 5.5 -103.5t36.5 -51.5t71.5 -25t75.5 -7q115 0 152 31.5t58 103.5l14 48q3 8 19 9q15 0 29 -6.5 t11 -15.5l-55 -204q-10 -37 -23.5 -42.5t-93.5 -5.5q-101 6 -213 10t-177 4q-54 0 -126.5 -5t-145.5 -9q-13 0 -13 28z" />
<glyph unicode="F" horiz-adv-x="804" d="M44 28q0 29 13 29l49 2q65 0 99 41t34 138v530q0 97 -28.5 138t-90.5 41l-50 2q-12 0 -12 29q0 28 12 28q6 0 101.5 -7t157.5 -7q68 0 245.5 6.5t180.5 6.5q35 0 34 -25l-3 -86l3 -104q0 -12 -29 -12q-32 0 -32 12l-2 50q0 40 -40.5 57.5t-138.5 17.5h-128v-371h128 q108 0 143.5 11.5t35.5 53.5l2 50q0 12 32 13q29 0 29 -13l-3 -141l3 -152q0 -12 -29 -12q-32 0 -32 12l-2 50q0 43 -39.5 46.5t-139.5 3.5h-124l-4 -228q0 -94 34.5 -136.5t97.5 -42.5l50 -2q12 -3 13 -32q0 -25 -13 -25q-7 0 -109 7t-163 7q-54 0 -126.5 -5t-145.5 -9 q-13 0 -13 28z" />
<glyph unicode="G" horiz-adv-x="1213" d="M44 491q0 283 164.5 422t420.5 139q138 0 236 -20t172 -45t74 -61l3 -191q0 -12 -32 -12q-35 0 -35 12l-2 32q0 68 -119.5 121.5t-298.5 53.5q-184 0 -291 -116.5t-107 -326.5q0 -192 88 -295t214.5 -137t278.5 -34q94 0 110 10t16 70v54q0 95 -33.5 125.5t-123.5 30.5 l-49 3q-12 0 -13 29q0 28 13 28q4 0 118.5 -7t176.5 -7q144 14 176 14q12 0 12 -28q0 -29 -12 -29l-24 -3q-39 -6 -50.5 -23t-11.5 -58v-105q0 -37 11 -45.5t44 -8.5q17 0 17 -28q0 -18 -39.5 -38.5t-165 -41.5t-265.5 -21q-294 0 -483.5 136t-189.5 401z" />
<glyph unicode="H" horiz-adv-x="1285" d="M44 28q0 29 13 29l49 2q65 0 99 41t34 138v530q0 97 -28.5 138t-90.5 41l-50 2q-12 0 -12 29q0 28 12 28q6 0 101.5 -7t157.5 -7q51 0 119.5 4.5t138.5 9.5q12 0 13 -28q0 -29 -13 -29l-49 -2q-62 0 -90.5 -40.5t-28.5 -138.5v-230h485q3 50 4 111t1 119q0 97 -28 138 t-91 41l-49 2q-12 0 -13 29q0 28 13 28q6 0 101 -7t157 -7q51 0 119.5 4.5t139.5 9.5q12 0 12 -28q0 -29 -12 -29l-50 -2q-62 0 -90.5 -40.5t-28.5 -138.5v-530q0 -94 34.5 -136.5t98.5 -42.5l49 -2q12 -3 13 -32q0 -25 -13 -25q-7 0 -109 7t-163 7q-54 0 -126.5 -5 t-145.5 -9q-12 0 -13 28q0 29 13 29l50 2q65 0 98.5 41t33.5 138l-2 210l-269 4l-215 -4l-4 -210q0 -94 34.5 -136.5t97.5 -42.5l50 -2q12 -3 13 -32q0 -25 -13 -25q-7 0 -109 7t-163 7q-54 0 -126.5 -5t-145.5 -9q-13 0 -13 28z" />
<glyph unicode="I" horiz-adv-x="613" d="M44 28q0 29 13 29l49 2q65 0 99 41t34 138v530q0 97 -28.5 138t-90.5 41l-50 2q-12 0 -12 29q0 28 12 28q6 0 101.5 -7t157.5 -7q51 0 119.5 4.5t138.5 9.5q12 0 13 -28q0 -29 -13 -29l-49 -2q-62 0 -90.5 -40.5t-28.5 -138.5v-530q0 -94 34.5 -136.5t97.5 -42.5l50 -2 q12 -3 13 -32q0 -25 -13 -25q-7 0 -109 7t-163 7q-54 0 -126.5 -5t-145.5 -9q-13 0 -13 28z" />
<glyph unicode="J" horiz-adv-x="602" d="M48 -315q0 17 58 48t95.5 122t37.5 207v706q0 97 -28.5 138t-90.5 41l-50 2q-12 0 -12 29q0 28 12 28q6 0 101.5 -7t157.5 -7q51 0 119.5 4.5t138.5 9.5q12 0 13 -28q0 -29 -13 -29l-49 -2q-62 0 -90.5 -40.5t-28.5 -138.5v-617q0 -214 -88.5 -318.5t-258.5 -176.5 q-3 -1 -5 -1q-6 0 -11 4q-8 7 -8 26z" />
<glyph unicode="K" horiz-adv-x="1043" d="M44 28q0 29 13 29l49 2q65 0 99 41t34 138v530q0 97 -28.5 138t-90.5 41l-50 2q-12 0 -12 29q0 28 12 28q6 0 101.5 -7t157.5 -7q51 0 110.5 4.5t120.5 9.5q12 0 12 -28q0 -29 -12 -29l-50 -2q-58 0 -74.5 -36t-16.5 -143v-530q0 -94 34.5 -136.5t97.5 -42.5l50 -2 q12 -3 13 -32q0 -25 -13 -25q-7 0 -109 7t-163 7q-54 0 -126.5 -5t-145.5 -9q-13 0 -13 28zM467 455q0 28 72 121l189 243q40 53 40 88q0 40 -54 40l-49 2q-12 0 -13 29q0 28 13 28q1 0 73.5 -5.5t101.5 -5.5q48 0 94.5 3.5t99.5 7.5q12 0 12 -28q0 -29 -12 -29l-42 -2 q-44 0 -95 -62.5t-99.5 -126.5t-83 -112.5t-62.5 -88.5q22 -53 101 -174.5t173.5 -246t134.5 -156t40 -48.5q0 -19 -31 -19q-48 0 -63 4t-77 43.5t-192.5 164.5t-179.5 187t-70 90t-21 53z" />
<glyph unicode="L" horiz-adv-x="967" d="M44 28q0 29 13 29l49 2q65 0 99 41t34 138v530q0 97 -28.5 138t-90.5 41l-50 2q-12 0 -12 29q0 28 12 28q6 0 101.5 -7t157.5 -7q51 0 119.5 4.5t138.5 9.5q12 0 13 -28q0 -29 -13 -29l-49 -2q-62 0 -90.5 -40.5t-28.5 -138.5v-499q0 -61 5.5 -98t36.5 -57t96 -25t123 -7 q116 0 156 31t59 101l14 49q3 8 21 8q17 0 28.5 -5t8.5 -14l-55 -204q-10 -37 -23.5 -42.5t-93.5 -5.5q-126 6 -263.5 10t-202.5 4q-54 0 -126.5 -5t-145.5 -9q-13 0 -13 28z" />
<glyph unicode="M" horiz-adv-x="1564" d="M44 28q0 29 13 29l49 2q62 0 88 39.5t26 139.5l59 691q-10 8 -25.5 15.5t-40.5 7.5l-50 3q-12 0 -12 26q0 23 12 24h142h50h18h15q59 0 76.5 2.5t23.5 2.5h8q18 0 27 -9.5t35.5 -80t61 -162.5t63.5 -162l127 -309q22 59 76.5 199t115.5 298t73.5 191.5t24.5 33.5l18 -3 q53 -10 130 -12t202 -2q12 0 12 -27q0 -29 -12 -29l-50 -3q-54 0 -65 -8.5t-11 -52.5v-28l45 -599q0 -94 35 -136.5t98 -42.5l50 -2q12 -3 12 -35q0 -29 -12 -29q-7 0 -109.5 7t-162.5 7q-54 0 -126.5 -5t-146.5 -9q-12 0 -12 30q0 33 12 34l50 2q65 0 99 41t34 138l-44 616 l-159 -397l-185 -478q-3 -7 -13.5 -11t-24.5 -4q-32 0 -40 19l-191 467q-11 25 -56.5 142t-69.5 177.5t-38 99.5l-54 -638q-1 -11 -1 -24v-21q0 -73 26 -103.5t81 -30.5l50 -2q12 -3 13 -32q0 -25 -13 -25q-65 4 -116.5 7t-102.5 3q-57 0 -107.5 -3.5t-87.5 -6.5 q-13 0 -13 28z" />
<glyph unicode="N" horiz-adv-x="1351" d="M44 28q0 29 13 29l49 2q65 0 99 41t34 138v530q0 97 -28.5 138t-90.5 41l-50 2q-12 0 -12 29q0 28 12 28q40 -3 87.5 -5t71.5 -2q33 0 68.5 2t61.5 5q23 0 29.5 -3.5t30.5 -28.5l637 -673v467q0 94 -34.5 136.5t-98.5 42.5l-50 2q-12 0 -12 29q0 28 12 28q6 0 94.5 -7 t150.5 -7q48 0 105 4.5t115 9.5q12 0 12 -26q0 -28 -12 -31l-50 -2q-65 0 -99 -41t-34 -138v-785q0 -18 -41 -18q-25 0 -30 1.5t-16 14.5l-729 808v-551q0 -94 34.5 -136.5t97.5 -42.5l50 -2q12 -3 12 -32q0 -25 -12 -25q-4 0 -96 7t-124 7q-54 0 -117.5 -5t-126.5 -9 q-13 0 -13 28z" />
<glyph unicode="O" horiz-adv-x="1205" d="M53 503q0 249 154 399t422 150q269 0 422.5 -149.5t153.5 -399.5q0 -249 -154 -399t-422 -150q-269 0 -422.5 149.5t-153.5 399.5zM238 503q0 -200 103.5 -319.5t287.5 -119.5q182 0 286.5 119.5t104.5 319.5t-103.5 319.5t-287.5 119.5q-182 0 -286.5 -119.5 t-104.5 -319.5z" />
<glyph unicode="P" horiz-adv-x="854" d="M44 28q0 29 13 29l49 2q65 0 99 41t34 138v530q0 97 -28.5 138t-90.5 41l-50 2q-12 0 -12 29q0 28 12 28q6 0 101.5 -7t157.5 -7q51 0 110.5 4.5t122.5 9.5q145 0 219 -63t74 -201q0 -148 -95 -224.5t-256 -76.5q-29 0 -29 29q0 30 25 30h24q65 0 105 61t40 170 q0 124 -56.5 166.5t-142.5 42.5q-12 0 -26 -1.5t-25 -4.5v-696q0 -94 34.5 -136.5t97.5 -42.5l50 -2q12 -3 13 -32q0 -25 -13 -25q-7 0 -109 7t-163 7q-54 0 -126.5 -5t-145.5 -9q-13 0 -13 28z" />
<glyph unicode="Q" horiz-adv-x="1196" d="M44 503q0 249 154 399t422 150q269 0 423 -149.5t154 -399.5q0 -166 -70.5 -291t-201.5 -191q68 -62 143.5 -122.5t138.5 -106.5t63 -57q0 -8 -12 -12.5t-45.5 -10.5t-57.5 -6q-115 59 -186.5 99t-103.5 64l-127 94q-57 -8 -118 -9q-269 0 -422.5 149.5t-153.5 399.5z M229 503q0 -199 104 -319t283 -120q23 22 53 51t52 47.5t31 18.5q7 0 19 -12l53 -54q91 54 139.5 153.5t48.5 234.5q0 200 -104 319.5t-288 119.5q-182 0 -286.5 -119.5t-104.5 -319.5z" />
<glyph unicode="R" horiz-adv-x="1086" d="M44 28q0 29 13 29l49 2q65 0 99 41t34 138v530q0 97 -28.5 138t-90.5 41l-50 2q-12 0 -12 29q0 28 12 28q6 0 101.5 -7t157.5 -7q50 0 160.5 7t139.5 7q120 0 202 -59.5t82 -197.5q0 -101 -46 -166.5t-139 -101.5q46 -104 154.5 -252.5t174.5 -205t66 -63.5 q0 -11 -23 -16t-51 -8q-18 -2 -27 -1h-6q-65 37 -114 66t-117 84.5t-134 145.5t-116 195q-15 3 -40 2.5t-40 1.5h-36v-192q0 -94 34.5 -136.5t97.5 -42.5l50 -2q12 -3 13 -32q0 -25 -13 -25q-7 0 -109 7t-163 7q-54 0 -126.5 -5t-145.5 -9q-13 0 -13 28zM416 511 q51 -11 102 -11q102 0 150.5 59t48.5 167q0 104 -58 157.5t-160 53.5q-40 0 -78 -7q-3 -33 -4 -73t-1 -80v-266z" />
<glyph unicode="S" horiz-adv-x="742" d="M91 17l10 280q0 17 26 17q36 0 36 -20q0 -111 55.5 -187.5t179.5 -76.5q80 0 123.5 42.5t43.5 114.5q0 83 -42 127.5t-139 90.5l-52 25q-140 65 -184 127.5t-44 195.5q0 138 82 218.5t238 80.5q70 0 122 -14.5t80 -32.5v-187q0 -12 -32 -12q-30 0 -30 16q0 69 -43.5 116 t-122.5 47q-77 0 -116.5 -45.5t-39.5 -128.5q0 -55 45 -98.5t122 -75.5l40 -17q142 -59 210 -131.5t68 -201.5q0 -142 -90 -237.5t-249 -95.5q-75 0 -162.5 19t-134.5 44z" />
<glyph unicode="T" horiz-adv-x="1065" d="M37 803q0 11 8 85t8 95q0 23 22 23q68 0 241 -7t240 -7q83 0 248.5 7t231.5 7q22 0 23 -23q0 -32 4.5 -79t10.5 -101q0 -17 -33 -17q-25 0 -32 43t-24.5 66t-69.5 23h-270v-680q0 -94 34.5 -136.5t98.5 -42.5l50 -2q12 -3 12 -32q0 -25 -12 -25q-7 0 -109.5 7t-162.5 7 q-54 0 -126.5 -5t-146.5 -9q-12 0 -12 28q0 29 12 29l50 2q65 0 99 41t34 138v680h-270q-51 0 -69 -23.5t-25 -66t-32 -42.5q-33 0 -33 17z" />
<glyph unicode="U" horiz-adv-x="1238" d="M58 978q0 28 12 28q6 0 101.5 -7t157.5 -7q51 0 119.5 4.5t138.5 9.5q12 0 13 -28q0 -29 -13 -29l-49 -2q-62 0 -90.5 -40.5t-28.5 -138.5v-407q0 -158 64 -229t205 -71q124 0 192 60t68 237q0 102 -3 211.5t-5 198.5q0 94 -34.5 136.5t-98.5 42.5l-50 2q-12 0 -12 29 q0 28 12 28q6 0 94.5 -7t150.5 -7q48 0 105 4.5t115 9.5q12 0 12 -26q0 -28 -12 -31l-50 -2q-59 0 -80 -39t-21 -140q1 -51 4 -184t3 -226q0 -178 -103.5 -291t-337.5 -113q-189 0 -297.5 92t-108.5 317q0 111 4 256t4 149q0 97 -28.5 138t-90.5 41l-50 2q-12 0 -12 29z" />
<glyph unicode="V" horiz-adv-x="1174" d="M58 978q0 28 12 28q3 0 100 -7t131 -7q51 0 110.5 4.5t120.5 9.5q12 0 12 -28q0 -29 -12 -29l-50 -2q-65 0 -65 -53q0 -35 34 -126l205 -548q11 41 23 80.5t33 103.5l124 364q30 88 30 126q0 53 -63 53l-50 2q-12 0 -12 29q0 28 12 28q3 0 84 -7t118 -7q53 0 104 4.5 t103 9.5q12 0 13 -28q0 -29 -13 -29l-50 -2q-47 0 -75 -38t-68 -141l-268 -680q-15 -64 -22 -84.5t-47 -20.5h-107q-3 19 -7 44.5t-16 58.5l-259 682l-41 111q-29 68 -82 68l-50 2q-12 0 -12 29z" />
<glyph unicode="W" horiz-adv-x="1705" d="M58 978q0 28 12 28q3 0 100 -7t131 -7q53 0 109.5 4.5t114.5 9.5q12 0 13 -28q0 -29 -13 -29l-50 -2q-54 0 -54 -50q0 -33 30 -129l171 -548q11 41 24 88t31 96l127 346l-5 18q-35 101 -50 140t-66 39l-50 2q-12 0 -13 29q0 28 13 28q4 0 83 -7t141 -7q51 0 110.5 4.5 t120.5 9.5q12 0 12 -28q0 -29 -12 -29l-50 -2q-62 0 -62 -52q0 -19 6.5 -47.5t23.5 -79.5l171 -548q11 41 24.5 88t31.5 96l134 364q7 21 19 60.5t12 64.5q0 54 -64 54l-50 2q-12 0 -13 29q0 28 13 28q3 0 83.5 -7t118.5 -7q53 0 103.5 4.5t103.5 9.5q12 0 12 -28 q0 -29 -12 -29l-50 -2q-47 0 -74 -37.5t-70 -141.5l-277 -680q-10 -22 -18.5 -63.5t-50.5 -41.5h-97q-3 19 -7 44.5t-17 58.5l-179 525l-187 -523q-10 -40 -19 -78q-10 -26 -50 -27h-97q-3 19 -7 44.5t-16 58.5l-234 682q-30 91 -49.5 135t-73.5 44l-50 2q-12 0 -12 29z" />
<glyph unicode="X" horiz-adv-x="1180" d="M58 28q0 29 12 29l50 2q75 0 199 179l194 262l-194 268q-124 178 -199 179l-50 2q-12 0 -12 29q0 28 12 28q3 0 100 -7t131 -7q53 0 122.5 4.5t143.5 9.5q12 0 12 -28q0 -29 -12 -29l-50 -2q-53 0 -53 -36q0 -41 71 -143l87 -117l90 117q70 97 70 141q0 37 -52 38l-50 2 q-12 0 -13 29q0 28 13 28q8 0 76 -7t116 -7q46 0 102 4.5t114 9.5q12 0 12 -28q0 -29 -12 -29l-50 -2q-75 0 -199 -179l-154 -206l234 -324q64 -91 108.5 -135t90.5 -44l50 -2q12 0 12 -29q0 -28 -12 -28q-3 0 -100 7t-131 7q-53 0 -127.5 -5t-151.5 -9q-12 0 -13 28 q0 29 13 29l50 2q59 0 59 46q0 48 -64 133l-127 172l-130 -172q-64 -86 -63 -132q0 -47 66 -47l50 -2q12 0 12 -29q0 -28 -12 -28q-8 0 -98 7t-144 7q-40 0 -88.5 -5t-98.5 -9q-12 0 -12 28z" />
<glyph unicode="Y" horiz-adv-x="1019" d="M58 978q0 28 12 28q3 0 100 -7t131 -7q53 0 108 4.5t112 9.5q12 0 12 -28q0 -29 -12 -29l-50 -2q-40 0 -40 -34q0 -22 12.5 -55.5t41.5 -89.5l102 -200l93 200q43 91 43 133q0 46 -51 46l-50 2q-12 0 -13 29q0 28 13 28q1 0 75 -7t113 -7q51 0 99.5 4.5t96.5 9.5 q12 0 12 -28q0 -29 -12 -29l-50 -2q-44 0 -67 -37.5t-76 -141.5l-183 -344v-186q0 -94 34.5 -136.5t98.5 -42.5l50 -2q12 -3 12 -32q0 -25 -12 -25q-7 0 -109.5 7t-163.5 7q-54 0 -126.5 -5t-145.5 -9q-12 0 -12 28q0 29 12 29l50 2q65 0 99 41t34 138v185l-173 345 q-88 178 -158 179l-50 2q-12 0 -12 29z" />
<glyph unicode="Z" horiz-adv-x="1116" d="M44 36q0 10 4 14l763 801h-525q-51 0 -69 -23.5t-25 -65.5t-30 -42q-33 0 -33 17q0 22 7.5 123.5t7.5 122.5q0 23 22 23q68 0 241 -7t240 -7q80 0 204.5 7t200.5 7q14 0 24 -17.5t10 -33.5q0 -10 -35 -45t-177 -169t-293 -282.5t-314 -318.5h674q53 0 84.5 37t38.5 79 t30 42q33 0 34 -16q0 -30 -20 -141t-23.5 -133.5t-23.5 -22.5q-68 0 -241 7t-240 7q-77 0 -261.5 -7t-239.5 -7q-14 0 -24.5 17t-10.5 34z" />
<glyph unicode="[" horiz-adv-x="447" d="M69 -126v1363h393q6 0 9.5 -9t3.5 -19q0 -30 -13 -30l-52 -3q-82 0 -121.5 -39.5t-39.5 -145.5v-871q0 -105 40 -144.5t121 -39.5l52 -4q6 0 9.5 -9.5t3.5 -21.5q0 -26 -13 -27h-393z" />
<glyph unicode="\" horiz-adv-x="623" d="M23 1078l68 32l534 -1158l-68 -32z" />
<glyph unicode="]" horiz-adv-x="447" d="M7 -98q0 30 14 30l51 4q80 0 121 39.5t41 144.5v871q0 105 -40.5 145t-121.5 40l-51 3q-6 0 -10 9.5t-4 22.5q0 26 14 26h392v-1363h-392q-6 0 -10 9t-4 19z" />
<glyph unicode="^" horiz-adv-x="504" d="M41 864q0 4 52.5 68t108.5 132.5t67 68.5q7 0 18 -11l212 -246q4 -7 4 -12q0 -11 -12 -16q-18 -6 -30 -7t-27 -1q-29 1 -47 2q-11 0 -19.5 4t-17.5 16l-108 145q-11 11 -18 2q-41 -58 -71 -98t-46.5 -57.5t-30.5 -17.5q-12 0 -23.5 8.5t-11.5 19.5z" />
<glyph unicode="_" horiz-adv-x="971" d="M-14 -220h1015v-67h-1015v67z" />
<glyph unicode="`" horiz-adv-x="292" d="M41 1112q0 4 8 15.5t21.5 30t23.5 27.5t18 9q11 0 22 -21q39 -80 82.5 -167t60 -112t16.5 -30q0 -10 -9.5 -17t-22.5 -7q-17 0 -39 34t-91.5 121t-83.5 105q-6 11 -6 12z" />
<glyph unicode="a" horiz-adv-x="769" d="M41 98q0 140 74 278.5t160.5 230t163 117t193.5 25.5q59 0 58 -35v-9q-14 -86 -34 -246.5t-32.5 -253t-12.5 -110.5q0 -21 6 -28.5t24 -7.5q7 0 25.5 3.5t31.5 5.5l50 8q10 1 16 -10t6 -26t-9 -15q-142 -14 -203 -34.5t-72 -20.5q-30 0 -24 34q15 72 25 159t10 159 q-75 -116 -147 -232q-104 -135 -209 -136q-43 0 -71.5 37.5t-28.5 106.5zM171 213q0 -40 16 -65.5t41 -25.5q86 0 199 177.5t113 318.5q0 37 -16.5 54.5t-46.5 17.5q-87 0 -196.5 -174t-109.5 -303z" />
<glyph unicode="b" horiz-adv-x="704" d="M70 184q0 104 6 205.5t23 316.5q0 254 19 399.5t51 233.5q29 70 59 141h252q12 0 12 -18q0 -21 -12 -21l-36 -2q-98 0 -157.5 -180.5t-59.5 -549.5q55 26 111 43.5t107 17.5q120 0 175.5 -81.5t55.5 -221.5q0 -272 -108 -392.5t-276 -120.5q-99 0 -153.5 36t-61.5 61 t-7 133zM211 246q0 -138 38 -192.5t105 -54.5q90 0 115.5 87.5t25.5 263.5q0 184 -42.5 259.5t-115.5 75.5q-40 0 -71.5 -19t-44.5 -36z" />
<glyph unicode="c" horiz-adv-x="617" d="M41 227q0 120 30.5 238t113.5 204t228 86q98 0 167 -31v-137q0 -19 -11 -25t-47 -6h-18q-29 0 -35.5 3t-6.5 24q0 50 -21.5 88.5t-67.5 38.5q-79 0 -112.5 -135.5t-33.5 -336.5q0 -98 40 -148.5t127 -50.5q69 0 108.5 40t57.5 84t30 44q10 0 19 -7q8 -7 8 -15 q0 -42 -28 -87.5t-62 -78.5q-68 -64 -195 -65q-155 0 -223 62t-68 211z" />
<glyph unicode="d" horiz-adv-x="826" d="M41 105q0 245 153.5 445t330.5 200q-1 0 -1 -18t-63.5 -35t-174 -166.5t-110.5 -294.5q0 -48 17.5 -77t58.5 -29q104 0 191.5 183.5t112 476t49.5 433t71 257.5h251q12 0 13 -18q0 -21 -13 -21l-36 -2q-91 0 -136 -155.5t-67.5 -424t-30 -428t-7.5 -283.5q0 -44 5.5 -61 t23.5 -17q17 0 66 18l47 17q11 4 20 -9t9 -27q0 -10 -72.5 -30t-132 -52.5t-69.5 -32.5q-23 0 -25 31v65q0 35 2 72v26q0 61 -1.5 93.5t-8.5 87.5q-30 -48 -82.5 -128.5t-133 -164t-146.5 -83.5q-51 0 -81 34.5t-30 117.5z" />
<glyph unicode="e" horiz-adv-x="626" d="M41 218q0 198 83 377.5t271 179.5q84 0 143.5 -44t59.5 -148q0 -48 -9.5 -104t-22 -73.5t-87.5 -32.5t-176 -15l-78 4q-6 -25 -10.5 -59t-4.5 -61q0 -95 47 -149t120 -54q66 0 114.5 34.5t79.5 129.5q1 10 16 10q11 0 20 -8q7 -6 7 -13q0 -46 -33.5 -94.5t-73.5 -80.5 q-79 -63 -217 -63q-249 0 -249 264zM225 399q112 0 171.5 49t59.5 172q0 46 -18.5 75t-58.5 29q-77 0 -115.5 -119.5t-38.5 -205.5z" />
<glyph unicode="f" horiz-adv-x="538" d="M12 735q0 12 3 23.5t17 11.5h16q54 0 70.5 11.5t21.5 57.5l20 207q19 189 103 353t234 164q19 0 47 -1.5t35 -8.5t8.5 -21.5t1.5 -37.5q0 -19 -1 -34t-2 -26q0 -11 -11 -16.5t-28 -5.5q-36 0 -36 17q0 29 -9 47t-29 18q-44 0 -73.5 -79t-37.5 -182l-37 -415 q-3 -29 6 -38.5t38 -9.5h174q8 0 11.5 -10t3.5 -28q0 -33 -14 -33h-201q-17 0 -20 -23l-116 -1066q-1 -12 -14 -16l-53 -17q-11 -3 -16 -3q-15 0 -15 27l22 1098h-101q-18 0 -18 36z" />
<glyph unicode="g" horiz-adv-x="724" d="M29 -269q0 80 20 142.5t57 62.5q18 0 40.5 -11.5t48.5 -28.5q-1 -6 -8 -32t-7 -48q0 -17 7.5 -45.5t15.5 -40.5t8 -23q0 -12 -8 -17t-16 -2l-35 12q-18 10 -21.5 -11t-5.5 -34t-2 -16q0 -40 31 -64t80 -24q130 0 187 130t57 253l28 358q0 19 -9 19q-7 0 -60.5 -93.5 t-122.5 -160.5q-64 -62 -97 -62q-3 0 -6 1l-135 21q-25 4 -30 18.5t-5 65.5q0 158 77 303t176.5 237.5t167 111.5t200.5 19q21 0 29 -6.5t7 -27.5l-51 -703q0 -176 -95 -348t-307 -172q-116 0 -166 60.5t-50 155.5zM184 238q0 -37 14.5 -58.5t44.5 -21.5q59 0 131 100 t127 223t55 156q0 35 -20.5 50.5t-50.5 15.5q-95 0 -198 -176t-103 -289z" />
<glyph unicode="h" horiz-adv-x="769" d="M76 6q0 206 4 353.5t21 346.5q0 254 18.5 399.5t50.5 233.5q29 70 59 141h252q12 0 12 -18q0 -21 -12 -21l-36 -2q-91 0 -136 -155.5t-80 -557.5l-22 -372q0 -32 6 -32t46.5 92t152.5 240t213 148q59 0 88 -53.5t29 -158.5q0 -214 -83.5 -396t-200.5 -305t-215 -176 q-4 -2 -7 -2q-6 0 -13 6q-10 10 -10 22q0 6 96.5 84.5t177 294.5t80.5 428q0 112 -49 112q-97 0 -195.5 -216.5t-98.5 -408.5q0 -15 -13 -19l-87 -35q-14 -6 -20 -5q-25 0 -28 32z" />
<glyph unicode="i" horiz-adv-x="393" d="M14 709q0 15 12 18q72 7 135 20t122 32q14 3 18 3q29 0 25 -34l-76 -716q-1 -12 -14 -17l-105 -33q-5 -1 -9 -1q-19 0 -16 31l53 683l-119 -19q-12 -1 -19 8.5t-7 24.5zM155 1092q0 11 1 16q0 50 34 86.5t79 36.5q40 0 66.5 -30.5t26.5 -74.5q0 -12 -1 -18 q0 -50 -34.5 -85.5t-79.5 -35.5q-40 0 -66 30.5t-26 74.5z" />
<glyph unicode="j" horiz-adv-x="393" d="M-61 -426l57 82q65 94 84 143t19 135l61 762l-120 -20q-12 -1 -19 8.5t-7 24.5t12 18q72 7 135 20t122 32q14 3 18 3q29 0 25 -34l-76 -727q-3 -28 -5.5 -50t-9.5 -54q-6 -11 -21.5 -37t-50.5 -76l-185 -266q-4 -6 -11 -5q-14 0 -25 14q-6 8 -6 16q-1 6 3 11zM155 1092 q0 11 1 16q0 50 34 86.5t79 36.5q40 0 66.5 -30.5t26.5 -74.5q0 -12 -1 -18q0 -50 -34.5 -85.5t-79.5 -35.5q-40 0 -66 30.5t-26 74.5z" />
<glyph unicode="k" horiz-adv-x="753" d="M72 166q0 98 3.5 147.5t32.5 392.5q0 254 18.5 399.5t50.5 233.5q29 70 59 141h252q12 0 12 -18q0 -21 -12 -21l-36 -2q-99 0 -157.5 -171.5t-58.5 -541.5q0 -84 -4 -137.5t-10 -89.5q72 141 144 215t184 74q79 0 125 -36t46 -111q0 -97 -62.5 -179t-176.5 -110 q37 -113 118 -215t150 -165t69 -70q0 -22 -60 -22q-83 0 -208 121t-190 212.5t-65 104.5q0 28 54.5 33.5t128.5 83.5t74 173q0 35 -18 66t-53 31q-113 0 -198 -183t-85 -388v-115q0 -17 -12.5 -23t-55.5 -6q-54 0 -54 27q-5 65 -5 149z" />
<glyph unicode="l" horiz-adv-x="364" d="M76 -15q0 106 0.5 221t6 231t18.5 269q0 254 18.5 399.5t50.5 233.5q29 70 59 141h252q12 0 12 -18q0 -21 -12 -21l-36 -2q-91 0 -136 -155.5t-68 -424t-30.5 -428t-7.5 -283.5q0 -44 5.5 -61t23.5 -17q17 0 66 18l47 17q11 4 20 -9t9 -27q0 -10 -72.5 -30t-177.5 -78 q-14 -7 -23 -7q-24 1 -25 31z" />
<glyph unicode="m" horiz-adv-x="1240" d="M14 709q0 15 12 18q72 7 135 20t122 32q14 3 18 3q29 0 25 -34q-8 -94 -15.5 -187t-23.5 -231q37 72 159.5 250.5t139.5 184t30 5.5q41 0 83 -9t38 -38l-34 -402q65 108 180.5 273t131 170.5t23.5 5.5q17 0 39 -5t42.5 -9t16.5 -33l-55 -683l119 19q12 1 19 -8.5t7 -24.5 t-13 -18q-72 -7 -134.5 -20t-122.5 -32q-14 -3 -18 -3q-29 0 -25 35l52 551q1 10 1 17v9q0 19 -11 20q-19 0 -88.5 -100.5t-130 -229t-78.5 -238.5q-3 -17 -14 -17h-102q-26 0 -27 15q1 10 2 15l51 542q1 10 1 17v9q0 19 -11 20q-23 0 -95 -106.5t-137 -247t-73 -202.5 t-19 -62h-103q-26 0 -26 15q1 10 1 15l53 665l-119 -19q-12 -1 -19 8.5t-7 24.5z" />
<glyph unicode="n" horiz-adv-x="838" d="M14 709q0 15 12 18q72 7 135 20t122 32q14 3 18 3q29 0 25 -34q-8 -94 -15.5 -187t-23.5 -231q37 72 159.5 250.5t139.5 184t30 5.5q41 0 83 -9t38 -38l-57 -683l119 19q12 1 19 -8.5t7 -24.5t-12 -18q-72 -7 -135 -20t-122 -32q-14 -3 -18 -3q-29 0 -25 35l55 584 q3 19 3 26q0 19 -13 20q-23 0 -95 -106.5t-137 -247t-73 -202.5t-19 -62h-103q-26 0 -26 15q1 10 1 15l53 665l-119 -19q-12 -1 -19 8.5t-7 24.5z" />
<glyph unicode="o" horiz-adv-x="728" d="M41 253q0 247 93.5 377t349.5 130q28 0 56.5 -5.5t53.5 -11.5q46 -37 75 -102.5t29 -178.5q0 -247 -93.5 -377.5t-348.5 -130.5q-37 0 -63.5 3.5t-47.5 9.5q-41 28 -72.5 100.5t-31.5 185.5zM228 272q0 -134 29 -199t101 -65q80 0 116.5 104.5t36.5 289.5q0 133 -27 218 t-92 85q-90 0 -127 -113.5t-37 -319.5z" />
<glyph unicode="p" horiz-adv-x="815" d="M14 709q0 15 12 18q72 7 135 20t122 32q14 3 18 3q29 0 25 -34l-47 -455q41 159 150 324t225 165q54 0 94 -60.5t40 -150.5q0 -265 -120.5 -434t-320.5 -169q-21 0 -21 22q0 17 66.5 26.5t141.5 168t75 365.5q0 50 -10 77t-41 27q-54 0 -139 -140.5t-148.5 -381 t-63.5 -534.5q0 -12 -14 -17l-95 -33q-7 -3 -12 -2q-6 0 -9 3q-6 6 -4 30l86 1116l-119 -19q-12 -1 -19 8.5t-7 24.5z" />
<glyph unicode="q" horiz-adv-x="755" d="M41 102q0 221 154.5 448t358.5 227q43 0 90 -12t91 -38q-10 -51 -21 -122.5t-16 -126.5l-90 -879q-1 -17 -15 -20l-96 -34q-7 -3 -12 -2q-5 0 -8 3q-5 6 -4 30l44 757q-30 -50 -82 -129.5t-132.5 -164.5t-142.5 -85q-54 0 -86.5 39t-32.5 109zM180 236q0 -41 19 -64.5 t53 -23.5q112 0 205 185t93 289q0 36 -16 56.5t-49 20.5q-116 0 -210.5 -179t-94.5 -284z" />
<glyph unicode="r" horiz-adv-x="621" d="M14 709q0 15 12 18q72 7 135 20t122 32q14 3 18 3q29 0 25 -34l-43 -407q21 57 57.5 147.5t90.5 190t90 99.5q35 0 55 -4t33 -10l-12 -156q0 -35 -28 -28q-22 6 -42 6q-76 0 -140.5 -129t-98.5 -255t-52 -202l-131 -1l54 696l-119 -19q-12 -1 -19 8.5t-7 24.5z" />
<glyph unicode="s" horiz-adv-x="561" d="M41 35q0 41 10.5 102t20.5 79t22 18q11 0 20 -6.5t6 -16.5q-7 -23 -7 -49q0 -62 37 -108.5t121 -46.5q77 0 110.5 33t33.5 87q0 68 -79 112t-154 87q-83 64 -83 169q0 126 56 202.5t195 76.5q57 0 107 -20t61 -41q4 -7 -0.5 -45.5t-7.5 -69.5q0 -19 -29 -19q-21 0 -21 15 q0 59 -24 96.5t-92 37.5q-53 0 -84 -33.5t-31 -85.5q0 -70 78.5 -120t154.5 -95q82 -68 81 -176q0 -116 -74.5 -190t-212.5 -74q-70 0 -135.5 17.5t-72.5 31.5t-7 32z" />
<glyph unicode="t" horiz-adv-x="523" d="M14 737q0 11 2.5 23t15.5 12h105l22 148q4 26 7.5 31t25 10.5t52.5 14t42 13.5t16 5h6q21 0 18 -23l-29 -201h184q8 0 11.5 -10t3.5 -28q0 -33 -14 -33h-178q-17 0 -19 -23q-11 -72 -21 -155.5t-10 -143.5q0 -148 9 -235.5t88 -87.5q47 0 74 29.5t75 103.5q7 10 21 0 q11 -7 11 -16q0 -2 -1 -5q-33 -90 -95.5 -151t-146.5 -61q-66 0 -121 24.5t-91 65.5q7 76 13.5 168t6.5 176q8 98 13 144t13 101q4 33 -12 51t-61 18h-17q-19 0 -19 35z" />
<glyph unicode="u" horiz-adv-x="820" d="M14 710q0 15 12 18q72 7 135 20t122 33q14 3 18 3q29 0 25 -35l-55 -585q-3 -22 -3 -26q0 -19 13 -19q23 0 95 106.5t137 246.5t73 202.5t19 62.5h103q26 0 26 -16q-1 -10 -2 -15l-52 -665l119 20q12 1 19 -8.5t7 -24.5t-12 -18q-72 -7 -135 -20t-122 -33q-14 -3 -18 -3 q-29 0 -25 35q8 94 15.5 186.5t22.5 230.5q-37 -72 -159.5 -250t-139 -183.5t-30.5 -5.5q-41 0 -82.5 9t-37.5 38l57 682l-119 -19q-12 -1 -19 8.5t-7 24.5z" />
<glyph unicode="v" horiz-adv-x="910" d="M14 456q0 11 9 103t18 182h508q22 0 22 -18q0 -12 -75.5 -54.5t-133 -153t-57.5 -239.5q0 -108 41 -170.5t132 -62.5q104 0 169.5 88.5t65.5 209.5q0 36 -11 117.5t-11 124.5q0 97 25 135.5t102 38.5q30 0 51 -7t21 -29l-3 -16q-8 -25 -13.5 -80.5t-5.5 -107.5 q0 -43 2 -77.5t7.5 -55.5t5.5 -26q0 -18 -16.5 -24t-52.5 -6q-51 -113 -103 -191t-137 -129.5t-205 -51.5q-59 0 -113 9t-74 25.5t-30.5 78.5t-10.5 120q0 101 50.5 203.5t165.5 203.5h-266q-15 -43 -21 -74t-6 -66q0 -17 -25 -17t-25 17z" />
<glyph unicode="w" horiz-adv-x="1093" d="M14 709q0 15 12 18q72 7 135 20t122 32q14 3 18 3q29 0 25 -34q-11 -130 -17 -205t-23 -232q43 84 160.5 266t134 187.5t27.5 5.5q21 0 34 -2t39.5 -7.5t30.5 -13.5t4 -24l-58 -646q69 44 150 132t87 112t6 34q-8 41 -15.5 98.5t-7.5 129.5q0 97 24.5 135.5t102.5 38.5 q30 0 51 -7t21 -29l-3 -16q-8 -25 -14 -80.5t-6 -107.5q0 -43 2.5 -78t7 -50.5t4.5 -23.5q0 -36 -48 -36q-29 0 -69 12q-55 -116 -208.5 -250.5t-207.5 -134.5q-25 0 -36 9t-8 35l56 551q1 10 2 18v9q0 19 -11 19q-18 0 -86 -101t-129.5 -236.5t-69.5 -197.5t-19 -62h-103 q-26 0 -26 15q1 10 1 15l53 665l-119 -19q-12 -1 -19 8.5t-7 24.5z" />
<glyph unicode="x" horiz-adv-x="990" d="M36 72q0 55 15 140.5t26 111.5t29 26q17 0 28 -8t6 -19q-18 -37 -23.5 -75t-5.5 -79q0 -32 17 -63t45 -31q43 0 93 51t103 132l77 118l-150 244q-15 25 -31 38.5t-40 13.5q-23 0 -67 -21l-46 -22q-11 -6 -19.5 6.5t-8.5 27.5q0 12 40 29t125 54.5t130 61.5l171 -277 l39 59q72 108 133.5 156.5t168.5 48.5q57 0 68 -17t11 -77q0 -41 -6 -85t-16.5 -77t-32.5 -33q-33 0 -26 21q7 23 13 60.5t6 62.5q0 33 -16 53.5t-50 20.5q-41 0 -79.5 -47t-115.5 -163l-44 -68l169 -276q18 -30 32 -42.5t33 -12.5q25 0 74 25l45 22q11 6 19.5 -7t8.5 -28 q0 -12 -40 -28.5t-125 -54t-129 -62.5l-191 310l-72 -110q-69 -104 -133.5 -154t-169.5 -50q-58 0 -73 18t-15 76z" />
<glyph unicode="y" horiz-adv-x="950" d="M14 679q0 14 42 23.5t98 29.5t91.5 36.5t41.5 16.5q21 0 29 -29l112 -419q68 239 120.5 345.5t197.5 106.5q91 0 130.5 -55t39.5 -174q0 -217 -77.5 -450.5t-235 -397t-383.5 -163.5q-65 0 -113.5 11.5t-57.5 29.5t-9 70q0 66 14 147.5t29 111.5t39 30l83 -2q25 0 19 -23 q-15 -51 -27.5 -109t-12.5 -107q0 -65 27.5 -93t74.5 -28q173 0 312.5 288t139.5 595q0 86 -17.5 130.5t-62.5 44.5q-86 0 -131.5 -145t-45.5 -318q0 -53 4 -90t12 -67q3 -11 -11 -18l-99 -48q-8 -4 -13 -5q-8 0 -16 31l-199 696l-116 -37q-11 -3 -20 9t-9 26z" />
<glyph unicode="z" horiz-adv-x="871" d="M53 62q0 12 8 20.5t76 63t249.5 231t250.5 261.5l-195 5l-177 -5q-43 0 -49 -12t-13.5 -33.5t-24.5 -21.5q-32 0 -27 18q12 48 25 105.5t13 72.5q0 25 38 25q7 0 107.5 -4t180.5 -4q48 0 149.5 4t146.5 4q26 0 26 -26q0 -10 -35 -62.5t-140.5 -168t-188 -195 t-188.5 -176.5q69 -22 178 -36.5t198 -14.5l212 4l-41 -113l-416 -10q-72 0 -150 1.5t-143 4.5h-15q-28 0 -35 5t-13.5 27t-6.5 30z" />
<glyph unicode="{" horiz-adv-x="772" d="M41 413v87q86 14 127 28t88 46.5t64 79.5t17 118v38v141q0 105 9 152.5t66.5 111t158.5 90t201 26.5v-68q-80 -17 -100.5 -23t-78.5 -37t-77 -92t-19 -159v-124q0 -198 -80.5 -266.5t-290.5 -106.5q90 -10 150 -26t123.5 -63t83 -130.5t19.5 -180.5v-72q0 -162 51.5 -235 t218.5 -91v-70q-88 0 -155 12.5t-149 60.5t-106.5 123t-24.5 203v125q0 160 -65 219.5t-231 82.5z" />
<glyph unicode="|" horiz-adv-x="138" d="M54 -341v1574h84v-1574h-84z" />
<glyph unicode="}" horiz-adv-x="772" d="M46 -343q167 18 218.5 91.5t51.5 234.5v72q0 95 19.5 180.5t82 130t126 62.5t148.5 27q-209 39 -290 108t-81 265v124q0 101 -18 159.5t-73.5 89t-90 40.5t-93.5 22v68q99 0 200.5 -27t158.5 -88.5t66.5 -113.5t9.5 -151v-141v-38q0 -69 17 -118t66.5 -82t98.5 -47.5 t114 -24.5v-87q-166 -23 -231 -82t-65 -220v-125q0 -131 -23 -203.5t-107 -121.5t-150 -61.5t-155 -12.5v70z" />
<glyph unicode="~" horiz-adv-x="609" d="M41 868q8 61 52.5 116t120.5 55q65 0 152 -30.5t112 -30.5q30 0 49.5 14t27 29t17.5 15q7 0 25 -9t11 -33q-17 -57 -48 -105.5t-82 -48.5q-41 0 -150.5 45.5t-146.5 45.5q-41 0 -53.5 -20.5t-26.5 -49t-28 -28.5q-8 0 -21.5 6.5t-10.5 28.5z" />
<glyph unicode="&#xa1;" horiz-adv-x="342" d="M41 311q0 17 9 19l30 2q36 0 49 23.5t13 82.5l13 177v40q0 36 -3.5 51t-38.5 15l-30 3q-8 0 -8 18q0 15 8 15q3 0 44.5 -4t78.5 -4q39 0 70.5 4t56.5 10q11 3 11 -17q0 -14 -7 -14l-34 -5q-33 -6 -39 -22.5t-12 -89.5l-13 -177q0 -61 13 -83.5t51 -22.5l30 -2q7 -3 7 -19 q0 -15 -7 -15q-12 0 -76 4t-69 4q-46 0 -74 -3t-64 -5q-9 0 -9 15z" />
<glyph unicode="&#xa2;" horiz-adv-x="613" d="M41 227q0 173 61 324t216 191v108h68v-97l27 2q98 0 167 -31v-137q0 -19 -11 -25t-47 -6h-18q-29 0 -35.5 3t-6.5 24q0 44 -18 82t-58 44v-670h8q69 0 108.5 40t57.5 84t30 44q10 0 19 -7.5t7 -17.5q-19 -87 -75 -148.5t-155 -74.5v-133h-68v128q-145 0 -211 63.5 t-66 209.5zM227 238q0 -75 21 -120t70 -65v634q-48 -47 -69.5 -168t-21.5 -281z" />
<glyph unicode="&#xa3;" horiz-adv-x="1018" d="M41 36q0 79 57.5 144t164.5 65q54 0 103.5 -12t90.5 -26q1 11 3.5 21.5t2.5 24.5q0 57 -32 115t-91 127h-227v76h181q-23 59 -35.5 107.5t-12.5 99.5q0 126 89 209.5t229 83.5q102 0 167.5 -50.5t65.5 -127.5q0 -54 -30 -88t-56.5 -41.5t-30.5 -7.5q-21 0 -21 23 q0 11 3 17q1 7 4 24t3 31q0 73 -32.5 111.5t-85.5 38.5q-61 0 -99.5 -40.5t-38.5 -109.5q0 -68 29 -132t101 -148h281v-76h-234q25 -64 25 -122q0 -79 -57 -196q91 -35 153.5 -54t103.5 -19q47 0 67 19t89 131q7 11 30 0t17 -25q-41 -101 -107.5 -193.5t-144.5 -92.5 q-61 0 -152.5 28.5t-171.5 57.5q-57 -32 -127 -63t-145 -31q-54 0 -91.5 26.5t-37.5 74.5zM112 36q0 -23 26 -36.5t65 -13.5q68 0 155 65q-41 15 -84 30.5t-78 15.5q-33 0 -58.5 -19t-25.5 -42z" />
<glyph unicode="&#xa4;" horiz-adv-x="512" />
<glyph unicode="&#xa6;" horiz-adv-x="138" d="M54 289h84v-630h-84v630zM54 597v630h84v-630h-84z" />
<glyph unicode="&#xa7;" horiz-adv-x="464" d="M41 496q0 209 114 335.5t305 126.5q11 0 11 -14q0 -10 -8 -10q-153 0 -235 -128.5t-82 -312.5q0 -91 23.5 -145t65.5 -54q41 0 70 61t29 147q0 83 -24 123.5t-68 40.5l-25 -3q-10 0 -10 13q0 6 10 8.5t30 5t38 2.5q76 0 116.5 -40.5t40.5 -141.5q0 -112 -56.5 -177 t-150.5 -65q-102 0 -148 63t-46 165z" />
<glyph unicode="&#xa8;" horiz-adv-x="634" d="M44 966q0 12 5 41t36 61.5t70 32.5q32 0 55.5 -28t23.5 -68q0 -12 -8.5 -73t-102.5 -61q-32 0 -55.5 28t-23.5 67zM444 966q0 12 5.5 42t35.5 61.5t69 31.5q32 0 55.5 -28t23.5 -68q0 -12 -8.5 -73t-102.5 -61q-32 0 -55 28t-23 67z" />
<glyph unicode="&#xa9;" horiz-adv-x="764" d="M-70 -218q0 48 12 82.5t19 40t46 18.5l173 51q-39 36 -58.5 67.5t-19.5 66.5q0 19 7.5 42t25 42t54.5 50q-80 53 -109 105t-29 134q0 124 68.5 213.5t199.5 89.5q66 0 210.5 -44t180.5 -44q28 0 40.5 26t19.5 41q3 7 20 0.5t14 -15.5q-8 -28 -24.5 -68t-29 -65t-24.5 -18 q-18 10 -57.5 22.5t-74.5 23.5q7 -33 13.5 -74t6.5 -72q0 -112 -69.5 -187.5t-181.5 -75.5q-32 0 -65 4t-42 5q-12 -8 -20.5 -20t-8.5 -30q0 -39 44.5 -65t111.5 -49l153 -56q104 -36 144.5 -69.5t40.5 -131.5q0 -130 -120 -208t-300 -78q-127 0 -249 60t-122 186zM80 -227 q0 -88 90 -140t196 -52q90 0 156.5 50t66.5 119q0 72 -118.5 127t-216.5 55q-79 0 -126.5 -41t-47.5 -118zM216 464q0 -97 24.5 -141.5t71.5 -44.5q66 0 107 71.5t41 206.5q0 93 -25 142.5t-83 49.5q-73 0 -104.5 -79t-31.5 -205z" />
<glyph unicode="&#xaa;" horiz-adv-x="433" d="M30 86q0 11 9 11q153 0 234.5 128.5t81.5 312.5q0 91 -23.5 145t-64.5 54q-43 0 -72 -61t-29 -147q0 -83 24 -123.5t70 -40.5l25 3q6 0 7 -10t-5 -11q-12 -3 -32 -5.5t-38 -2.5q-76 0 -117 40.5t-41 141.5q0 112 57 177t151 65q102 0 147 -62.5t45 -165.5 q0 -209 -114 -335.5t-305 -126.5q-10 1 -10 13z" />
<glyph unicode="&#xab;" horiz-adv-x="945" d="M14 395q0 14 24 21.5t142 81t192 145.5q11 11 19 11q7 0 15.5 -10t31 -43t29.5 -45.5t7 -16.5q0 -12 -18 -19l-272 -122q82 -26 166 -56.5t107 -48.5q23 -15 24 -28q0 -10 -8.5 -20t-28.5 -45.5t-26 -49t-12 -13.5q-4 0 -18 11.5t-175.5 113t-180 108t-18.5 25.5z M488 394q0 14 16 21q36 11 151 82t191 146q11 11 19 11q7 0 15.5 -10t31 -43t29.5 -45.5t7 -16.5q0 -12 -18 -19l-272 -122q82 -26 166 -56.5t107 -48.5q23 -15 24 -28q0 -10 -7 -18t-28.5 -46t-27.5 -51t-12 -13q-4 0 -18 11.5t-175.5 113t-180 108t-18.5 24.5z" />
<glyph unicode="&#xac;" horiz-adv-x="967" d="M42.5 436q1.5 -8 21.5 -3q48 8 130 10.5t174 2.5h120q50 0 157.5 -6t218.5 -12q7 -1 11 -1h5q11 0 16 7t12.5 15t28.5 39.5t28 43.5q4 8 -0.5 12.5t-19.5 4.5q-44 0 -189 2t-256 5q-51 0 -156.5 1t-195.5 3q-19 1 -25 -2q-8 -8 -17 -15.5t-32 -43t-30 -50.5 q-3 -5 -1.5 -13z" />
<glyph unicode="&#xad;" horiz-adv-x="443" d="M45.5 361q4.5 -4 19.5 -4l159 4q29 0 84 -3.5t58 -3.5q8 -1 18 -2q12 0 24 18l33 60q4 8 0 12t-20 4l-176 -4l-125 7q-8 1 -18 2q-12 0 -23 -18l-33 -60q-5 -8 -0.5 -12z" />
<glyph unicode="&#xaf;" horiz-adv-x="918" d="M41 1208q0 47 32.5 79.5t79.5 32.5t79.5 -32.5t32.5 -79.5t-32.5 -79.5t-79.5 -32.5t-79.5 32.5t-32.5 79.5zM695 1208q0 47 32.5 79.5t79.5 32.5t79.5 -32.5t32.5 -79.5t-32.5 -79.5t-79.5 -32.5t-79.5 32.5t-32.5 79.5z" />
<glyph unicode="&#x2c9;" horiz-adv-x="918" d="M41 1208q0 47 32.5 79.5t79.5 32.5t79.5 -32.5t32.5 -79.5t-32.5 -79.5t-79.5 -32.5t-79.5 32.5t-32.5 79.5zM695 1208q0 47 32.5 79.5t79.5 32.5t79.5 -32.5t32.5 -79.5t-32.5 -79.5t-79.5 -32.5t-79.5 32.5t-32.5 79.5z" />
<glyph unicode="&#xb0;" horiz-adv-x="449" d="M41 431q0 57 30.5 99t102.5 90q-47 48 -66.5 83t-19.5 72q0 75 42.5 132.5t136.5 57.5q73 0 115 -33.5t42 -103.5q0 -61 -25 -97.5t-80 -68.5q75 -57 102.5 -93.5t27.5 -95.5q0 -90 -49.5 -147.5t-156.5 -57.5q-95 0 -148.5 43.5t-53.5 119.5zM119 451q0 -65 31.5 -113.5 t89.5 -48.5q57 0 88 36t31 88q0 75 -83 137q-57 37 -80 54q-77 -78 -77 -153zM170 843q0 -46 27 -83t86 -80q44 29 59.5 71t15.5 86q0 43 -24 75t-67 32q-46 0 -71.5 -30t-25.5 -71z" />
<glyph unicode="&#xb1;" horiz-adv-x="465" d="M43 185q0 41 25 67.5t51 26.5q15 0 15 -15q0 -8 -3.5 -26t-3.5 -22q0 -59 27.5 -91t77.5 -39l15 251q-80 41 -121.5 87.5t-41.5 142.5q0 84 50 140t134 56l3 63l47 -2l-6 -61q64 -8 100 -36.5t36 -82.5q0 -36 -22 -58t-46 -22q-4 1 -9.5 6.5t-4.5 9.5q-1 7 3.5 22.5 t4.5 19.5q0 75 -64 90l-13 -244q95 -54 138 -98t43 -138q0 -87 -58.5 -147t-144.5 -60l-4 -78l-44 3l4 76q-80 8 -134 47.5t-54 111.5zM185 618q-4 -41 14.5 -69.5t56.5 -55.5l9 221q-32 -4 -56 -29.5t-24 -66.5zM276 84q47 0 69.5 30.5t26.5 74.5q0 44 -21.5 73.5 t-61.5 49.5z" />
<glyph unicode="&#xb2;" horiz-adv-x="512" d="M41 305v28q0 10 9 10q95 0 169.5 62.5t74.5 188.5q0 46 -18.5 73t-51.5 27q-37 0 -65 -34.5t-28 -72.5q0 -12 -18 -12q-10 0 -9 12q0 66 42.5 123t122.5 57q48 0 92 -33t44 -100q0 -80 -41.5 -142t-83 -83t-41.5 -28t24 -16.5t101 -23t143 -13.5q3 0 3.5 -3t2.5 -4 l-10 -18q-6 -7 -12 -7l-253 4l-187 -4q-10 -1 -10 9z" />
<glyph unicode="&#xb3;" horiz-adv-x="438" d="M41.5 81.5q1.5 8.5 5.5 16.5q17 -1 41 -4t39 -3q99 0 149 59.5t50 167.5q0 44 -34 67t-71 23q-11 0 -23.5 -3.5t-30.5 -7.5q-11 -3 -16.5 6.5t2.5 13.5q80 50 114 90t34 105q0 33 -14.5 52.5t-54.5 19.5q-51 0 -76 -29.5t-33 -57.5t-18 -28q-8 0 -8 7q0 68 43.5 127.5 t131.5 59.5q47 0 85 -25t38 -100q0 -64 -43 -107q-36 -32 -56 -53q-4 -4 -3.5 -7.5t7.5 -3.5q65 0 101.5 -35t36.5 -104q0 -123 -85.5 -194.5t-222.5 -71.5h-36q-32 0 -47 8q-7 3 -5.5 11.5z" />
<glyph unicode="&#xb4;" horiz-adv-x="292" d="M41 865q0 4 15.5 27t61.5 116t82 165q11 21 24 21q7 0 16 -9t26 -31t22 -28.5t5 -13.5q0 -4 -50.5 -70t-101.5 -134t-68 -68q-14 0 -23 9t-9 16z" />
<glyph unicode="&#xb5;" horiz-adv-x="703" d="M26 1097q0 12 10 17l253 81q70 -48 157 -145.5t160.5 -257.5t73.5 -359q0 -224 -108 -351.5t-347 -127.5q-32 0 -68.5 10t-53 26t-39.5 90.5t-23 180.5q0 256 91.5 372t239.5 116q11 0 11 -19q0 -14 -47 -28t-88 -113.5t-41 -263.5q0 -123 33.5 -212.5t114.5 -89.5 q70 0 115 91t45 272q0 287 -129.5 493.5t-269.5 206.5q-22 0 -39 -5l-29 -9q-8 -3 -15 5.5t-7 19.5z" />
<glyph unicode="&#xb6;" horiz-adv-x="406" d="M44 100.5q4 10.5 9 8.5q10 -3 43.5 -7t49.5 -4q80 0 128 41t48 113q0 48 -18 69.5t-82 57.5l-12 7q-54 32 -76 60.5t-22 66.5q0 22 5 46t6 37l35 171l266 -10l-20 -81h-228q-1 -6 -6.5 -34t-5.5 -38q0 -29 17 -52t62 -50l42 -25q66 -40 93.5 -62.5t27.5 -99.5 q0 -104 -74 -173.5t-183 -69.5q-23 0 -55 5t-47 10q-7 3 -3 13.5z" />
<glyph unicode="&#xb7;" horiz-adv-x="280" />
<glyph unicode="&#x2219;" horiz-adv-x="280" />
<glyph unicode="&#xb8;" horiz-adv-x="280" d="M44 -187l47 105q8 17 25 13l123 -22q41 -7 42 -54q0 -19 -10 -35l-158 -254q-4 -7 -16 -7t-20 6.5t-4 15.5l62 121q10 19 10 38q0 35 -39 42l-49 9q-21 4 -13 22z" />
<glyph unicode="&#xb9;" d="M210 28q0 29 12 29l50 2q61 0 83 38t22 141l21 294v57q0 73 -11 97t-59 24l-50 3q-12 0 -13 29q0 28 13 28q1 0 84 -7t120 -7q70 0 132.5 9.5t79.5 12.5q8 1 13.5 -7t5.5 -21q0 -19 -12 -22l-57 -9q-57 -10 -70.5 -46t-13.5 -141l-21 -294q0 -99 23 -139t82 -40l50 -2 q12 -3 12 -32q0 -25 -12 -25q-7 0 -93 7t-148 7q-54 0 -112.5 -5t-118.5 -9q-12 0 -12 28z" />
<glyph unicode="&#xba;" horiz-adv-x="435" d="M41 448q0 149 55.5 226.5t210.5 77.5q19 0 35 -3t31 -7q28 -23 45 -62t17 -108q0 -149 -55 -226.5t-210 -77.5q-30 0 -44 2t-30.5 12.5t-35.5 53.5t-19 112zM153 459q0 -83 17 -120.5t61 -37.5q48 0 70 62.5t22 174.5q0 80 -15.5 130.5t-55.5 50.5q-54 0 -76.5 -68.5 t-22.5 -191.5z" />
<glyph unicode="&#xbb;" horiz-adv-x="945" d="M36 256q0 11 20.5 26.5t103.5 45t162 56.5l-263 118q-17 7 -16 18q0 6 7 18.5t26 41t29.5 40.5t18.5 12q6 0 17 -12q70 -70 183.5 -140.5t137.5 -77.5t24 -22q0 -17 -20 -23t-174 -104t-166.5 -109t-17.5 -11q-6 0 -10.5 10t-24.5 46t-28.5 47.5t-8.5 19.5zM493 256 q0 11 21 26.5t104 45t161 56.5l-262 118q-17 7 -17 18q0 6 7 18.5t26.5 41t29.5 40.5t19 12q6 0 16 -12q70 -70 183.5 -140.5t138 -77.5t24.5 -22q0 -17 -20 -23t-174 -104t-166.5 -109t-18.5 -11t-10.5 10t-24.5 46t-28.5 47.5t-8.5 19.5z" />
<glyph unicode="&#xbc;" horiz-adv-x="556" d="M28 319q0 14 13 36l140 188l148 213q11 11 19 8q25 -11 37.5 -16t32 -10.5t17.5 -13.5l-33 -376q18 -6 45.5 -7t59.5 -1h28q21 3 21 -6q0 -4 -6 -13.5t-10 -14.5t-9 -10h-133l-21 -181q-3 -21 -19 -32l-50 -29q-3 -3 -7.5 -4.5t-6.5 -1.5q-7 0 -5 20l15 228h-93 q-47 0 -88 -1.5t-73 -4.5q-7 1 -14.5 7.5t-7.5 21.5zM106 387l6 -22q25 -4 85 -12.5t110 -8.5l22 351l-122 -174q-22 -32 -49 -68t-52 -66z" />
<glyph unicode="&#xbf;" horiz-adv-x="566" d="M44 361q4 -4 20 -4l222 4q69 0 117 -3t86 -4q8 -1 18 -2q12 0 24 18l33 60q4 8 0 12t-20 4l-246 -4l-179 7q-8 1 -18 2q-12 0 -24 -18l-33 -60q-4 -8 0 -12z" />
<glyph unicode="&#xc0;" horiz-adv-x="1174" d="M44 28q0 29 13 29l49 2q48 0 79 37.5t65 134.5l239 664l15 59q6 23 11.5 28t46.5 14.5t72.5 18t49.5 14.5t23 6.5t6 0.5q19 0 24 -19l26 -87l225 -699q33 -104 55 -138t68 -34l50 -2q12 0 12 -29q0 -28 -12 -28q-3 0 -99.5 7t-131.5 7q-51 0 -110.5 -5t-120.5 -9 q-12 0 -12 28q0 29 12 29l50 2q62 0 62 46q0 17 -7.5 46.5t-22.5 79.5l-39 121h-343l-44 -121q-7 -18 -19.5 -59t-12.5 -64q0 -48 65 -49l50 -2q12 0 13 -29q0 -28 -13 -28q-10 0 -77.5 7t-113.5 7q-54 0 -118.5 -7t-71.5 -7q-13 0 -13 28zM426 428h290l-108 332 q-12 37 -20.5 56.5t-12.5 26.5zM470 1368q0 4 7.5 15t21.5 30t23.5 28t17.5 9q11 0 22 -21q39 -80 82.5 -167t60 -112t16.5 -31q0 -10 -9.5 -16.5t-21.5 -6.5q-17 0 -39 34t-92 121t-84 105q-5 11 -5 12z" />
<glyph unicode="&#xc1;" horiz-adv-x="1174" d="M44 28q0 29 13 29l49 2q48 0 79 37.5t65 134.5l239 664l15 59q6 23 11.5 28t46.5 14.5t72.5 18t49.5 14.5t23 6.5t6 0.5q19 0 24 -19l26 -87l225 -699q33 -104 55 -138t68 -34l50 -2q12 0 12 -29q0 -28 -12 -28q-3 0 -99.5 7t-131.5 7q-51 0 -110.5 -5t-120.5 -9 q-12 0 -12 28q0 29 12 29l50 2q62 0 62 46q0 17 -7.5 46.5t-22.5 79.5l-39 121h-343l-44 -121q-7 -18 -19.5 -59t-12.5 -64q0 -48 65 -49l50 -2q12 0 13 -29q0 -28 -13 -28q-10 0 -77.5 7t-113.5 7q-54 0 -118.5 -7t-71.5 -7q-13 0 -13 28zM426 428h290l-108 332 q-12 37 -20.5 56.5t-12.5 26.5zM583 1121q0 4 15.5 26.5t61.5 116t82 165.5q11 21 24 21q7 0 15.5 -9t26 -31.5t22.5 -28.5t5 -13q0 -4 -50.5 -70.5t-101.5 -134t-68 -67.5q-14 0 -23 9t-9 16z" />
<glyph unicode="&#xc2;" horiz-adv-x="1174" d="M44 28q0 29 13 29l49 2q48 0 79 37.5t65 134.5l239 664l15 59q6 23 11.5 28t46.5 14.5t72.5 18t49.5 14.5t23 6.5t6 0.5q19 0 24 -19l26 -87l225 -699q33 -104 55 -138t68 -34l50 -2q12 0 12 -29q0 -28 -12 -28q-3 0 -99.5 7t-131.5 7q-51 0 -110.5 -5t-120.5 -9 q-12 0 -12 28q0 29 12 29l50 2q62 0 62 46q0 17 -7.5 46.5t-22.5 79.5l-39 121h-343l-44 -121q-7 -18 -19.5 -59t-12.5 -64q0 -48 65 -49l50 -2q12 0 13 -29q0 -28 -13 -28q-10 0 -77.5 7t-113.5 7q-54 0 -118.5 -7t-71.5 -7q-13 0 -13 28zM415 1121q0 4 52.5 68 t108.5 132.5t67 68.5q7 0 18 -11l211 -246q4 -7 4 -12q0 -11 -12 -15q-18 -6 -30 -7.5t-27 -1.5q-29 1 -47 2q-11 0 -19.5 4t-17.5 16l-108 145q-11 11 -18 2q-41 -58 -71 -98t-46.5 -57.5t-30.5 -17.5q-12 0 -23 8.5t-11 19.5zM426 428h290l-108 332q-12 37 -20.5 56.5 t-12.5 26.5z" />
<glyph unicode="&#xc3;" horiz-adv-x="1174" d="M44 28q0 29 13 29l49 2q48 0 79 37.5t65 134.5l239 664l15 59q6 23 11.5 28t46.5 14.5t72.5 18t49.5 14.5t23 6.5t6 0.5q19 0 24 -19l26 -87l225 -699q33 -104 55 -138t68 -34l50 -2q12 0 12 -29q0 -28 -12 -28q-3 0 -99.5 7t-131.5 7q-51 0 -110.5 -5t-120.5 -9 q-12 0 -12 28q0 29 12 29l50 2q62 0 62 46q0 17 -7.5 46.5t-22.5 79.5l-39 121h-343l-44 -121q-7 -18 -19.5 -59t-12.5 -64q0 -48 65 -49l50 -2q12 0 13 -29q0 -28 -13 -28q-10 0 -77.5 7t-113.5 7q-54 0 -118.5 -7t-71.5 -7q-13 0 -13 28zM352 1123q8 61 52.5 116.5 t120.5 55.5q65 0 152 -30.5t112 -30.5q30 0 49.5 14t27 29t17.5 15q7 0 25 -9t11 -34q-17 -57 -48 -105t-82 -48q-41 0 -150.5 45.5t-146.5 45.5q-41 0 -53.5 -20.5t-26.5 -49t-28 -28.5q-8 0 -21.5 6t-10.5 28zM426 428h290l-108 332q-12 37 -20.5 56.5t-12.5 26.5z" />
<glyph unicode="&#xc4;" horiz-adv-x="1174" d="M44 28q0 29 13 29l49 2q48 0 79 37.5t65 134.5l239 664l15 59q6 23 11.5 28t46.5 14.5t72.5 18t49.5 14.5t23 6.5t6 0.5q19 0 24 -19l26 -87l225 -699q33 -104 55 -138t68 -34l50 -2q12 0 12 -29q0 -28 -12 -28q-3 0 -99.5 7t-131.5 7q-51 0 -110.5 -5t-120.5 -9 q-12 0 -12 28q0 29 12 29l50 2q62 0 62 46q0 17 -7.5 46.5t-22.5 79.5l-39 121h-343l-44 -121q-7 -18 -19.5 -59t-12.5 -64q0 -48 65 -49l50 -2q12 0 13 -29q0 -28 -13 -28q-10 0 -77.5 7t-113.5 7q-54 0 -118.5 -7t-71.5 -7q-13 0 -13 28zM354 1187q0 12 4.5 40.5 t34.5 59.5t67 31q32 0 54 -26t22 -66q0 -12 -8 -71t-98 -59q-32 0 -54 26t-22 65zM426 428h290l-108 332q-12 37 -20.5 56.5t-12.5 26.5zM739 1187q0 12 5 40.5t34.5 59.5t67.5 31q32 0 54 -26t22 -66q0 -12 -8.5 -71t-98.5 -59q-32 0 -54 26t-22 65z" />
<glyph unicode="&#xc5;" horiz-adv-x="1174" d="M44 28q0 29 13 29l49 2q48 0 79 37.5t65 134.5l239 664l15 59q6 23 11.5 28t46.5 14.5t72.5 18t49.5 14.5t23 6.5t6 0.5q19 0 24 -19l26 -87l225 -699q33 -104 55 -138t68 -34l50 -2q12 0 12 -29q0 -28 -12 -28q-3 0 -99.5 7t-131.5 7q-51 0 -110.5 -5t-120.5 -9 q-12 0 -12 28q0 29 12 29l50 2q62 0 62 46q0 17 -7.5 46.5t-22.5 79.5l-39 121h-343l-44 -121q-7 -18 -19.5 -59t-12.5 -64q0 -48 65 -49l50 -2q12 0 13 -29q0 -28 -13 -28q-10 0 -77.5 7t-113.5 7q-54 0 -118.5 -7t-71.5 -7q-13 0 -13 28zM426 428h290l-108 332 q-12 37 -20.5 56.5t-12.5 26.5zM506 1194q0 80 41.5 132.5t117.5 52.5q40 0 66 -27.5t26 -75.5q0 -75 -39 -127.5t-117 -52.5q-44 0 -69.5 28.5t-25.5 69.5zM557 1201q0 -58 57 -58q37 0 64.5 40t27.5 84q0 30 -12.5 47.5t-39.5 17.5q-50 0 -73.5 -42.5t-23.5 -88.5z" />
<glyph unicode="&#xc6;" horiz-adv-x="1502" d="M41 28q0 29 13 29l50 2q53 0 79.5 35.5t94.5 136.5l482 716q25 37 32 42.5t30 5.5h21l126 -3q68 0 245.5 6.5t179.5 6.5q35 0 35 -25l-3 -86l3 -104q0 -12 -29 -12q-32 0 -32 12l-3 50q0 40 -37 57.5t-134 17.5h-135v-371l135 -2q104 0 137.5 12.5t33.5 54.5l3 50 q0 12 32 13q29 0 29 -13l-3 -141l3 -152q0 -12 -29 -12q-32 0 -32 12l-3 50q0 43 -37 46.5t-134 3.5h-127q-3 -43 -5.5 -95t-2.5 -102q0 -72 5.5 -103.5t36.5 -51.5t71.5 -25t75.5 -7q115 0 152 31.5t58 103.5l14 48q3 8 19 9q15 0 29 -6.5t11 -15.5l-55 -204 q-10 -37 -23.5 -42.5t-94.5 -5.5q-101 6 -212.5 10t-176.5 4q-54 0 -126.5 -5t-146.5 -9q-12 0 -12 28q0 29 12 29l50 2q65 0 99 41t34 138v218l-322 -1l-147 -224q-68 -105 -67 -141q0 -30 43 -31l49 -2q12 0 13 -29q0 -28 -13 -28q-10 0 -77.5 7t-112.5 7q-54 0 -119 -7 t-72 -7q-13 0 -13 28zM611 524h268v398z" />
<glyph unicode="&#xc7;" horiz-adv-x="1133" d="M44 515q0 229 149.5 383t439.5 154q117 0 232 -23.5t134 -35.5t20.5 -19.5t1.5 -19.5q0 -68 1.5 -120.5t2.5 -99.5q0 -6 -6.5 -10.5t-23.5 -4.5q-23 0 -30 15q-30 87 -114.5 152t-278.5 65q-173 0 -271 -101.5t-98 -295.5q0 -200 114 -321.5t327 -121.5q164 0 257 59 t148 152l26 44q3 4 11 4q15 0 32 -10t11 -20q-30 -61 -86 -164t-106 -180q-51 -14 -123.5 -28t-184.5 -14q-279 0 -432 150t-153 411zM521 -187l47 105q8 17 25 13l123 -22q41 -7 41 -54q0 -19 -9 -35l-158 -254q-4 -7 -17 -7q-12 0 -19.5 6.5t-3.5 15.5l62 121q10 19 10 38 q0 35 -39 42l-50 9q-20 4 -12 22z" />
<glyph unicode="&#xc8;" horiz-adv-x="891" d="M44 28q0 29 13 29l49 2q65 0 99 41t34 138v530q0 97 -28.5 138t-90.5 41l-50 2q-12 0 -12 29q0 28 12 28q6 0 101.5 -7t157.5 -7q68 0 245.5 6.5t180.5 6.5q35 0 34 -25l-3 -86l3 -104q0 -12 -29 -12q-32 0 -32 12l-2 50q0 40 -37.5 57.5t-134.5 17.5h-135v-371l135 -2 q104 0 138 12.5t34 54.5l2 50q0 12 32 13q29 0 29 -13l-3 -141l3 -152q0 -12 -29 -12q-32 0 -32 12l-2 50q0 43 -37.5 46.5t-134.5 3.5h-127q-3 -43 -5.5 -95t-2.5 -102q0 -72 5.5 -103.5t36.5 -51.5t71.5 -25t75.5 -7q115 0 152 31.5t58 103.5l14 48q3 8 19 9q15 0 29 -6.5 t11 -15.5l-55 -204q-10 -37 -23.5 -42.5t-93.5 -5.5q-101 6 -213 10t-177 4q-54 0 -126.5 -5t-145.5 -9q-13 0 -13 28zM339 1368q0 4 7.5 15t21 30t23.5 28t18 9q11 0 22 -21q39 -80 82.5 -167t60 -112t16.5 -31q0 -10 -9.5 -16.5t-22.5 -6.5q-17 0 -39 34t-91.5 121 t-83.5 105q-5 11 -5 12z" />
<glyph unicode="&#xc9;" horiz-adv-x="891" d="M44 28q0 29 13 29l49 2q65 0 99 41t34 138v530q0 97 -28.5 138t-90.5 41l-50 2q-12 0 -12 29q0 28 12 28q6 0 101.5 -7t157.5 -7q68 0 245.5 6.5t180.5 6.5q35 0 34 -25l-3 -86l3 -104q0 -12 -29 -12q-32 0 -32 12l-2 50q0 40 -37.5 57.5t-134.5 17.5h-135v-371l135 -2 q104 0 138 12.5t34 54.5l2 50q0 12 32 13q29 0 29 -13l-3 -141l3 -152q0 -12 -29 -12q-32 0 -32 12l-2 50q0 43 -37.5 46.5t-134.5 3.5h-127q-3 -43 -5.5 -95t-2.5 -102q0 -72 5.5 -103.5t36.5 -51.5t71.5 -25t75.5 -7q115 0 152 31.5t58 103.5l14 48q3 8 19 9q15 0 29 -6.5 t11 -15.5l-55 -204q-10 -37 -23.5 -42.5t-93.5 -5.5q-101 6 -213 10t-177 4q-54 0 -126.5 -5t-145.5 -9q-13 0 -13 28zM383 1121q0 4 15 26.5t61.5 116t82.5 165.5q11 21 23 21q7 0 16 -9t26.5 -31.5t22 -28.5t4.5 -13q0 -4 -50.5 -70.5t-101.5 -134t-67 -67.5q-14 0 -23 9 t-9 16z" />
<glyph unicode="&#xca;" horiz-adv-x="891" d="M44 28q0 29 13 29l49 2q65 0 99 41t34 138v530q0 97 -28.5 138t-90.5 41l-50 2q-12 0 -12 29q0 28 12 28q6 0 101.5 -7t157.5 -7q68 0 245.5 6.5t180.5 6.5q35 0 34 -25l-3 -86l3 -104q0 -12 -29 -12q-32 0 -32 12l-2 50q0 40 -37.5 57.5t-134.5 17.5h-135v-371l135 -2 q104 0 138 12.5t34 54.5l2 50q0 12 32 13q29 0 29 -13l-3 -141l3 -152q0 -12 -29 -12q-32 0 -32 12l-2 50q0 43 -37.5 46.5t-134.5 3.5h-127q-3 -43 -5.5 -95t-2.5 -102q0 -72 5.5 -103.5t36.5 -51.5t71.5 -25t75.5 -7q115 0 152 31.5t58 103.5l14 48q3 8 19 9q15 0 29 -6.5 t11 -15.5l-55 -204q-10 -37 -23.5 -42.5t-93.5 -5.5q-101 6 -213 10t-177 4q-54 0 -126.5 -5t-145.5 -9q-13 0 -13 28zM249 1121q0 4 52.5 68t108.5 132.5t67 68.5q7 0 18 -11l211 -246q4 -7 4 -12q0 -11 -12 -15q-18 -6 -30 -7.5t-27 -1.5q-29 1 -47 2q-11 0 -19 4t-18 16 l-108 145q-11 11 -18 2q-41 -58 -71 -98t-46.5 -57.5t-30.5 -17.5q-12 0 -23 8.5t-11 19.5z" />
<glyph unicode="&#xcb;" horiz-adv-x="891" d="M44 28q0 29 13 29l49 2q65 0 99 41t34 138v530q0 97 -28.5 138t-90.5 41l-50 2q-12 0 -12 29q0 28 12 28q6 0 101.5 -7t157.5 -7q68 0 245.5 6.5t180.5 6.5q35 0 34 -25l-3 -86l3 -104q0 -12 -29 -12q-32 0 -32 12l-2 50q0 40 -37.5 57.5t-134.5 17.5h-135v-371l135 -2 q104 0 138 12.5t34 54.5l2 50q0 12 32 13q29 0 29 -13l-3 -141l3 -152q0 -12 -29 -12q-32 0 -32 12l-2 50q0 43 -37.5 46.5t-134.5 3.5h-127q-3 -43 -5.5 -95t-2.5 -102q0 -72 5.5 -103.5t36.5 -51.5t71.5 -25t75.5 -7q115 0 152 31.5t58 103.5l14 48q3 8 19 9q15 0 29 -6.5 t11 -15.5l-55 -204q-10 -37 -23.5 -42.5t-93.5 -5.5q-101 6 -213 10t-177 4q-54 0 -126.5 -5t-145.5 -9q-13 0 -13 28zM153 1187q0 12 5 40.5t34.5 59.5t67.5 31q32 0 54 -26t22 -66q0 -12 -8.5 -71t-98.5 -59q-32 0 -54 26t-22 65zM539 1187q0 12 5 40.5t34.5 59.5t66.5 31 q32 0 54 -26t22 -66q0 -12 -8 -71t-98 -59q-32 0 -54 26t-22 65z" />
<glyph unicode="&#xcc;" horiz-adv-x="613" d="M44 28q0 29 13 29l49 2q65 0 99 41t34 138v530q0 97 -28.5 138t-90.5 41l-50 2q-12 0 -12 29q0 28 12 28q6 0 101.5 -7t157.5 -7q51 0 119.5 4.5t138.5 9.5q12 0 13 -28q0 -29 -13 -29l-49 -2q-62 0 -90.5 -40.5t-28.5 -138.5v-530q0 -94 34.5 -136.5t97.5 -42.5l50 -2 q12 -3 13 -32q0 -25 -13 -25q-7 0 -109 7t-163 7q-54 0 -126.5 -5t-145.5 -9q-13 0 -13 28zM193 1368q0 4 8 15t21.5 30t23.5 28t18 9q11 0 22 -21q39 -80 82.5 -167t60 -112t16.5 -31q0 -10 -9.5 -16.5t-22.5 -6.5q-17 0 -39 34t-91.5 121t-83.5 105q-6 11 -6 12z" />
<glyph unicode="&#xcd;" horiz-adv-x="613" d="M44 28q0 29 13 29l49 2q65 0 99 41t34 138v530q0 97 -28.5 138t-90.5 41l-50 2q-12 0 -12 29q0 28 12 28q6 0 101.5 -7t157.5 -7q51 0 119.5 4.5t138.5 9.5q12 0 13 -28q0 -29 -13 -29l-49 -2q-62 0 -90.5 -40.5t-28.5 -138.5v-530q0 -94 34.5 -136.5t97.5 -42.5l50 -2 q12 -3 13 -32q0 -25 -13 -25q-7 0 -109 7t-163 7q-54 0 -126.5 -5t-145.5 -9q-13 0 -13 28zM252 1121q0 4 15 26.5t61 116t82 165.5q11 21 24 21q7 0 16 -9t26 -31.5t22 -28.5t5 -13q0 -4 -50.5 -70.5t-101.5 -134t-68 -67.5q-14 0 -22.5 9t-8.5 16z" />
<glyph unicode="&#xce;" horiz-adv-x="613" d="M44 28q0 29 13 29l49 2q65 0 99 41t34 138v530q0 97 -28.5 138t-90.5 41l-50 2q-12 0 -12 29q0 28 12 28q6 0 101.5 -7t157.5 -7q51 0 119.5 4.5t138.5 9.5q12 0 13 -28q0 -29 -13 -29l-49 -2q-62 0 -90.5 -40.5t-28.5 -138.5v-530q0 -94 34.5 -136.5t97.5 -42.5l50 -2 q12 -3 13 -32q0 -25 -13 -25q-7 0 -109 7t-163 7q-54 0 -126.5 -5t-145.5 -9q-13 0 -13 28zM104 1121q0 4 52.5 68t108.5 132.5t67 68.5q7 0 18 -11l211 -246q4 -7 4 -12q0 -11 -12 -15q-18 -6 -30 -7.5t-27 -1.5q-29 1 -47 2q-11 0 -19.5 4t-17.5 16l-108 145q-11 11 -18 2 q-41 -58 -71 -98t-46.5 -57.5t-30.5 -17.5q-12 0 -23 8.5t-11 19.5z" />
<glyph unicode="&#xcf;" horiz-adv-x="613" d="M43 1187q0 12 5 40.5t34.5 59.5t66.5 31q32 0 54 -26t22 -66q0 -12 -8 -71t-98 -59q-32 0 -54 26t-22 65zM44 28q0 29 13 29l49 2q65 0 99 41t34 138v530q0 97 -28.5 138t-90.5 41l-50 2q-12 0 -12 29q0 28 12 28q6 0 101.5 -7t157.5 -7q51 0 119.5 4.5t138.5 9.5 q12 0 13 -28q0 -29 -13 -29l-49 -2q-62 0 -90.5 -40.5t-28.5 -138.5v-530q0 -94 34.5 -136.5t97.5 -42.5l50 -2q12 -3 13 -32q0 -25 -13 -25q-7 0 -109 7t-163 7q-54 0 -126.5 -5t-145.5 -9q-13 0 -13 28zM428 1187q0 12 5 40.5t34.5 59.5t67.5 31q32 0 54 -26t22 -66 q0 -12 -8.5 -71t-98.5 -59q-32 0 -54 26t-22 65z" />
<glyph unicode="&#xd1;" horiz-adv-x="1351" d="M44 28q0 29 13 29l49 2q65 0 99 41t34 138v530q0 97 -28.5 138t-90.5 41l-50 2q-12 0 -12 29q0 28 12 28q40 -3 87.5 -5t71.5 -2q33 0 68.5 2t61.5 5q23 0 29.5 -3.5t30.5 -28.5l637 -673v467q0 94 -34.5 136.5t-98.5 42.5l-50 2q-12 0 -12 29q0 28 12 28q6 0 94.5 -7 t150.5 -7q48 0 105 4.5t115 9.5q12 0 12 -26q0 -28 -12 -31l-50 -2q-65 0 -99 -41t-34 -138v-785q0 -18 -41 -18q-25 0 -30 1.5t-16 14.5l-729 808v-551q0 -94 34.5 -136.5t97.5 -42.5l50 -2q12 -3 12 -32q0 -25 -12 -25q-4 0 -96 7t-124 7q-54 0 -117.5 -5t-126.5 -9 q-13 0 -13 28zM421 1123q8 61 52.5 116.5t120.5 55.5q65 0 152 -30.5t112 -30.5q30 0 49.5 14t27 29t17.5 15q7 0 25 -9t11 -34q-17 -57 -48 -105t-82 -48q-41 0 -150.5 45.5t-146.5 45.5q-41 0 -53.5 -20.5t-26.5 -49t-28 -28.5q-8 0 -21.5 6t-10.5 28z" />
<glyph unicode="&#xd2;" horiz-adv-x="1196" d="M53 503q0 249 154 399t422 150q269 0 422.5 -149.5t153.5 -399.5q0 -249 -154 -399t-422 -150q-269 0 -422.5 149.5t-153.5 399.5zM238 503q0 -200 103.5 -319.5t287.5 -119.5q182 0 286.5 119.5t104.5 319.5t-103.5 319.5t-287.5 119.5q-182 0 -286.5 -119.5 t-104.5 -319.5zM492 1368q0 4 7.5 15t21.5 30t23.5 28t17.5 9q11 0 23 -21q39 -80 82 -167t59.5 -112t16.5 -31q0 -10 -9.5 -16.5t-21.5 -6.5q-17 0 -39 34t-92 121t-84 105q-5 11 -5 12z" />
<glyph unicode="&#xd3;" horiz-adv-x="1196" d="M53 503q0 249 154 399t422 150q269 0 422.5 -149.5t153.5 -399.5q0 -249 -154 -399t-422 -150q-269 0 -422.5 149.5t-153.5 399.5zM238 503q0 -200 103.5 -319.5t287.5 -119.5q182 0 286.5 119.5t104.5 319.5t-103.5 319.5t-287.5 119.5q-182 0 -286.5 -119.5 t-104.5 -319.5zM515 1121q0 4 15.5 26.5t61.5 116t82 165.5q11 21 24 21q7 0 16 -9t26 -31.5t22 -28.5t5 -13q0 -4 -50.5 -70.5t-101.5 -134t-68 -67.5q-14 0 -23 9t-9 16z" />
<glyph unicode="&#xd4;" horiz-adv-x="1196" d="M53 503q0 249 154 399t422 150q269 0 422.5 -149.5t153.5 -399.5q0 -249 -154 -399t-422 -150q-269 0 -422.5 149.5t-153.5 399.5zM238 503q0 -200 103.5 -319.5t287.5 -119.5q182 0 286.5 119.5t104.5 319.5t-103.5 319.5t-287.5 119.5q-182 0 -286.5 -119.5 t-104.5 -319.5zM409 1148q0 4 52.5 68.5t108.5 133t67 68.5q7 0 18 -11l211 -246q4 -7 5 -13q0 -11 -13 -15q-18 -6 -29.5 -7t-26.5 -1q-29 1 -47 1q-11 0 -19.5 4.5t-18.5 16.5l-108 145q-11 11 -18 1q-41 -58 -70.5 -98t-46.5 -57t-30 -17q-12 0 -23.5 8t-11.5 19z" />
<glyph unicode="&#xd5;" horiz-adv-x="1196" d="M53 503q0 249 154 399t422 150q269 0 422.5 -149.5t153.5 -399.5q0 -249 -154 -399t-422 -150q-269 0 -422.5 149.5t-153.5 399.5zM238 503q0 -200 103.5 -319.5t287.5 -119.5q182 0 286.5 119.5t104.5 319.5t-103.5 319.5t-287.5 119.5q-182 0 -286.5 -119.5 t-104.5 -319.5zM361 1123q8 61 52 116.5t120 55.5q65 0 152 -30.5t112 -30.5q30 0 49.5 14t27.5 29t17 15q7 0 25 -9t11 -34q-17 -57 -48 -105t-82 -48q-41 0 -150 45.5t-147 45.5q-41 0 -53.5 -20.5t-26.5 -49t-28 -28.5q-8 0 -21 6t-10 28z" />
<glyph unicode="&#xd6;" horiz-adv-x="1196" d="M53 503q0 249 154 399t422 150q269 0 422.5 -149.5t153.5 -399.5q0 -249 -154 -399t-422 -150q-269 0 -422.5 149.5t-153.5 399.5zM238 503q0 -200 103.5 -319.5t287.5 -119.5q182 0 286.5 119.5t104.5 319.5t-103.5 319.5t-287.5 119.5q-182 0 -286.5 -119.5 t-104.5 -319.5zM334 1187q0 12 5 40.5t35 59.5t67 31q32 0 54 -26t22 -66q0 -12 -8.5 -71t-98.5 -59q-32 0 -54 26t-22 65zM720 1187q0 12 5 40.5t34.5 59.5t66.5 31q32 0 54 -26t22 -66q0 -12 -8 -71t-98 -59q-32 0 -54 26t-22 65z" />
<glyph unicode="&#xd7;" horiz-adv-x="0" />
<glyph unicode="&#x141;" horiz-adv-x="0" />
<glyph unicode="&#xd8;" horiz-adv-x="1196" d="M53 503q0 249 154 399t422 150q97 0 188 -22l37 80l68 -32l-33 -72q152 -61 234 -191.5t82 -311.5q0 -249 -154 -399t-422 -150q-116 0 -212 29l-29 -63l-67 32l26 58q-140 64 -217 193t-77 300zM238 503q0 -127 42 -222.5t122 -150.5l365 790q-33 11 -65 16.5t-73 5.5 q-182 0 -286.5 -119.5t-104.5 -319.5zM468 94q73 -30 161 -30q182 0 286.5 119.5t104.5 319.5q0 134 -47.5 233t-137.5 154z" />
<glyph unicode="&#xd9;" horiz-adv-x="1238" d="M58 978q0 28 12 28q6 0 101.5 -7t157.5 -7q51 0 119.5 4.5t138.5 9.5q12 0 13 -28q0 -29 -13 -29l-49 -2q-62 0 -90.5 -40.5t-28.5 -138.5v-407q0 -158 64 -229t205 -71q124 0 192 60t68 237q0 102 -3 211.5t-5 198.5q0 94 -34.5 136.5t-98.5 42.5l-50 2q-12 0 -12 29 q0 28 12 28q6 0 94.5 -7t150.5 -7q48 0 105 4.5t115 9.5q12 0 12 -26q0 -28 -12 -31l-50 -2q-59 0 -80 -39t-21 -140q1 -51 4 -184t3 -226q0 -178 -103.5 -291t-337.5 -113q-189 0 -297.5 92t-108.5 317q0 111 4 256t4 149q0 97 -28.5 138t-90.5 41l-50 2q-12 0 -12 29z M532 1368q0 4 7.5 15t21.5 30t23.5 28t18.5 9q11 0 22 -21q39 -80 82 -167t60 -112t17 -31q0 -10 -10 -16.5t-22 -6.5q-17 0 -39 34t-92 121t-83 105q-6 11 -6 12z" />
<glyph unicode="&#xda;" horiz-adv-x="1238" d="M58 978q0 28 12 28q6 0 101.5 -7t157.5 -7q51 0 119.5 4.5t138.5 9.5q12 0 13 -28q0 -29 -13 -29l-49 -2q-62 0 -90.5 -40.5t-28.5 -138.5v-407q0 -158 64 -229t205 -71q124 0 192 60t68 237q0 102 -3 211.5t-5 198.5q0 94 -34.5 136.5t-98.5 42.5l-50 2q-12 0 -12 29 q0 28 12 28q6 0 94.5 -7t150.5 -7q48 0 105 4.5t115 9.5q12 0 12 -26q0 -28 -12 -31l-50 -2q-59 0 -80 -39t-21 -140q1 -51 4 -184t3 -226q0 -178 -103.5 -291t-337.5 -113q-189 0 -297.5 92t-108.5 317q0 111 4 256t4 149q0 97 -28.5 138t-90.5 41l-50 2q-12 0 -12 29z M611 1121q0 4 15 26.5t61.5 116t82.5 165.5q11 21 23 21q7 0 16 -9t26.5 -31.5t22 -28.5t4.5 -13q0 -4 -50.5 -70.5t-101.5 -134t-67 -67.5q-14 0 -23 9t-9 16z" />
<glyph unicode="&#xdb;" horiz-adv-x="1238" d="M58 978q0 28 12 28q6 0 101.5 -7t157.5 -7q51 0 119.5 4.5t138.5 9.5q12 0 13 -28q0 -29 -13 -29l-49 -2q-62 0 -90.5 -40.5t-28.5 -138.5v-407q0 -158 64 -229t205 -71q124 0 192 60t68 237q0 102 -3 211.5t-5 198.5q0 94 -34.5 136.5t-98.5 42.5l-50 2q-12 0 -12 29 q0 28 12 28q6 0 94.5 -7t150.5 -7q48 0 105 4.5t115 9.5q12 0 12 -26q0 -28 -12 -31l-50 -2q-59 0 -80 -39t-21 -140q1 -51 4 -184t3 -226q0 -178 -103.5 -291t-337.5 -113q-189 0 -297.5 92t-108.5 317q0 111 4 256t4 149q0 97 -28.5 138t-90.5 41l-50 2q-12 0 -12 29z M415 1148q0 4 52.5 68.5t108.5 133t67 68.5q7 0 18 -11l211 -246q4 -7 4 -13q0 -11 -12 -15q-18 -6 -30 -7t-27 -1q-29 1 -47 1q-11 0 -19.5 4.5t-17.5 16.5l-108 145q-11 11 -18 1q-41 -58 -71 -98t-46.5 -57t-30.5 -17q-12 0 -23 8t-11 19z" />
<glyph unicode="&#xdc;" horiz-adv-x="1238" d="M58 978q0 28 12 28q6 0 101.5 -7t157.5 -7q51 0 119.5 4.5t138.5 9.5q12 0 13 -28q0 -29 -13 -29l-49 -2q-62 0 -90.5 -40.5t-28.5 -138.5v-407q0 -158 64 -229t205 -71q124 0 192 60t68 237q0 102 -3 211.5t-5 198.5q0 94 -34.5 136.5t-98.5 42.5l-50 2q-12 0 -12 29 q0 28 12 28q6 0 94.5 -7t150.5 -7q48 0 105 4.5t115 9.5q12 0 12 -26q0 -28 -12 -31l-50 -2q-59 0 -80 -39t-21 -140q1 -51 4 -184t3 -226q0 -178 -103.5 -291t-337.5 -113q-189 0 -297.5 92t-108.5 317q0 111 4 256t4 149q0 97 -28.5 138t-90.5 41l-50 2q-12 0 -12 29z M416 1187q0 12 5 40.5t34.5 59.5t66.5 31q32 0 54 -26t22 -66q0 -12 -8 -71t-98 -59q-32 0 -54 26t-22 65zM802 1187q0 12 4.5 40.5t34.5 59.5t67 31q32 0 54 -26t22 -66q0 -12 -8.5 -71t-97.5 -59q-32 0 -54 26t-22 65z" />
<glyph unicode="&#xdd;" horiz-adv-x="1019" d="M58 978q0 28 12 28q3 0 100 -7t131 -7q53 0 108 4.5t112 9.5q12 0 12 -28q0 -29 -12 -29l-50 -2q-40 0 -40 -34q0 -22 12.5 -55.5t41.5 -89.5l102 -200l93 200q43 91 43 133q0 46 -51 46l-50 2q-12 0 -13 29q0 28 13 28q1 0 75 -7t113 -7q51 0 99.5 4.5t96.5 9.5 q12 0 12 -28q0 -29 -12 -29l-50 -2q-44 0 -67 -37.5t-76 -141.5l-183 -344v-186q0 -94 34.5 -136.5t98.5 -42.5l50 -2q12 -3 12 -32q0 -25 -12 -25q-7 0 -109.5 7t-163.5 7q-54 0 -126.5 -5t-145.5 -9q-12 0 -12 28q0 29 12 29l50 2q65 0 99 41t34 138v185l-173 345 q-88 178 -158 179l-50 2q-12 0 -12 29zM486 1121q0 4 15.5 26.5t61.5 116t82 165.5q11 21 24 21q7 0 16 -9t26 -31.5t22 -28.5t5 -13q0 -4 -50.5 -70.5t-101.5 -134t-68 -67.5q-14 0 -23 9t-9 16z" />
<glyph unicode="&#xdf;" horiz-adv-x="905" d="M12 735q0 12 3 23.5t17 11.5h16q54 0 70.5 11.5t21.5 57.5l20 207q19 189 103 353t234 164q115 0 192.5 -94.5t77.5 -249.5q0 -93 -103 -179t-103 -157q0 -104 78 -171t154 -130q82 -93 82 -246q0 -169 -74 -274.5t-214 -105.5q-70 0 -135 17t-72 31t-7 32q0 41 10.5 102 t20 79t22.5 18q11 0 20 -6.5t6 -15.5q-7 -23 -7 -50q0 -62 36.5 -108.5t121.5 -46.5q76 0 109.5 58t33.5 139q0 117 -81 212q-76 77 -151 155q-83 101 -83 228q0 134 32 196.5t87 126.5t55 108q0 133 -23.5 198t-88.5 65q-59 0 -90 -77t-41 -184l-155 -1623q-1 -12 -14 -16 l-53 -17q-11 -3 -16 -3q-15 0 -15 27l22 1098h-101q-18 0 -18 36z" />
<glyph unicode="&#xe0;" horiz-adv-x="769" d="M41 98q0 140 74 278.5t160.5 230t163 117t193.5 25.5q66 0 58 -44q-14 -86 -34 -246.5t-32.5 -253t-12.5 -110.5q0 -21 6 -28.5t24 -7.5q7 0 25.5 3.5t31.5 5.5l50 8q10 1 16 -10t6 -26t-9 -15q-142 -14 -203 -34.5t-72 -20.5q-30 0 -24 34q15 72 25 159t10 159 q-75 -116 -147 -232q-104 -135 -209 -136q-43 0 -71.5 37.5t-28.5 106.5zM171 213q0 -40 16 -65.5t41 -25.5q86 0 199 177.5t113 318.5q0 37 -16.5 54.5t-46.5 17.5q-87 0 -196.5 -174t-109.5 -303zM366 1112q0 4 7.5 15.5t21.5 30t23.5 27.5t18.5 9q11 0 22 -21 q39 -80 82.5 -167t60 -112t16.5 -30q0 -10 -10 -17t-22 -7q-17 0 -39 34t-91.5 121t-83.5 105q-6 11 -6 12z" />
<glyph unicode="&#xe1;" horiz-adv-x="769" d="M41 98q0 140 74 278.5t160.5 230t163 117t193.5 25.5q66 0 58 -44q-14 -86 -34 -246.5t-32.5 -253t-12.5 -110.5q0 -21 6 -28.5t24 -7.5q7 0 25.5 3.5t31.5 5.5l50 8q10 1 16 -10t6 -26t-9 -15q-142 -14 -203 -34.5t-72 -20.5q-30 0 -24 34q15 72 25 159t10 159 q-75 -116 -147 -232q-104 -135 -209 -136q-43 0 -71.5 37.5t-28.5 106.5zM171 213q0 -40 16 -65.5t41 -25.5q86 0 199 177.5t113 318.5q0 37 -16.5 54.5t-46.5 17.5q-87 0 -196.5 -174t-109.5 -303zM470 848q0 4 15 27t61.5 116.5t82.5 165.5q11 21 23 20q7 0 16 -9 t26.5 -31t22 -28t4.5 -13q0 -4 -50.5 -70.5t-101.5 -134t-67 -67.5q-14 0 -23 8.5t-9 15.5z" />
<glyph unicode="&#xe2;" horiz-adv-x="769" d="M41 98q0 140 74 278.5t160.5 230t163 117t193.5 25.5q66 0 58 -44q-14 -86 -34 -246.5t-32.5 -253t-12.5 -110.5q0 -21 6 -28.5t24 -7.5q7 0 25.5 3.5t31.5 5.5l50 8q10 1 16 -10t6 -26t-9 -15q-142 -14 -203 -34.5t-72 -20.5q-30 0 -24 34q15 72 25 159t10 159 q-75 -116 -147 -232q-104 -135 -209 -136q-43 0 -71.5 37.5t-28.5 106.5zM171 213q0 -40 16 -65.5t41 -25.5q86 0 199 177.5t113 318.5q0 37 -16.5 54.5t-46.5 17.5q-87 0 -196.5 -174t-109.5 -303zM287 868q0 4 52.5 68.5t108.5 132.5t67 68q7 0 18 -11l212 -246 q4 -7 4 -12q0 -11 -12 -15q-18 -6 -30 -7.5t-27 -1.5q-29 1 -47 2q-11 0 -19.5 4t-17.5 16l-108 146q-11 11 -18 1q-41 -58 -71 -98t-46.5 -57.5t-30.5 -17.5q-12 0 -23.5 8.5t-11.5 19.5z" />
<glyph unicode="&#xe3;" horiz-adv-x="769" d="M41 98q0 140 74 278.5t160.5 230t163 117t193.5 25.5q66 0 58 -44q-14 -86 -34 -246.5t-32.5 -253t-12.5 -110.5q0 -21 6 -28.5t24 -7.5q7 0 25.5 3.5t31.5 5.5l50 8q10 1 16 -10t6 -26t-9 -15q-142 -14 -203 -34.5t-72 -20.5q-30 0 -24 34q15 72 25 159t10 159 q-75 -116 -147 -232q-104 -135 -209 -136q-43 0 -71.5 37.5t-28.5 106.5zM171 213q0 -40 16 -65.5t41 -25.5q86 0 199 177.5t113 318.5q0 37 -16.5 54.5t-46.5 17.5q-87 0 -196.5 -174t-109.5 -303zM297 866q8 61 52.5 116.5t120.5 55.5q65 0 152 -30.5t112 -30.5 q30 0 49.5 14t27 29t17.5 15q7 0 25 -9t11 -34q-15 -53 -46.5 -96t-83.5 -43q-41 0 -150.5 38.5t-146.5 38.5q-41 0 -54 -20.5t-26.5 -49t-27.5 -28.5q-8 0 -21.5 6t-10.5 28z" />
<glyph unicode="&#xe4;" horiz-adv-x="769" d="M41 98q0 140 74 278.5t160.5 230t163 117t193.5 25.5q66 0 58 -44q-14 -86 -34 -246.5t-32.5 -253t-12.5 -110.5q0 -21 6 -28.5t24 -7.5q7 0 25.5 3.5t31.5 5.5l50 8q10 1 16 -10t6 -26t-9 -15q-142 -14 -203 -34.5t-72 -20.5q-30 0 -24 34q15 72 25 159t10 159 q-75 -116 -147 -232q-104 -135 -209 -136q-43 0 -71.5 37.5t-28.5 106.5zM171 213q0 -40 16 -65.5t41 -25.5q86 0 199 177.5t113 318.5q0 37 -16.5 54.5t-46.5 17.5q-87 0 -196.5 -174t-109.5 -303zM250 931q0 12 5 41t34.5 60t67.5 31q32 0 54 -26.5t22 -66.5 q0 -12 -8.5 -71t-98.5 -59q-32 0 -54 26t-22 65zM636 931q0 12 4.5 41t34.5 60t67 31q32 0 54 -26.5t22 -66.5q0 -12 -8 -71t-98 -59q-32 0 -54 26t-22 65z" />
<glyph unicode="&#xe5;" horiz-adv-x="769" d="M41 98q0 140 74 278.5t160.5 230t163 117t193.5 25.5q66 0 58 -44q-14 -86 -34 -246.5t-32.5 -253t-12.5 -110.5q0 -21 6 -28.5t24 -7.5q7 0 25.5 3.5t31.5 5.5l50 8q10 1 16 -10t6 -26t-9 -15q-142 -14 -203 -34.5t-72 -20.5q-30 0 -24 34q15 72 25 159t10 159 q-75 -116 -147 -232q-104 -135 -209 -136q-43 0 -71.5 37.5t-28.5 106.5zM171 213q0 -40 16 -65.5t41 -25.5q86 0 199 177.5t113 318.5q0 37 -16.5 54.5t-46.5 17.5q-87 0 -196.5 -174t-109.5 -303zM456 938q0 80 41.5 132.5t117.5 52.5q40 0 66.5 -27.5t26.5 -75.5 q0 -75 -39.5 -127.5t-117.5 -52.5q-44 0 -69.5 28.5t-25.5 69.5zM507 945q0 -58 57 -58q37 0 64.5 40t27.5 85q0 30 -12 47.5t-40 17.5q-50 0 -73.5 -43t-23.5 -89z" />
<glyph unicode="&#xe6;" horiz-adv-x="1046" d="M41 98q0 140 74 278.5t160.5 230t163 117t193.5 25.5q64 0 58 -41q68 41 153 41q84 0 143.5 -44t59.5 -148q0 -47 -9 -90t-22 -61t-88.5 -33t-176.5 -15l-77 4q-6 -25 -10.5 -59t-4.5 -61q0 -95 47 -149t120 -54q66 0 114.5 34.5t78.5 129.5q1 10 17 10q11 0 20 -7.5 t6 -17.5q-28 -108 -106.5 -171t-216.5 -63q-249 0 -249 264v39q0 15 6 61q-141 -222 -196.5 -293t-157.5 -71q-43 0 -71.5 37.5t-28.5 106.5zM171 213q0 -40 16 -65.5t41 -25.5q86 0 199 177.5t113 318.5q0 37 -16.5 54.5t-46.5 17.5q-87 0 -196.5 -174t-109.5 -303z M673 399q117 0 174 38t57 157q0 46 -19 75t-59 29q-77 0 -115 -109.5t-38 -189.5z" />
<glyph unicode="&#xe7;" horiz-adv-x="617" d="M41 227q0 120 30.5 238t113.5 204t228 86q98 0 167 -31v-137q0 -19 -11 -25t-47 -6h-18q-29 0 -35.5 3t-6.5 24q0 50 -21.5 88.5t-67.5 38.5q-79 0 -112.5 -135.5t-33.5 -336.5q0 -98 40 -148.5t127 -50.5q69 0 108.5 40t57.5 84t30 44q10 0 19 -7.5t7 -17.5 q-22 -99 -89.5 -163.5t-194.5 -64.5q-155 0 -223 62t-68 211zM205 -187l47 105q8 17 24 13l123 -22q41 -7 42 -54q0 -19 -10 -35l-157 -254q-4 -7 -17 -7q-12 0 -20 6.5t-3 15.5l62 121q10 19 9 38q0 35 -38 42l-50 9q-20 4 -12 22z" />
<glyph unicode="&#xe8;" horiz-adv-x="626" d="M41 218q0 198 83 377.5t271 179.5q84 0 143.5 -44t59.5 -148q0 -48 -9.5 -104t-22 -73.5t-87.5 -32.5t-176 -15l-78 4q-6 -25 -10.5 -59t-4.5 -61q0 -95 47 -149t120 -54q66 0 114.5 34.5t79.5 129.5q1 10 16 10q11 0 20 -7.5t7 -17.5q-28 -108 -107 -171t-217 -63 q-249 0 -249 264zM225 399q112 0 171.5 49t59.5 172q0 46 -18.5 75t-58.5 29q-77 0 -115.5 -119.5t-38.5 -205.5zM242 1112q0 4 7.5 15.5t21.5 30t23.5 27.5t17.5 9q11 0 22 -21q39 -80 82.5 -167t60 -112t16.5 -30q0 -10 -9.5 -17t-21.5 -7q-17 0 -39 34t-92 121t-84 105 q-5 11 -5 12z" />
<glyph unicode="&#xe9;" horiz-adv-x="626" d="M41 218q0 198 83 377.5t271 179.5q84 0 143.5 -44t59.5 -148q0 -48 -9.5 -104t-22 -73.5t-87.5 -32.5t-176 -15l-78 4q-6 -25 -10.5 -59t-4.5 -61q0 -95 47 -149t120 -54q66 0 114.5 34.5t79.5 129.5q1 10 16 10q11 0 20 -7.5t7 -17.5q-28 -108 -107 -171t-217 -63 q-249 0 -249 264zM225 399q112 0 171.5 49t59.5 172q0 46 -18.5 75t-58.5 29q-77 0 -115.5 -119.5t-38.5 -205.5zM297 848q0 4 15.5 27t61.5 116.5t82 165.5q11 21 24 20q7 0 15.5 -9t26 -31t22.5 -28t5 -13q0 -4 -50.5 -70.5t-102 -134t-67.5 -67.5q-14 0 -23 8.5t-9 15.5z " />
<glyph unicode="&#xea;" horiz-adv-x="626" d="M41 218q0 198 83 377.5t271 179.5q84 0 143.5 -44t59.5 -148q0 -48 -9.5 -104t-22 -73.5t-87.5 -32.5t-176 -15l-78 4q-6 -25 -10.5 -59t-4.5 -61q0 -95 47 -149t120 -54q66 0 114.5 34.5t79.5 129.5q1 10 16 10q11 0 20 -7.5t7 -17.5q-28 -108 -107 -171t-217 -63 q-249 0 -249 264zM177 868q0 4 52.5 68.5t108.5 132.5t67 68q7 0 18 -11l211 -246q4 -7 4 -12q0 -11 -12 -15q-18 -6 -29.5 -7.5t-27.5 -1.5q-29 1 -47 2q-11 0 -19 4t-18 16l-108 146q-11 11 -18 1q-41 -58 -71 -98t-46.5 -57.5t-30.5 -17.5q-12 0 -23 8.5t-11 19.5z M225 399q112 0 171.5 49t59.5 172q0 46 -18.5 75t-58.5 29q-77 0 -115.5 -119.5t-38.5 -205.5z" />
<glyph unicode="&#xeb;" horiz-adv-x="626" d="M41 218q0 198 83 377.5t271 179.5q84 0 143.5 -44t59.5 -148q0 -48 -9.5 -104t-22 -73.5t-87.5 -32.5t-176 -15l-78 4q-6 -25 -10.5 -59t-4.5 -61q0 -95 47 -149t120 -54q66 0 114.5 34.5t79.5 129.5q1 10 16 10q11 0 20 -7.5t7 -17.5q-28 -108 -107 -171t-217 -63 q-249 0 -249 264zM98 931q0 12 5 41t34.5 60t67.5 31q32 0 54 -26.5t22 -66.5q0 -12 -8.5 -71t-98.5 -59q-32 0 -54 26t-22 65zM225 399q112 0 171.5 49t59.5 172q0 46 -18.5 75t-58.5 29q-77 0 -115.5 -119.5t-38.5 -205.5zM484 931q0 12 4.5 41t34.5 60t67 31 q32 0 54 -26.5t22 -66.5q0 -12 -8 -71t-98 -59q-32 0 -54 26t-22 65z" />
<glyph unicode="&#xec;" horiz-adv-x="393" d="M14 709q0 15 12 18q72 7 135 20t122 32q14 3 18 3q29 0 25 -34l-76 -716q-1 -12 -14 -17l-105 -33q-15 -6 -21 0.5t-4 29.5l53 683l-119 -19q-12 -1 -19 8.5t-7 24.5zM35 1112q0 4 7.5 15.5t21 30t23.5 27.5t18 9q11 0 22 -21q39 -80 82.5 -167t60 -112t16.5 -30 q0 -10 -9.5 -17t-22.5 -7q-17 0 -39 34t-91.5 121t-83.5 105q-5 11 -5 12z" />
<glyph unicode="&#xed;" horiz-adv-x="393" d="M14 709q0 15 12 18q72 7 135 20t122 32q14 3 18 3q29 0 25 -34l-76 -716q-1 -12 -14 -17l-105 -33q-15 -6 -21 0.5t-4 29.5l53 683l-119 -19q-12 -1 -19 8.5t-7 24.5zM117 848q0 4 15.5 27t61.5 116.5t82 165.5q11 21 24 20q7 0 16 -9t26 -31t22 -28t5 -13 q0 -4 -50.5 -70.5t-101.5 -134t-68 -67.5q-14 0 -23 8.5t-9 15.5z" />
<glyph unicode="&#xee;" horiz-adv-x="393" d="M7 868q0 4 52.5 68.5t108.5 132.5t67 68q7 0 18 -11l211 -246q4 -7 4 -12q0 -11 -12 -15q-18 -6 -29.5 -7.5t-27.5 -1.5q-29 1 -47 2q-11 0 -19 4t-18 16l-108 146q-11 11 -18 1q-41 -58 -71 -98t-46.5 -57.5t-30.5 -17.5q-12 0 -23 8.5t-11 19.5zM14 709q0 15 12 18 q72 7 135 20t122 32q14 3 18 3q29 0 25 -34l-76 -716q-1 -12 -14 -17l-105 -33q-15 -6 -21 0.5t-4 29.5l53 683l-119 -19q-12 -1 -19 8.5t-7 24.5z" />
<glyph unicode="&#xef;" horiz-adv-x="393" d="M-40 931q0 12 5 41t34.5 60t66.5 31q32 0 54 -26.5t22 -66.5q0 -12 -8 -71t-98 -59q-32 0 -54 26t-22 65zM14 709q0 15 12 18q72 7 135 20t122 32q14 3 18 3q29 0 25 -34l-76 -716q-1 -12 -14 -17l-105 -33q-15 -6 -21 0.5t-4 29.5l53 683l-119 -19q-12 -1 -19 8.5 t-7 24.5zM345 931q0 12 5 41t35 60t67 31q32 0 54 -26.5t22 -66.5q0 -12 -8.5 -71t-98.5 -59q-32 0 -54 26t-22 65z" />
<glyph unicode="&#xf1;" horiz-adv-x="838" d="M14 709q0 15 12 18q72 7 135 20t122 32q14 3 18 3q29 0 25 -34q-8 -94 -15.5 -187t-23.5 -231q37 72 159.5 250.5t139.5 184t30 5.5q41 0 83 -9t38 -38l-57 -683l119 19q12 1 19 -8.5t7 -24.5t-12 -18q-72 -7 -135 -20t-122 -32q-14 -3 -18 -3q-29 0 -25 35l55 584 q3 19 3 26q0 19 -13 20q-23 0 -95 -106.5t-137 -247t-73 -202.5t-19 -62h-103q-26 0 -26 15q1 10 1 15l53 665l-119 -19q-12 -1 -19 8.5t-7 24.5zM145 866q8 61 52.5 116.5t120.5 55.5q65 0 152 -30.5t112 -30.5q30 0 49.5 14t27 29t17.5 15q7 0 25 -9t11 -34 q-17 -57 -48 -105t-82 -48q-41 0 -150.5 45.5t-146.5 45.5q-41 0 -54 -20.5t-26.5 -49t-27.5 -28.5q-8 0 -21.5 6t-10.5 28z" />
<glyph unicode="&#xf2;" horiz-adv-x="728" d="M41 253q0 247 93.5 377t349.5 130q28 0 56.5 -5.5t53.5 -11.5q46 -37 75 -102.5t29 -178.5q0 -247 -93.5 -377.5t-348.5 -130.5q-37 0 -63.5 3.5t-47.5 9.5q-41 28 -72.5 100.5t-31.5 185.5zM228 272q0 -134 29 -199t101 -65q80 0 116.5 104.5t36.5 289.5q0 133 -27 218 t-92 85q-90 0 -127 -113.5t-37 -319.5zM256 1112q0 4 7.5 15.5t21 30t23.5 27.5t18 9q11 0 22 -21q39 -80 82.5 -167t60 -112t16.5 -30q0 -10 -9.5 -17t-22.5 -7q-17 0 -38.5 34t-91.5 121t-84 105q-5 11 -5 12z" />
<glyph unicode="&#xf3;" horiz-adv-x="728" d="M41 253q0 247 93.5 377t349.5 130q28 0 56.5 -5.5t53.5 -11.5q46 -37 75 -102.5t29 -178.5q0 -247 -93.5 -377.5t-348.5 -130.5q-37 0 -63.5 3.5t-47.5 9.5q-41 28 -72.5 100.5t-31.5 185.5zM228 272q0 -134 29 -199t101 -65q80 0 116.5 104.5t36.5 289.5q0 133 -27 218 t-92 85q-90 0 -127 -113.5t-37 -319.5zM318 848q0 4 15 27t61.5 116.5t82.5 165.5q11 21 23 20q7 0 16 -9t26.5 -31t22 -28t4.5 -13q0 -4 -50.5 -70.5t-101.5 -134t-67 -67.5q-14 0 -23 8.5t-9 15.5z" />
<glyph unicode="&#xf4;" horiz-adv-x="728" d="M41 253q0 247 93.5 377t349.5 130q28 0 56.5 -5.5t53.5 -11.5q46 -37 75 -102.5t29 -178.5q0 -247 -93.5 -377.5t-348.5 -130.5q-37 0 -63.5 3.5t-47.5 9.5q-41 28 -72.5 100.5t-31.5 185.5zM191 868q0 4 52.5 68.5t108.5 132.5t67 68q7 0 18 -11l211 -246q4 -7 4 -12 q0 -11 -12 -15q-18 -6 -30 -7.5t-27 -1.5q-29 1 -47 2q-11 0 -19 4t-18 16l-108 146q-11 11 -18 1q-41 -58 -71 -98t-46.5 -57.5t-30.5 -17.5q-12 0 -23 8.5t-11 19.5zM228 272q0 -134 29 -199t101 -65q80 0 116.5 104.5t36.5 289.5q0 133 -27 218t-92 85q-90 0 -127 -113.5 t-37 -319.5z" />
<glyph unicode="&#xf5;" horiz-adv-x="728" d="M41 253q0 247 93.5 377t349.5 130q28 0 56.5 -5.5t53.5 -11.5q46 -37 75 -102.5t29 -178.5q0 -247 -93.5 -377.5t-348.5 -130.5q-37 0 -63.5 3.5t-47.5 9.5q-41 28 -72.5 100.5t-31.5 185.5zM159 866q8 61 52.5 116.5t120.5 55.5q65 0 152 -30.5t112 -30.5q30 0 49.5 14 t27 29t17.5 15q7 0 24.5 -9t11.5 -34q-17 -57 -48 -105t-82 -48q-41 0 -150.5 45.5t-147.5 45.5q-41 0 -53.5 -20.5t-26 -49t-27.5 -28.5q-8 0 -21.5 6t-10.5 28zM228 272q0 -134 29 -199t101 -65q80 0 116.5 104.5t36.5 289.5q0 133 -27 218t-92 85q-90 0 -127 -113.5 t-37 -319.5z" />
<glyph unicode="&#xf6;" horiz-adv-x="728" d="M41 253q0 247 93.5 377t349.5 130q28 0 56.5 -5.5t53.5 -11.5q46 -37 75 -102.5t29 -178.5q0 -247 -93.5 -377.5t-348.5 -130.5q-37 0 -63.5 3.5t-47.5 9.5q-41 28 -72.5 100.5t-31.5 185.5zM153 931q0 12 5 41t34.5 60t67.5 31q32 0 54 -26.5t22 -66.5q0 -12 -8.5 -71 t-98.5 -59q-32 0 -54 26t-22 65zM228 272q0 -134 29 -199t101 -65q80 0 116.5 104.5t36.5 289.5q0 133 -27 218t-92 85q-90 0 -127 -113.5t-37 -319.5zM539 931q0 12 5 41t34.5 60t66.5 31q32 0 54 -26.5t22 -66.5q0 -12 -8 -71t-98 -59q-32 0 -54 26t-22 65z" />
<glyph unicode="&#xf8;" horiz-adv-x="728" d="M41 253q0 247 93.5 377t349.5 130l29 -1l45 99l68 -32l-37 -83q47 -37 78 -103.5t31 -177.5q0 -247 -93.5 -377.5t-348.5 -130.5l-31 2l-48 -105l-68 32l40 87q-41 28 -74.5 99.5t-33.5 183.5zM228 272q0 -33 1.5 -62t5.5 -54l231 502q-29 47 -74 47q-90 0 -127 -113.5 t-37 -319.5zM269 53q32 -44 89 -45q80 0 116.5 104.5t36.5 289.5q0 62 -2 87t-9 65z" />
<glyph unicode="&#xf9;" horiz-adv-x="820" d="M14 710q0 15 12 18q72 7 135 20t122 33q14 3 18 3q29 0 25 -35l-55 -585q-3 -22 -3 -26q0 -19 13 -19q23 0 95 106.5t137 246.5t73 202.5t19 62.5h103q26 0 26 -16q-1 -10 -2 -15l-52 -665l119 20q12 1 19 -8.5t7 -24.5t-12 -18q-72 -7 -135 -20t-122 -33q-14 -3 -18 -3 q-29 0 -25 35q8 94 15.5 186.5t22.5 230.5q-37 -72 -159.5 -250t-139 -183.5t-30.5 -5.5q-41 0 -82.5 9t-37.5 38l57 682l-119 -19q-12 -1 -19 8.5t-7 24.5zM242 1112q0 4 7.5 15.5t21.5 30t23.5 27.5t17.5 9q11 0 22 -21q39 -80 82.5 -167t60 -112t16.5 -30q0 -10 -9.5 -17 t-21.5 -7q-17 0 -39 34t-92 121t-84 105q-5 11 -5 12z" />
<glyph unicode="&#xfa;" horiz-adv-x="820" d="M14 710q0 15 12 18q72 7 135 20t122 33q14 3 18 3q29 0 25 -35l-55 -585q-3 -22 -3 -26q0 -19 13 -19q23 0 95 106.5t137 246.5t73 202.5t19 62.5h103q26 0 26 -16q-1 -10 -2 -15l-52 -665l119 20q12 1 19 -8.5t7 -24.5t-12 -18q-72 -7 -135 -20t-122 -33q-14 -3 -18 -3 q-29 0 -25 35q8 94 15.5 186.5t22.5 230.5q-37 -72 -159.5 -250t-139 -183.5t-30.5 -5.5q-41 0 -82.5 9t-37.5 38l57 682l-119 -19q-12 -1 -19 8.5t-7 24.5zM408 848q0 4 15 27t61.5 116.5t82.5 165.5q11 21 23 20q7 0 16 -9t26.5 -31t22 -28t4.5 -13q0 -4 -50.5 -70.5 t-101.5 -134t-68 -67.5q-14 0 -22.5 8.5t-8.5 15.5z" />
<glyph unicode="&#xfb;" horiz-adv-x="820" d="M14 710q0 15 12 18q72 7 135 20t122 33q14 3 18 3q29 0 25 -35l-55 -585q-3 -22 -3 -26q0 -19 13 -19q23 0 95 106.5t137 246.5t73 202.5t19 62.5h103q26 0 26 -16q-1 -10 -2 -15l-52 -665l119 20q12 1 19 -8.5t7 -24.5t-12 -18q-72 -7 -135 -20t-122 -33q-14 -3 -18 -3 q-29 0 -25 35q8 94 15.5 186.5t22.5 230.5q-37 -72 -159.5 -250t-139 -183.5t-30.5 -5.5q-41 0 -82.5 9t-37.5 38l57 682l-119 -19q-12 -1 -19 8.5t-7 24.5zM218 868q0 4 52.5 68.5t108.5 132.5t67 68q7 0 18 -11l212 -246q4 -7 4 -12q0 -11 -13 -15q-18 -6 -29.5 -7.5 t-26.5 -1.5q-29 1 -47 2q-11 0 -19.5 4t-17.5 16l-108 146q-11 11 -18 1q-41 -58 -71 -98t-46.5 -57.5t-30.5 -17.5q-12 0 -23.5 8.5t-11.5 19.5z" />
<glyph unicode="&#xfc;" horiz-adv-x="820" d="M14 710q0 15 12 18q72 7 135 20t122 33q14 3 18 3q29 0 25 -35l-55 -585q-3 -22 -3 -26q0 -19 13 -19q23 0 95 106.5t137 246.5t73 202.5t19 62.5h103q26 0 26 -16q-1 -10 -2 -15l-52 -665l119 20q12 1 19 -8.5t7 -24.5t-12 -18q-72 -7 -135 -20t-122 -33q-14 -3 -18 -3 q-29 0 -25 35q8 94 15.5 186.5t22.5 230.5q-37 -72 -159.5 -250t-139 -183.5t-30.5 -5.5q-41 0 -82.5 9t-37.5 38l57 682l-119 -19q-12 -1 -19 8.5t-7 24.5zM167 931q0 12 5 41t34.5 60t67.5 31q32 0 54 -26.5t22 -66.5q0 -12 -8.5 -71t-98.5 -59q-32 0 -54 26t-22 65z M553 931q0 12 4.5 41t34.5 60t67 31q32 0 54 -26.5t22 -66.5q0 -12 -8 -71t-98 -59q-32 0 -54 26t-22 65z" />
<glyph unicode="&#xfd;" horiz-adv-x="950" d="M14 679q0 14 42 23.5t98 29.5t91.5 36.5t41.5 16.5q21 0 29 -29l112 -419q68 239 120.5 345.5t197.5 106.5q91 0 130.5 -55t39.5 -174q0 -217 -77.5 -450.5t-235 -397t-383.5 -163.5q-65 0 -113.5 11.5t-57.5 29.5t-9 70q0 66 14 147.5t29 111.5t39 30l83 -2q25 0 19 -23 q-15 -51 -27.5 -109t-12.5 -107q0 -65 27.5 -93t74.5 -28q173 0 312.5 288t139.5 595q0 86 -17.5 130.5t-62.5 44.5q-86 0 -131.5 -145t-45.5 -318q0 -53 4 -90t12 -67q3 -11 -11 -18l-99 -48q-8 -4 -13 -5q-8 0 -16 31l-199 696l-116 -37q-11 -3 -20 9t-9 26zM477 807 q0 4 15 27t61.5 116l82.5 165q11 21 23 21q7 0 16 -9t26.5 -31t22 -28.5t4.5 -13.5q0 -4 -50.5 -70t-101.5 -134t-67 -68q-14 0 -23 9t-9 16z" />
<glyph unicode="&#xff;" horiz-adv-x="950" d="M14 679q0 14 42 23.5t98 29.5t91.5 36.5t41.5 16.5q21 0 29 -29l112 -419q68 239 120.5 345.5t197.5 106.5q91 0 130.5 -55t39.5 -174q0 -217 -77.5 -450.5t-235 -397t-383.5 -163.5q-65 0 -113.5 11.5t-57.5 29.5t-9 70q0 66 14 147.5t29 111.5t39 30l83 -2q25 0 19 -23 q-15 -51 -27.5 -109t-12.5 -107q0 -65 27.5 -93t74.5 -28q173 0 312.5 288t139.5 595q0 86 -17.5 130.5t-62.5 44.5q-86 0 -131.5 -145t-45.5 -318q0 -53 4 -90t12 -67q3 -11 -11 -18l-99 -48q-8 -4 -13 -5q-8 0 -16 31l-199 696l-116 -37q-11 -3 -20 9t-9 26zM209 890 q0 12 4.5 40.5t34.5 59.5t67 31q32 0 54 -26t22 -66q0 -12 -8.5 -71t-97.5 -59q-32 0 -54 26t-22 65zM594 890q0 12 5 40.5t34.5 59.5t67.5 31q32 0 54 -26t22 -66q0 -12 -8.5 -71t-98.5 -59q-32 0 -54 26t-22 65z" />
<glyph unicode="&#x152;" horiz-adv-x="1600" d="M53 503q0 249 154 399t422 150q104 0 191.5 -24.5t156.5 -71.5q0 26 7.5 31t53.5 5h29q68 0 245.5 6.5t179.5 6.5q35 0 35 -25l-3 -86l3 -104q0 -12 -29 -12q-32 0 -32 12l-3 50q0 40 -37 57.5t-134 17.5h-135v-371l135 -2q104 0 137.5 12.5t33.5 54.5l3 50q0 12 32 13 q29 0 29 -13l-3 -141l3 -152q0 -12 -29 -12q-32 0 -32 12l-3 50q0 43 -37 46.5t-134 3.5h-127q-3 -43 -5.5 -95t-2.5 -102q0 -72 5.5 -103.5t36.5 -51.5t71.5 -25t75.5 -7q115 0 152 31.5t58 103.5l14 48q3 8 19 9q15 0 29 -6.5t11 -15.5l-55 -204q-10 -37 -23.5 -42.5 t-93.5 -5.5q-101 6 -213 10t-177 4q-68 0 -79 4t-11 32q-68 -47 -155 -71.5t-193 -24.5q-269 0 -422.5 149.5t-153.5 399.5zM238 503q0 -200 103.5 -319.5t287.5 -119.5q181 0 277 118t96 321q0 202 -96 320.5t-277 118.5q-182 0 -286.5 -119.5t-104.5 -319.5z" />
<glyph unicode="&#x153;" horiz-adv-x="1055" d="M41 253q0 247 93.5 377t349.5 130q28 0 56.5 -5.5t53.5 -11.5q25 -21 46 -48q39 39 88 59.5t109 20.5q84 0 144 -44t60 -148q0 -48 -10 -104t-22.5 -73.5t-87.5 -32.5t-176 -15l-78 4q-6 -25 -10.5 -59t-4.5 -61q0 -95 47 -149t120 -54q66 0 115 34.5t79 129.5 q1 10 17 10q11 0 20 -7.5t6 -17.5q-28 -108 -106.5 -171t-217.5 -63q-130 0 -192 71q-51 -36 -120 -53.5t-164 -17.5q-37 0 -63.5 3.5t-47.5 9.5q-41 28 -72.5 100.5t-31.5 185.5zM228 272q0 -134 29 -199t101 -65q80 0 116.5 104.5t36.5 289.5q0 133 -27 218t-92 85 q-90 0 -127 -113.5t-37 -319.5zM667 399q112 0 171.5 49t59.5 172q0 46 -18.5 75t-58.5 29q-77 0 -115.5 -119.5t-38.5 -205.5z" />
<glyph unicode="&#x178;" horiz-adv-x="1019" d="M58 978q0 28 12 28q3 0 100 -7t131 -7q53 0 108 4.5t112 9.5q12 0 12 -28q0 -29 -12 -29l-50 -2q-40 0 -40 -34q0 -22 12.5 -55.5t41.5 -89.5l102 -200l93 200q43 91 43 133q0 46 -51 46l-50 2q-12 0 -13 29q0 28 13 28q1 0 75 -7t113 -7q51 0 99.5 4.5t96.5 9.5 q12 0 12 -28q0 -29 -12 -29l-50 -2q-44 0 -67 -37.5t-76 -141.5l-183 -344v-186q0 -94 34.5 -136.5t98.5 -42.5l50 -2q12 -3 12 -32q0 -25 -12 -25q-7 0 -109.5 7t-163.5 7q-54 0 -126.5 -5t-145.5 -9q-12 0 -12 28q0 29 12 29l50 2q65 0 99 41t34 138v185l-173 345 q-88 178 -158 179l-50 2q-12 0 -12 29zM271 1187q0 12 5 40.5t34.5 59.5t66.5 31q32 0 54 -26t22 -66q0 -12 -8 -71t-98 -59q-32 0 -54 26t-22 65zM656 1187q0 12 5 40.5t35 59.5t67 31q32 0 54 -26t22 -66q0 -12 -8.5 -71t-98.5 -59q-32 0 -54 26t-22 65z" />
<glyph unicode="&#x2c6;" horiz-adv-x="363" d="M46 876q48 80 86 141.5t56.5 88t32.5 26.5t30.5 -26.5t51 -97.5t50.5 -103.5t16 -40.5q0 -12 -11 -14q-19 -4 -45 -5.5t-44 -1.5q-15 1 -24.5 5.5t-12.5 15.5l-37 139q-3 7 -9 7t-10 -8l-77 -155q-7 -12 -19 -12q-17 0 -30.5 13.5t-3.5 27.5z" />
<glyph unicode="&#x2dc;" horiz-adv-x="485" d="M41 864q8 62 45 116.5t101 54.5q30 0 88 -34.5t79 -34.5q32 0 49 16.5t26 33t19 16.5q7 0 25 -9t11 -34q-17 -57 -48 -105t-82 -48q-28 0 -93 42t-94 42q-41 0 -59 -45.5t-33 -45.5q-10 0 -23.5 6.5t-10.5 28.5z" />
<glyph unicode="&#x2000;" horiz-adv-x="780" />
<glyph unicode="&#x2001;" horiz-adv-x="1562" />
<glyph unicode="&#x2002;" horiz-adv-x="780" />
<glyph unicode="&#x2003;" horiz-adv-x="1562" />
<glyph unicode="&#x2004;" horiz-adv-x="520" />
<glyph unicode="&#x2005;" horiz-adv-x="389" />
<glyph unicode="&#x2006;" horiz-adv-x="259" />
<glyph unicode="&#x2007;" horiz-adv-x="259" />
<glyph unicode="&#x2008;" horiz-adv-x="194" />
<glyph unicode="&#x2009;" horiz-adv-x="312" />
<glyph unicode="&#x200a;" horiz-adv-x="85" />
<glyph unicode="&#x2010;" horiz-adv-x="443" d="M45.5 361q4.5 -4 19.5 -4l159 4q29 0 84 -3.5t58 -3.5q8 -1 18 -2q12 0 24 18l33 60q4 8 0 12t-20 4l-176 -4l-125 7q-8 1 -18 2q-12 0 -23 -18l-33 -60q-5 -8 -0.5 -12z" />
<glyph unicode="&#x2011;" horiz-adv-x="443" d="M45.5 361q4.5 -4 19.5 -4l159 4q29 0 84 -3.5t58 -3.5q8 -1 18 -2q12 0 24 18l33 60q4 8 0 12t-20 4l-176 -4l-125 7q-8 1 -18 2q-12 0 -23 -18l-33 -60q-5 -8 -0.5 -12z" />
<glyph unicode="&#x2012;" horiz-adv-x="443" d="M45.5 361q4.5 -4 19.5 -4l159 4q29 0 84 -3.5t58 -3.5q8 -1 18 -2q12 0 24 18l33 60q4 8 0 12t-20 4l-176 -4l-125 7q-8 1 -18 2q-12 0 -23 -18l-33 -60q-5 -8 -0.5 -12z" />
<glyph unicode="&#x2013;" horiz-adv-x="1351" d="M44.5 331q1.5 -8 20.5 -3q48 8 186.5 10.5t280.5 2.5h151q53 0 222.5 -6t346.5 -12q7 -1 11 -1h6q11 0 15.5 7t12.5 15t28.5 39.5t27.5 43.5q4 8 0 12.5t-19 4.5q-58 0 -269 2t-370 5q-87 0 -224 0.5t-322 3.5q-19 1 -25 -2q-8 -8 -17 -15.5t-31.5 -43t-29.5 -50.5 q-3 -5 -1.5 -13z" />
<glyph unicode="&#x2014;" horiz-adv-x="1564" d="M42.5 331q1.5 -8 21.5 -3q48 8 217.5 10.5t338.5 2.5h169q77 0 299 -6.5t378 -11.5q7 -1 11 -1h6q11 0 16 7t12.5 15t28 39.5t27.5 43.5q4 8 0 12.5t-19 4.5l-746 7q-90 0 -290 1t-364 3q-19 1 -25 -2q-8 -8 -17 -15.5t-32 -43t-30 -50.5q-3 -5 -1.5 -13z" />
<glyph unicode="&#x2018;" horiz-adv-x="373" d="M41 978q19 30 54.5 84.5t96.5 132.5t131 148q12 12 34.5 -7.5t11.5 -37.5q-65 -108 -131.5 -264t-66.5 -231q0 -10 -11.5 -17.5t-26.5 -7.5q-17 0 -24 12q-15 32 -33 85t-35 103z" />
<glyph unicode="&#x2019;" horiz-adv-x="373" d="M44 828q65 108 131.5 264t66.5 230q0 10 11.5 17.5t27.5 7.5q17 0 23 -12q15 -32 33 -85t35 -103q-19 -30 -54.5 -84t-96.5 -132t-131 -149q-12 -12 -34.5 8t-11.5 38z" />
<glyph unicode="&#x201a;" horiz-adv-x="643" d="M50 153q0 135 36 192t117 57l44 -4l-29 -210q-30 0 -57.5 -14t-27.5 -41q0 -36 30 -61t69 -25q90 0 135.5 96t45.5 178l20 273q0 33 -27 33q-8 0 -34.5 -9t-137 -56.5t-133.5 -57.5q-10 -4 -17 7t-7 27q0 18 32 34.5t130 56.5t185 74l4 81q0 29 25 29h122q37 0 37 -36 v-143q0 -144 -34 -289.5t-122 -252t-240 -106.5q-77 0 -121.5 41.5t-44.5 125.5z" />
<glyph unicode="&#x201c;" horiz-adv-x="740" d="M43 1014q21 30 59 87t101.5 139t132.5 152q11 11 30.5 -3.5t19.5 -32.5l-3 -11q-69 -115 -137 -274.5t-68 -238.5q-1 -10 -14 -18t-27 -8q-18 0 -24 13q-14 29 -33.5 86.5t-36.5 108.5zM398 1014q21 30 59 87t101.5 139t132.5 152q11 11 30.5 -3.5t19.5 -32.5l-3 -11 q-69 -115 -137 -274.5t-68 -238.5q-1 -10 -14 -18t-27 -8q-18 0 -24 13q-14 29 -33.5 86.5t-36.5 108.5z" />
<glyph unicode="&#x201d;" horiz-adv-x="714" d="M44 828q65 108 131.5 264t66.5 230q0 10 11.5 17.5t27.5 7.5q17 0 23 -12q15 -32 33 -85t35 -103q-19 -30 -54.5 -84t-96.5 -132t-131 -149q-12 -12 -34.5 8t-11.5 38zM387 828q65 108 131.5 264t66.5 230q0 10 11.5 17.5t26.5 7.5q17 0 24 -12q15 -32 33 -85t34 -103 q-19 -30 -54 -84t-96 -132t-131 -149q-12 -12 -34.5 8t-11.5 38z" />
<glyph unicode="&#x201e;" horiz-adv-x="335" d="M41 922q0 19 2 29q0 53 17 82.5t49 29.5t41 -28t9 -52v-20q-1 -8 -1 -12q-7 -55 -22.5 -83t-45.5 -28q-25 0 -37 22.5t-12 59.5zM218 922q0 19 2 29q0 53 17 82.5t49 29.5t41 -28t9 -52v-20q-1 -8 -2 -12q-7 -55 -22 -83t-45 -28q-25 0 -37 22.5t-12 59.5z" />
<glyph unicode="&#x2022;" horiz-adv-x="295" d="M41 402q0 53 37.5 90t90.5 37t90 -37t37 -90t-37.5 -90t-89.5 -37q-53 0 -90.5 37t-37.5 90z" />
<glyph unicode="&#x2026;" horiz-adv-x="295" d="M41 482q0 53 37.5 90t90.5 37t90 -37t37 -90t-37 -89t-90 -36t-90.5 35.5t-37.5 89.5z" />
<glyph unicode="&#x202f;" horiz-adv-x="312" />
<glyph unicode="&#x2039;" horiz-adv-x="438" />
<glyph unicode="&#x203a;" horiz-adv-x="556" />
<glyph unicode="&#x205f;" horiz-adv-x="389" />
<glyph unicode="&#x2122;" horiz-adv-x="384" d="M41 383q0 19 2 30q0 95 48.5 186.5t143.5 108.5l5 64l42 -4l-6 -56l17 -2q58 -7 98 -27l-7 -82q-4 -17 -21 -16q-10 1 -15 1q-25 3 -29.5 5t-4.5 14q0 29 -8.5 51.5t-30.5 26.5l-36 -400l4 -1q41 0 68.5 22t39.5 45.5t19 23.5t12 -4t2 -11q-17 -53 -52.5 -87.5 t-96.5 -34.5l-7 -80l-41 4l6 76q-80 10 -116 43.5t-36 103.5zM153 410q0 -48 10 -74t36 -40l33 380q-32 -26 -51.5 -99t-27.5 -167z" />
<glyph unicode="&#xe000;" horiz-adv-x="810" d="M0 810h810v-810h-810v810z" />
<glyph unicode="&#xfb01;" horiz-adv-x="932" d="M553 709q0 15 12 18q72 7 135 20t122 32q14 3 18 3q29 0 25 -34l-76 -716q-1 -12 -14 -17l-105 -33q-5 -1 -9 -1q-19 0 -16 31l53 683l-119 -19q-12 -1 -19 8.5t-7 24.5zM694 1092q0 11 1 16q0 50 34 86.5t79 36.5q40 0 66.5 -30.5t26.5 -74.5q0 -12 -1 -18 q0 -50 -34.5 -85.5t-79.5 -35.5q-40 0 -66 30.5t-26 74.5zM12 735q0 12 3 23.5t17 11.5h16q54 0 70.5 11.5t21.5 57.5l20 207q19 189 103 353t234 164q19 0 47 -1.5t35 -8.5t8.5 -21.5t1.5 -37.5q0 -19 -1 -34t-2 -26q0 -11 -11 -16.5t-28 -5.5q-36 0 -36 17q0 29 -9 47 t-29 18q-44 0 -73.5 -79t-37.5 -182l-37 -415q-3 -29 6 -38.5t38 -9.5h174q8 0 11.5 -10t3.5 -28q0 -33 -14 -33h-201q-17 0 -20 -23l-116 -1066q-1 -12 -14 -16l-53 -17q-11 -3 -16 -3q-15 0 -15 27l22 1098h-101q-18 0 -18 36z" />
<glyph unicode="&#xfb02;" horiz-adv-x="903" d="M615 -15q0 106 0.5 221t6 231t18.5 269q0 254 18.5 399.5t50.5 233.5q29 70 59 141h252q12 0 12 -18q0 -21 -12 -21l-36 -2q-91 0 -136 -155.5t-68 -424t-30.5 -428t-7.5 -283.5q0 -44 5.5 -61t23.5 -17q17 0 66 18l47 17q11 4 20 -9t9 -27q0 -10 -72.5 -30t-177.5 -78 q-14 -7 -23 -7q-24 1 -25 31zM12 735q0 12 3 23.5t17 11.5h16q54 0 70.5 11.5t21.5 57.5l20 207q19 189 103 353t234 164q19 0 47 -1.5t35 -8.5t8.5 -21.5t1.5 -37.5q0 -19 -1 -34t-2 -26q0 -11 -11 -16.5t-28 -5.5q-36 0 -36 17q0 29 -9 47t-29 18q-44 0 -73.5 -79 t-37.5 -182l-37 -415q-3 -29 6 -38.5t38 -9.5h174q8 0 11.5 -10t3.5 -28q0 -33 -14 -33h-201q-17 0 -20 -23l-116 -1066q-1 -12 -14 -16l-53 -17q-11 -3 -16 -3q-15 0 -15 27l22 1098h-101q-18 0 -18 36z" />
<glyph unicode="&#xfb03;" horiz-adv-x="1471" d="M1092 709q0 15 12 18q72 7 135 20t122 32q14 3 18 3q29 0 25 -34l-76 -716q-1 -12 -14 -17l-105 -33q-5 -1 -9 -1q-19 0 -16 31l53 683l-119 -19q-12 -1 -19 8.5t-7 24.5zM1233 1092q0 11 1 16q0 50 34 86.5t79 36.5q40 0 66.5 -30.5t26.5 -74.5q0 -12 -1 -18 q0 -50 -34.5 -85.5t-79.5 -35.5q-40 0 -66 30.5t-26 74.5zM551 735q0 12 3 23.5t17 11.5h16q54 0 70.5 11.5t21.5 57.5l20 207q19 189 103 353t234 164q19 0 47 -1.5t35 -8.5t8.5 -21.5t1.5 -37.5q0 -19 -1 -34t-2 -26q0 -11 -11 -16.5t-28 -5.5q-36 0 -36 17q0 29 -9 47 t-29 18q-44 0 -73.5 -79t-37.5 -182l-37 -415q-3 -29 6 -38.5t38 -9.5h174q8 0 11.5 -10t3.5 -28q0 -33 -14 -33h-201q-17 0 -20 -23l-116 -1066q-1 -12 -14 -16l-53 -17q-11 -3 -16 -3q-15 0 -15 27l22 1098h-101q-18 0 -18 36zM12 735q0 12 3 23.5t17 11.5h16 q54 0 70.5 11.5t21.5 57.5l20 207q19 189 103 353t234 164q19 0 47 -1.5t35 -8.5t8.5 -21.5t1.5 -37.5q0 -19 -1 -34t-2 -26q0 -11 -11 -16.5t-28 -5.5q-36 0 -36 17q0 29 -9 47t-29 18q-44 0 -73.5 -79t-37.5 -182l-37 -415q-3 -29 6 -38.5t38 -9.5h174q8 0 11.5 -10 t3.5 -28q0 -33 -14 -33h-201q-17 0 -20 -23l-116 -1066q-1 -12 -14 -16l-53 -17q-11 -3 -16 -3q-15 0 -15 27l22 1098h-101q-18 0 -18 36z" />
<glyph unicode="&#xfb04;" horiz-adv-x="1442" d="M1154 -15q0 106 0.5 221t6 231t18.5 269q0 254 18.5 399.5t50.5 233.5q29 70 59 141h252q12 0 12 -18q0 -21 -12 -21l-36 -2q-91 0 -136 -155.5t-68 -424t-30.5 -428t-7.5 -283.5q0 -44 5.5 -61t23.5 -17q17 0 66 18l47 17q11 4 20 -9t9 -27q0 -10 -72.5 -30t-177.5 -78 q-14 -7 -23 -7q-24 1 -25 31zM551 735q0 12 3 23.5t17 11.5h16q54 0 70.5 11.5t21.5 57.5l20 207q19 189 103 353t234 164q19 0 47 -1.5t35 -8.5t8.5 -21.5t1.5 -37.5q0 -19 -1 -34t-2 -26q0 -11 -11 -16.5t-28 -5.5q-36 0 -36 17q0 29 -9 47t-29 18q-44 0 -73.5 -79 t-37.5 -182l-37 -415q-3 -29 6 -38.5t38 -9.5h174q8 0 11.5 -10t3.5 -28q0 -33 -14 -33h-201q-17 0 -20 -23l-116 -1066q-1 -12 -14 -16l-53 -17q-11 -3 -16 -3q-15 0 -15 27l22 1098h-101q-18 0 -18 36zM12 735q0 12 3 23.5t17 11.5h16q54 0 70.5 11.5t21.5 57.5l20 207 q19 189 103 353t234 164q19 0 47 -1.5t35 -8.5t8.5 -21.5t1.5 -37.5q0 -19 -1 -34t-2 -26q0 -11 -11 -16.5t-28 -5.5q-36 0 -36 17q0 29 -9 47t-29 18q-44 0 -73.5 -79t-37.5 -182l-37 -415q-3 -29 6 -38.5t38 -9.5h174q8 0 11.5 -10t3.5 -28q0 -33 -14 -33h-201 q-17 0 -20 -23l-116 -1066q-1 -12 -14 -16l-53 -17q-11 -3 -16 -3q-15 0 -15 27l22 1098h-101q-18 0 -18 36z" />
</font>
</defs>
</svg>
