<?xml version="1.0" standalone="no"?>
<!DOCTYPE svg PUBLIC "-//W3C//DTD SVG 1.1//EN" "http://www.w3.org/Graphics/SVG/1.1/DTD/svg11.dtd" >
<svg xmlns="http://www.w3.org/2000/svg">
<metadata>
This is a custom SVG webfont generated by Font Squirrel.
Copyright   : Copyright 19901993 Bitstream Inc  All rights reserved
</metadata>
<defs>
<font id="ZapfHumnstBTRoman" horiz-adv-x="1124" >
<font-face units-per-em="2048" ascent="1638" descent="-410" />
<missing-glyph horiz-adv-x="561" />
<glyph unicode=" "  horiz-adv-x="561" />
<glyph unicode="&#x09;" horiz-adv-x="561" />
<glyph unicode="&#xa0;" horiz-adv-x="561" />
<glyph unicode="!" horiz-adv-x="672" d="M223 96q0 45 33 79t80 34q45 0 79 -33t34 -80q0 -45 -34 -79.5t-79 -34.5t-79 33t-34 81zM238 1277v40q0 51 25 79.5t71 28.5t72 -28.5t26 -79.5l-1 -40l-1 -22l-76 -915h-39l-75 915z" />
<glyph unicode="&#x22;" horiz-adv-x="569" d="M98 881v553h101v-553h-101zM371 881v553h102v-553h-102z" />
<glyph unicode="#" horiz-adv-x="1575" d="M117 479l39 109h325l101 276h-353l35 107h354l173 483h127l-168 -483h264l172 483h127l-170 -483h315l-37 -107h-317l-98 -276h340l-37 -109h-340l-170 -479h-129l172 479h-269l-172 -479h-127l170 479h-327zM612 588h267l96 276h-266z" />
<glyph unicode="$" d="M154 96l32 82q3 10 12 39q6 20 11 39q63 -89 138.5 -134.5t162.5 -45.5h6v557q-191 47 -274.5 128t-83.5 218q0 138 94.5 233t255.5 117v39l-4 101v6l18 -1l19 -1h20l31 3l-3 -72l-1 -69q88 0 164.5 -21.5t140.5 -66.5q-12 -16 -23 -33q-3 -5 -21 -34l-34 -62 q-26 68 -82 104.5t-145 45.5v-494l47 -10q164 -36 250 -126.5t86 -225.5q0 -159 -98 -266t-277 -142v-49l3 -138l1 -23l-21 4l-24 1l-22 -1l-23 -4l1 17l3 140v49q-99 0 -191 24t-169 72zM287 1036q0 -90 54.5 -147.5t174.5 -93.5v469q-48 0 -89 -18t-76 -53 q-64 -64 -64 -157zM588 82q107 14 171 88.5t64 185.5q0 103 -51 159t-184 101v-534z" />
<glyph unicode="%" horiz-adv-x="1575" d="M72 999q0 143 90.5 237.5t226.5 94.5q134 0 216.5 -87.5t82.5 -231.5q0 -156 -87.5 -250t-233.5 -94q-132 0 -213.5 90.5t-81.5 240.5zM221 1024q0 -158 36.5 -227.5t121.5 -69.5q78 0 118 64.5t40 191.5q0 154 -37 221.5t-121 67.5q-77 0 -118 -63q-20 -32 -30 -77 t-10 -108zM262 -190l961 1712h92l-957 -1712h-96zM885 330q0 142 90 237t227 95q134 0 216.5 -87.5t82.5 -232.5q0 -156 -87.5 -250t-233.5 -94q-132 0 -213.5 90.5t-81.5 241.5zM1042 354q0 -158 37.5 -227.5t120.5 -69.5q78 0 118 63t40 191q0 154 -37 221.5t-121 67.5 q-78 0 -118 -62.5t-40 -183.5z" />
<glyph unicode="&#x26;" horiz-adv-x="1456" d="M141 315q0 137 83.5 242t279.5 211q-72 87 -105.5 164.5t-33.5 157.5q0 143 86 228t229 85q119 0 189.5 -63.5t70.5 -172.5q0 -92 -70 -187.5t-198 -172.5q40 -56 87 -118q41 -54 90 -115q90 -111 187 -214q61 79 118 183q52 97 103 225l45 -42l39 -38 q-74 -119 -136 -207q-65 -92 -130 -172l143 -167l33 -37l104 -105l-60 7l-70 3l-70 -3q-12 0 -23.5 -1t-31.5 -6q-18 26 -33 47.5t-35 46.5q-33 44 -67 82q-95 -101 -203 -152q-52 -23 -113 -36t-125 -13q-171 0 -277 93t-106 247zM303 371q0 -126 87 -217t212 -91 q98 0 181 44.5t141 123.5l-197 243q-91 116 -188 245q-119 -69 -177.5 -154t-58.5 -194zM498 1149q0 -67 34 -139t107 -158q99 71 148 147t49 162q0 83 -43 134t-113 51q-81 0 -131.5 -54.5t-50.5 -142.5z" />
<glyph unicode="'" horiz-adv-x="295" d="M98 881v553h101v-553h-101z" />
<glyph unicode="(" horiz-adv-x="563" d="M137 580q0 251 79.5 461.5t238.5 379.5l43 -37q-121 -161 -178 -354q-28 -95 -42 -203.5t-14 -238.5q0 -271 56.5 -464t175.5 -337l-39 -47q-162 170 -241 375.5t-79 464.5z" />
<glyph unicode=")" horiz-adv-x="563" d="M70 -219q118 157 175.5 350t57.5 447q0 263 -56.5 458t-176.5 342l39 47q160 -166 240.5 -371.5t80.5 -451.5q0 -258 -78.5 -472t-238.5 -386z" />
<glyph unicode="*" horiz-adv-x="1012" d="M158 1182q12 14 20 26q4 6 18 29.5t29 60.5q17 -10 43 -32q143 -107 209 -151q0 37 -3 66t-12.5 97.5t-26.5 146.5l33 -5l32 -1l33 1q6 0 13 1t19 4l-17 -160l-11 -151q71 47 129 94q23 18 44 36q25 21 72 63q7 -21 13 -33q3 -7 13 -22q7 -13 16.5 -27.5t23.5 -32.5 q-72 -27 -142 -59.5t-89 -41.5q-3 -2 -54 -28l147 -62l144 -55q-14 -17 -24 -30.5t-17.5 -28t-10.5 -20.5q-8 -16 -16 -36q-19 15 -55.5 41t-57.5 40l-141 102q3 -33 6.5 -68t14 -108.5t24.5 -134.5l-34 4l-35 2q-20 0 -32 -2h-13q-5 0 -20 -4l19 149l13 161 q-71 -48 -131 -95q-33 -26 -58 -46t-57 -49q-6 18 -10.5 29t-15.5 30q-15 27 -39 54l158 69l127 60q-66 33 -140.5 63.5t-150.5 53.5z" />
<glyph unicode="+" horiz-adv-x="1706" d="M254 561v98h551v562h98v-562h549v-98h-549v-561h-98v561h-551z" />
<glyph unicode="," horiz-adv-x="561" d="M90 -358l143 489q14 45 39 69.5t56 24.5q33 0 54 -21t21 -57q0 -14 -4.5 -28.5t-5.5 -18.5q-4 -11 -16 -30l-254 -443z" />
<glyph unicode="-" horiz-adv-x="682" d="M90 430v131h502v-131h-502z" />
<glyph unicode="." horiz-adv-x="561" d="M166 94q0 48 33.5 81.5t81.5 33.5q46 0 80 -34t34 -81q0 -45 -33.5 -78.5t-80.5 -33.5q-49 0 -82 32.5t-33 79.5z" />
<glyph unicode="/" horiz-adv-x="575" d="M-43 -190l561 1726h90l-561 -1726h-90z" />
<glyph unicode="0" d="M84 666q0 345 120.5 521.5t356.5 176.5q240 0 359.5 -174.5t119.5 -523.5q0 -343 -122 -520t-357 -177q-233 0 -355 177.5t-122 519.5zM256 668q0 -335 72 -484t235 -149q166 0 235.5 143t69.5 514q0 158 -18 272t-56 188q-72 146 -231 146q-161 0 -234 -146.5 t-73 -483.5z" />
<glyph unicode="1" d="M141 1149q115 41 244 101t320 157q0 -40 -10 -254q-5 -107 -5 -179l-4 -620l1 -208l3 -146l-44 6l-48 2h-24q-11 0 -25 -2l-45 -6l15 470q0 107 2.5 272t2.5 188q0 26 -1 78t-1 77q0 26 -2 86t-2 64l-311 -180q-13 30 -29 53t-37 41z" />
<glyph unicode="2" d="M96 0v35q413 404 536 594q120 186 120 360q0 141 -64 221t-176 80q-94 0 -159 -60t-103 -181q-20 34 -42 64l-40 50q63 96 162 149q50 26 102.5 39t114.5 13q181 0 283 -97t102 -272q0 -49 -9 -93.5t-29 -90.5q-18 -45 -48 -90t-75 -98.5t-198 -210.5 q-147 -152 -257 -274l81 -3h121q28 0 100 2t84 2q29 0 110 7t134 7l-3 -38l-1 -23l1 -45l5 -47l-258 3l-164 1l-418 -4h-12z" />
<glyph unicode="3" d="M127 37q7 23 12 45t7.5 34.5t6 38.5t5.5 47q41 -75 118 -120q39 -21 82 -32t91 -11q147 0 226 91q39 46 59 111.5t20 153.5q0 128 -68.5 202.5t-187.5 74.5l-54 -3q-15 -2 -23.5 -2.5t-39.5 -7.5l1 6l3 35l-1 17l-3 26l17 -2h28q134 0 203 73q33 36 50 90.5t17 129.5 q0 124 -58 194t-159 70q-77 0 -138 -47.5t-91 -132.5l-43 64q-18 27 -37 49q66 66 152 99.5t186 33.5q169 0 265.5 -85.5t96.5 -236.5q0 -113 -69.5 -194.5t-214.5 -136.5q83 0 149 -23.5t113 -66.5q90 -83 90 -236q0 -187 -138 -302.5t-362 -115.5q-91 0 -170 18t-141 52z " />
<glyph unicode="4" d="M39 379v31q38 51 94 127.5t96 132.5t101 144q74 106 168 245q87 129 200 299l6 -1l60 -3h24l41 4l-8 -235l-2 -367v-154q0 -18 1 -52t1 -50q16 0 26 -2h42l60 1q26 0 58 5l1 -123l-87 1l-99 5l-3 -114v-111l1 -93q0 -31 5 -69l-29 3l-51 1l-51 -1l-32 -3l1 27 q0 61 4.5 148.5t4.5 103.5l-1 49l-1 53h-12l-291 4q-29 0 -85 -1t-83 -1q-28 0 -92.5 -2t-67.5 -2zM205 500h471v674q-56 -62 -177 -235q-126 -181 -294 -439z" />
<glyph unicode="5" d="M127 41l20 86l17 83q45 -83 119 -127q38 -22 80 -33t92 -11q141 0 226 101.5t85 271.5q0 145 -74 225t-209 80q-59 0 -112 -15t-99 -47l-26 7l9 109l3 120q0 42 -2 120t-2 115q0 59 -2 89t-10 116l122 -11l148 -3l173 3q26 0 106 5.5t108 5.5l-5 -42l-1 -40l1 -33 q0 -7 1 -12t4 -16l-74 7q-35 0 -70 1t-67 2h-335l-12 -191l-3 -192v-65q31 21 89 34t140 13q175 0 274 -100.5t99 -276.5q0 -206 -138.5 -329.5t-373.5 -123.5q-91 0 -166.5 18.5t-134.5 55.5z" />
<glyph unicode="6" d="M117 547q0 366 171.5 594.5t438.5 228.5q29 0 64 -6q19 -3 34 -6.5t37 -10.5l-1 -24l-1 -25l1 -23l1 -24q-31 24 -70 36.5t-83 12.5q-169 0 -282 -179q-63 -98 -97 -210q-41 -133 -41 -280q65 86 153 130t193 44q173 0 276 -103t103 -276q0 -210 -122 -333.5t-327 -123.5 q-210 0 -329 153.5t-119 424.5zM303 391q0 -156 74.5 -256t189.5 -100q126 0 198.5 96.5t72.5 263.5q0 162 -66.5 248t-191.5 86q-123 0 -200 -93t-77 -245z" />
<glyph unicode="7" d="M173 0q32 48 66 104q46 75 90 147q21 35 114 192q187 318 423 735h-379q-45 0 -94 -1.5t-79 -2.5q-34 0 -64 -2.5t-74 -7.5l3 29l1 50l-1 55l-3 33l254 -8l303 -2q33 0 88 1t76 1q38 0 56 1.5t71 6.5v-51q-74 -126 -175 -302t-155.5 -272.5t-133.5 -238.5 q-183 -335 -238 -467l-31 3l-47 1l-46 -1z" />
<glyph unicode="8" d="M111 369q0 143 75.5 236.5t237.5 150.5q-123 39 -185 108q-29 34 -44 77t-15 95q0 149 104.5 238.5t278.5 89.5q181 0 281 -79t100 -224q0 -110 -60 -186t-179 -113q155 -39 232 -129.5t77 -235.5q0 -195 -122.5 -311.5t-328.5 -116.5q-213 0 -332.5 105t-119.5 295z M293 371q0 -160 70.5 -246t199.5 -86q125 0 196.5 87.5t71.5 244.5q0 175 -63.5 262.5t-194.5 87.5q-138 0 -209 -88.5t-71 -261.5zM356 1042q0 -127 53 -192.5t154 -65.5t160 66.5t59 185.5q0 132 -52 196t-161 64q-101 0 -157 -66.5t-56 -187.5z" />
<glyph unicode="9" d="M104 928q0 193 127.5 315.5t329.5 122.5q212 0 328.5 -149t116.5 -422q0 -372 -162.5 -598t-429.5 -226q-50 0 -102 9.5t-95 25.5l1 22l1 23l-1 34l-1 34q24 -18 51.5 -34t53.5 -26t52.5 -15t55.5 -5q83 0 146.5 36t121 119t92.5 211.5t35 260.5l-1 27l-1 25 q-48 -89 -133.5 -135t-206.5 -46q-169 0 -274 107t-105 284zM268 928q0 -143 74 -226.5t201 -83.5q129 0 200.5 90.5t71.5 254.5q0 162 -69.5 251t-196.5 89q-124 0 -202.5 -104t-78.5 -271z" />
<glyph unicode=":" horiz-adv-x="668" d="M221 94q0 45 33 79t80 34q46 0 80.5 -33.5t34.5 -79.5q0 -45 -34 -78.5t-81 -33.5t-80 32.5t-33 79.5zM221 807q0 45 33 79t80 34t81 -34t34 -79q0 -46 -34.5 -80.5t-80.5 -34.5t-79.5 33.5t-33.5 81.5z" />
<glyph unicode=";" horiz-adv-x="668" d="M135 -356l144 492q12 43 37 66q25 25 55 25q33 0 56 -23q24 -21 24 -57q0 -16 -5.5 -32t-21.5 -43l-254 -443zM233 807q0 45 35 79t80 34t79 -33t34 -80q0 -46 -34 -80.5t-79 -34.5q-46 0 -80.5 34t-34.5 81z" />
<glyph unicode="&#x3c;" horiz-adv-x="1706" d="M264 569v82l1178 484v-109l-1022 -416l1022 -413v-109z" />
<glyph unicode="=" horiz-adv-x="1706" d="M254 375v98h1198v-98h-1198zM254 748v98h1198v-98h-1198z" />
<glyph unicode="&#x3e;" horiz-adv-x="1706" d="M264 88v109l1022 413l-1022 416v109l1178 -484v-82z" />
<glyph unicode="?" horiz-adv-x="788" d="M178 1352q62 37 121 55t119 18q134 0 213.5 -78.5t79.5 -213.5q0 -69 -31.5 -135t-95.5 -134l-115 -121q-74 -77 -99.5 -122.5t-25.5 -88.5q0 -50 33 -84t86 -34l32 3l40 9l-17 -59l-35 -9l-34 -2q-106 0 -170 66t-64 176q0 61 27.5 116.5t99.5 131.5l135 141 q53 54 72 97q10 21 15 43.5t5 50.5q0 82 -46.5 130t-125.5 48q-70 0 -121 -33.5t-77 -95.5zM305 94q0 45 33 79t80 34q46 0 79 -33t33 -80q0 -44 -33 -78t-79 -34q-49 0 -81 33t-32 79z" />
<glyph unicode="@" horiz-adv-x="2048" d="M117 537q0 206 86 382t252 314q132 108 299 164.5t360 56.5q164 0 309.5 -44t247.5 -124q127 -98 193.5 -227.5t66.5 -280.5q0 -173 -61.5 -310.5t-181.5 -231.5q-67 -53 -148.5 -82t-161.5 -29q-96 0 -144 37.5t-48 113.5l1 14l1 15q-50 -86 -127 -133t-168 -47 q-153 0 -233 84t-80 244q0 229 135 387.5t329 158.5q94 0 158 -41t96 -122l60 125h94l-139 -562l-14 -63l-3 -29q0 -41 28 -68q29 -24 79 -24t105.5 21t105.5 61q95 76 150 204t55 283q0 253 -198.5 416.5t-508.5 163.5q-176 0 -320.5 -49t-261.5 -150 q-147 -126 -222 -290.5t-75 -362.5q0 -173 60 -304t184 -233q100 -80 244 -127t301 -47q87 0 169 12t165 38q165 48 301 143l39 -55q-147 -111 -311.5 -166.5t-342.5 -55.5q-193 0 -347 46t-275 139q-154 116 -228.5 273t-74.5 362zM702 444q0 -111 54.5 -173t152.5 -62 q54 0 100.5 17t88.5 54q82 71 112 189l62 248q-18 93 -76 145.5t-139 52.5q-154 0 -254.5 -133.5t-100.5 -337.5z" />
<glyph unicode="A" horiz-adv-x="1268" d="M-8 0q190 416 346 767l287 658h39q71 -179 144 -358q68 -167 147 -357q47 -113 99 -236q58 -138 100 -236q21 -48 103 -237l-52 6l-48 3l-50 -3q-13 0 -30 -3t-24 -4q-28 86 -47 140q-10 27 -33 88q-47 126 -94 237l-35 82l-97 3l-155 1l-158 -1l-96 -3l-100 -244 q-49 -129 -111 -303l-34 7l-34 3l-32 -3q-17 -2 -35 -7zM373 637l63 -1l92 -1l123 1l152 1l-35 90l-43 104q-34 85 -133 314z" />
<glyph unicode="B" horiz-adv-x="1221" d="M183 -4q5 51 10 117.5t5 111.5q0 51 2.5 171t2.5 165l-3 498q0 76 -5 189t-5 151l37 -2l62 -2l102 4l146 4q265 0 387.5 -75.5t122.5 -240.5q0 -133 -86 -217t-259 -118q196 -21 289.5 -103.5t93.5 -234.5q0 -204 -141 -311t-412 -107q-17 0 -66.5 2t-64.5 2l-110 4 l-41 -2q-20 0 -67 -6zM360 496l3 -245q0 -42 2.5 -78.5t7.5 -84.5l72 -14l67 -4q181 0 284 86t103 235q0 160 -96.5 238t-298.5 78q-35 -3 -62.5 -5t-60.5 -2q-15 0 -21 -2v-202zM367 784l59 -5l55 -1q185 0 282 75t97 222q0 126 -86.5 192t-251.5 66l-66 -3q-14 0 -33.5 -2 t-45.5 -5l-8 -121l-2 -143v-275z" />
<glyph unicode="C" horiz-adv-x="1343" d="M84 698q0 332 206.5 529.5t553.5 197.5q122 0 233 -24.5t207 -73.5q-1 -5 -10.5 -42.5t-14.5 -59.5q-8 -51 -8 -95q-72 113 -172.5 166.5t-240.5 53.5q-257 0 -400 -172t-143 -482q0 -299 141.5 -472t386.5 -173q116 0 229.5 44t217.5 128l-13 -135q-75 -56 -192 -85.5 t-266 -29.5q-341 0 -528 190t-187 535z" />
<glyph unicode="D" horiz-adv-x="1546" d="M182 0l6 258l2 440q0 103 -0.5 215.5t-1.5 233.5q0 64 -1 101q-4 149 -4 151l84 -3l69 -1q14 0 75.5 2.5t97.5 2.5l224 5q178 0 278.5 -22.5t178.5 -75.5q125 -84 193.5 -230t68.5 -336q0 -364 -206.5 -554.5t-600.5 -190.5l-147 4l-152 4l-73 -2q-20 0 -50.5 -1 t-40.5 -1zM358 752q0 -66 1 -184t1 -170q0 -65 3.5 -173.5t3.5 -136.5l118 -8l97 -2q339 0 505 154.5t166 469.5q0 329 -135.5 475t-443.5 146l-161 -3q-30 0 -81 -3.5t-65 -3.5l-7 -267z" />
<glyph unicode="E" horiz-adv-x="1014" d="M182 0q0 38 4 102q9 145 9 199l4 414q0 105 -1.5 213t-2.5 175q0 50 -4 118q-9 152 -9 178l93 -3l159 -1l248 1l221 3l-1 -29l-1 -31l1 -29l1 -30l-238 15q-56 0 -91 1q-140 4 -156 4h-49q0 -40 -1 -116t-1 -111v-205v-82h36q32 0 112 2t93 2l240 12l-3 -36l-1 -27l1 -24 l3 -33q-25 5 -57 8.5t-66 3.5q-14 0 -102 2t-162 2h-94v-98v-285q0 -35 1 -107t1 -108h51q44 0 70 1q128 5 145 5q41 0 97 5q135 12 179 12l-1 -31l-1 -31l1 -31l1 -30l-130 3l-220 1l-231 -1z" />
<glyph unicode="F" horiz-adv-x="1010" d="M184 0q8 92 10.5 132.5t2.5 101.5l4 286q0 76 -2 251.5t-2 187.5q0 82 -3 164q-9 246 -9 276l94 -3l184 -1l252 1l200 3l-1 -34l-1 -34l1 -33l1 -32q-45 10 -79 15q-54 8 -104 8q-38 0 -96 3q-154 8 -214 8h-49l-5 -123l-1 -186v-141v-64h163q45 0 96.5 1.5t84.5 2.5 q35 0 77 3.5t88 9.5l-1 -23l-1 -39v-36q0 -14 2 -21l-276 12l-174 4h-59v-471l1 -157q0 -17 1.5 -33.5t5.5 -38.5l-49 6l-54 2h-22q-10 0 -25 -2z" />
<glyph unicode="G" horiz-adv-x="1495" d="M86 678q0 339 220.5 543t590.5 204q146 0 274.5 -33t229.5 -98l-28 -92l-21 -88q-80 116 -202 175t-286 59q-258 0 -416.5 -178t-158.5 -474q0 -292 164.5 -468.5t435.5 -176.5q43 0 85.5 4t83.5 13t80.5 21.5t82.5 31.5l3 89l3 112q0 15 -1 50t-1 55l-6 157l52 -7 q23 0 34 -2h12q7 0 21 2l52 7l-4 -190l-2 -132q0 -20 1 -57t1 -53q0 -20 2 -43t5 -48q-140 -41 -282 -64q-66 -10 -134.5 -16t-128.5 -6q-351 0 -556.5 190t-205.5 513z" />
<glyph unicode="H" horiz-adv-x="1569" d="M182 1399l50 -6l51 -2h19h15q11 2 16 2l46 6q-4 -28 -7.5 -69t-3.5 -82q0 -85 -1 -182t-2 -187v-80q22 0 75.5 -1t85.5 -1h262h260q30 0 84 1t78 1v80q0 66 -1.5 144t-2.5 128q0 48 -3 95q-9 141 -9 153l44 -6l52 -2h20q10 0 18 0.5t14 1.5l49 6q0 -37 -4 -96 q-9 -133 -9 -176l-4 -373q0 -68 2 -223t2 -162q0 -57 4 -139q9 -185 9 -230l-50 6l-53 2h-24q-11 0 -26 -2l-44 -6q0 39 6 132t6 149l4 331v96l-212 5l-210 2q-35 0 -105 -1t-106 -1t-120 -2t-92 -2v-97q0 -164 1 -261t2 -180q0 -55 3 -95t8 -76l-50 6l-53 2h-24 q-11 0 -26 -2l-43 -6q0 42 4 112q9 158 9 213q0 74 2.5 227.5t2.5 201.5q0 114 -2 213.5t-3 185.5q0 66 -3.5 127.5t-10.5 118.5z" />
<glyph unicode="I" horiz-adv-x="563" d="M188 0l10 222l3 306v170q0 163 -1 267t-2 196q0 48 -5 127t-5 111l43 -6l50 -2h20h15q10 2 15 2l48 6l-10 -161l-2 -241v-299v-338q0 -55 0.5 -113.5t1.5 -120.5q0 -33 2.5 -60t7.5 -66l-45 6l-49 2h-25q-12 0 -26 -2z" />
<glyph unicode="J" horiz-adv-x="563" d="M-51 -225q151 19 207.5 111t56.5 370q0 131 -1.5 251t-2.5 236t-1 221q0 130 -5.5 278.5t-5.5 154.5l5 -1l77 -7h17h15q11 2 16 2l52 7l-6 -225l-2 -294q0 -78 2 -259.5t2 -195.5l4 -229q0 -235 -96.5 -345.5t-321.5 -134.5z" />
<glyph unicode="K" horiz-adv-x="1188" d="M185 0l10 254l4 352q0 130 -1.5 258.5t-2.5 207.5q0 70 -5 179t-5 148l42 -6l47 -2h20q10 0 18 0.5t14 1.5l47 6l-10 -149l-3 -183v-313l4 -5l7 -1q42 0 218.5 178t422.5 473l42 -6l48 -2h19h15q10 2 14 2l44 6q-78 -60 -307 -289l-37 -37l-301 -297q152 -192 533 -625 l132 -151l-63 7l-57 3l-57 -3q-15 0 -32.5 -3t-25.5 -4q-37 51 -70 96q-39 53 -63 84q-60 80 -107 137l-235 291q-21 26 -41 45t-37 32q-32 21 -65 24l-1 -244l3 -259l9 -206l-50 7l-46 3l-43 -3q-8 0 -20 -1.5t-28 -5.5z" />
<glyph unicode="L" horiz-adv-x="1006" d="M184 1399l46 -6l51 -2h19h15q10 2 15 2l45 6l-13 -384l-4 -343q0 -60 1 -136.5t1 -168.5l9 -271l49 -2h90q39 0 120 3.5t118 3.5q40 0 73 4t107 20l-1 -30l-1 -32l1 -30v-33l-299 4l-175 2q-24 0 -71 -1t-69 -1t-73.5 -2t-52.5 -2l8 353l4 345l-3 362q0 54 -3 127 q-7 170 -7 212z" />
<glyph unicode="M" horiz-adv-x="1796" d="M72 0q19 85 40 204.5t45.5 283t55.5 397t70 540.5h34q182 -363 318 -627q60 -116 132 -252q64 -121 126 -233q58 103 137 245q69 124 145 263l324 604h27q7 -70 20.5 -202.5t18.5 -176t26 -222.5l96 -824l-48 7l-44 3l-44 -3q-9 0 -19.5 -1.5t-27.5 -5.5q0 118 -9 230 q-5 59 -23 210q-21 170 -23 192q-27 276 -52 390q-189 -318 -328.5 -589.5t-196.5 -430.5h-28q-11 40 -28 85t-40 93q-44 100 -127 250l-319 590q-45 -317 -73 -594q-12 -124 -20 -238t-8 -188l-39 7l-36 3l-38 -3q-8 0 -18.5 -1.5t-25.5 -5.5z" />
<glyph unicode="N" horiz-adv-x="1528" d="M168 1q0 77 4.5 179.5t10 218t5.5 179.5q0 135 1.5 222t3.5 210.5t2 197.5v217h38q104 -121 224 -254q114 -127 236 -258q127 -136 256 -269q136 -141 290 -296l1 31l3 149q0 113 -1.5 248t-2.5 221q0 83 -3 160q-9 231 -9 241l40 -6l25 -1l26 1l38 6l-13 -473l-4 -487 l1 -193l3 -272h-26q-44 55 -100.5 121t-122.5 139q-42 48 -90 100q-41 45 -100 108q-70 75 -111 118l-496 522l-4 -117l-2 -151q0 -42 2 -162.5t2 -157.5l12 -493l-36 7l-33 3l-33 -3z" />
<glyph unicode="O" horiz-adv-x="1679" d="M84 696q0 330 206 528.5t550 198.5q348 0 550.5 -195.5t202.5 -531.5q0 -324 -207.5 -524.5t-545.5 -200.5q-351 0 -553.5 195t-202.5 530zM289 690q0 -309 142.5 -475t408.5 -166q263 0 406 168.5t143 480.5q0 319 -140 483.5t-409 164.5q-264 0 -407.5 -171.5 t-143.5 -484.5z" />
<glyph unicode="P" horiz-adv-x="1126" d="M180 1401l51 -6l50 -2q49 3 84.5 5t76.5 2l181 7q219 0 338.5 -93.5t119.5 -264.5q0 -197 -147.5 -305.5t-419.5 -108.5l-68 1l-89 5l-1 -293l3 -149l9 -197l-52 6l-33 2l-49 -3q-13 0 -28.5 -2.5t-24.5 -4.5l8 344l4 354q0 66 -2 212.5t-2 150.5zM356 899l1 -184 q21 0 34 -2h58q220 0 330 78.5t110 238.5q0 159 -92.5 229t-302.5 70q-44 0 -120 -7l-5 -1q-3 -64 -5 -109.5t-2 -96.5q0 -52 -3 -124t-3 -92z" />
<glyph unicode="Q" horiz-adv-x="1679" d="M84 696q0 330 206 528.5t550 198.5q348 0 550.5 -195.5t202.5 -531.5q0 -259 -132.5 -439.5t-379.5 -256.5q100 -77 230 -170.5t268 -185.5q-39 -15 -77 -37.5t-77 -55.5q-129 124 -251 228.5t-248 197.5l-69 -4l-50 -2q-79 0 -150 12t-139 38q-134 52 -234 150t-151 228 q-23 63 -36 139t-13 158zM289 690q0 -309 142.5 -475t408.5 -166q264 0 407.5 168.5t143.5 480.5q0 317 -141.5 483.5t-409.5 166.5q-264 0 -407.5 -172t-143.5 -486z" />
<glyph unicode="R" horiz-adv-x="1219" d="M186 1399l20 -1l75 -3l147 4l180 4q232 0 346.5 -82.5t114.5 -249.5q0 -144 -106 -243.5t-304 -135.5q42 -56 122 -158q77 -98 172 -217q110 -137 224 -278l31 -39l-64 7l-59 3l-57 -3l-62 -6q-31 45 -56 81q-35 50 -85 119q-28 39 -73 100q-21 27 -41 55l-224 287 q-16 23 -35.5 34t-45.5 11l-34 -3l-5 -1v-375l3 -146l8 -163l-50 7l-45 3l-46 -3q-10 0 -22 -1.5t-28 -5.5q0 45 2 85q7 139 7 162q0 116 1 230.5t2 220.5q0 132 -1 231.5t-2 193.5q0 57 -5 149t-5 127zM367 748l27 -3h40q229 0 343 75t114 227q0 138 -88.5 208t-263.5 70 l-126 -6q-25 0 -34 -2q-5 -39 -7 -55.5t-2 -41.5l-3 -112v-90v-270z" />
<glyph unicode="S" horiz-adv-x="1004" d="M86 82q8 23 15 49.5t14.5 60.5t11.5 58t4 49q45 -115 135 -179.5t203 -64.5q132 0 212.5 82t80.5 219q0 95 -45.5 153.5t-161.5 104.5l-166 70q-141 59 -206.5 141t-65.5 203q0 173 120 284t312 111q84 0 160 -18.5t151 -56.5l-30 -72q-5 -15 -10 -29q-8 -26 -17 -57 q-54 78 -125.5 118t-157.5 40q-112 0 -179 -68.5t-67 -185.5q0 -87 47.5 -144t159.5 -106l166 -72q145 -61 208 -144.5t63 -211.5q0 -199 -134 -321t-354 -122q-101 0 -188 27.5t-156 81.5z" />
<glyph unicode="T" horiz-adv-x="1116" d="M41 1278l3 33l1 24l-1 26l-3 38l238 -5l251 -1l266 1l279 4l-3 -21l-1 -38l1 -38l3 -23q-48 8 -73 12q-48 7 -85 7q-44 0 -69 1q-123 5 -135 5l-60 -1l-8 -197l-2 -261l3 -407l9 -437l-46 4l-48 2h-23q-10 0 -25 -2h-30q-15 -3 -22 -4l9 493l3 468v342h-55q-36 0 -141 -5 q-42 -2 -76 -2q-40 0 -86 -6q-25 -3 -74 -12z" />
<glyph unicode="U" horiz-adv-x="1536" d="M186 590l4 153q0 64 2.5 161.5t2.5 107.5q-3 97 -5 171.5t-2 159.5v25v20q-2 8 -2 11l43 -6l47 -2h21h17q10 2 15 2l44 7l-6 -468l-2 -277q0 -193 23.5 -288t78.5 -160.5t142 -102t194 -36.5q108 0 194.5 36.5t141.5 105.5t79 177q11 52 17 145t6 226q0 59 -1 170t-1 163 l-6 308l30 -6l33 -2h14q8 0 18 1t17 2t19 4l-8 -224l-2 -148v-53q0 -393 -18.5 -534.5t-65.5 -221.5q-71 -121 -197.5 -182.5t-302.5 -61.5q-303 0 -443.5 147.5t-140.5 469.5z" />
<glyph unicode="V" horiz-adv-x="1268" d="M12 1399l48 -6l53 -2h20h16q12 2 17 2l47 6q53 -148 106.5 -292.5t111.5 -293.5q42 -109 78 -199q51 -130 81 -203q21 -51 86 -208q66 160 123 304q62 157 117 301q27 70 74 198q22 60 71 197q46 128 69 196l32 -6l36 -2h14h12q8 2 11 2l33 6l-94 -226q-23 -56 -94 -228 q-79 -192 -95 -232q-65 -162 -93 -233q-38 -96 -93 -237q-41 -105 -94 -242l-36 6l-32 3l-33 -3l-35 -6q-41 107 -102 266q-57 149 -98 252q-44 113 -94 237q-70 177 -89 224q-23 58 -88 214q-49 119 -86 205z" />
<glyph unicode="W" horiz-adv-x="2011" d="M35 1399l46 -6l52 -2h20q10 0 18 0.5t14 1.5l46 6q42 -156 85 -309t88 -303q49 -167 58 -199q34 -113 60 -197q6 -20 64 -196q102 282 202 592q96 300 183 612l31 -6l34 -2h14q8 0 22 2l32 6l60 -196q41 -131 62 -197q33 -100 66 -199t66 -197q38 -112 68 -197 q35 -99 71 -198q19 54 65 193q22 67 63.5 197.5t61.5 195.5q16 52 57 197q18 62 55 199q41 149 54 201l31 -5l35 -2h14h12q8 2 11 2l33 6l-404 -1207l-63 -192l-35 6l-37 2h-19q-9 0 -20 -2l-35 -6q-74 256 -171 548q-27 82 -64 192q-42 126 -68 199q-22 63 -74 206 l-98 -300l-84 -252q-53 -160 -69 -206q-90 -270 -132 -387l-38 7l-33 3l-34 -3q-10 0 -21.5 -3t-15.5 -4q-27 90 -57 187q-49 161 -61 199q-5 16 -67 212q-52 167 -114.5 364.5t-139.5 436.5z" />
<glyph unicode="X" horiz-adv-x="1145" d="M44 0l220 336q67 102 74 113q60 90 117 172l49 73l-37 66q-50 91 -145 247l-235 392l57 -8l51 -2h18h16q12 2 17 2l55 8q93 -180 155 -293q71 -131 107 -186l47 -74l49 72q54 79 127 202q64 111 154 279l33 -8l41 -2h16q9 0 25 2l34 7l-258 -373q-99 -146 -139 -210 l-35 -53l43 -72l344 -568l74 -122l-58 7l-52 3l-55 -3q-15 0 -32.5 -3t-25.5 -4q-64 132 -137 262.5t-156 267.5l-49 82l-49 -71q-52 -76 -135 -219q-44 -76 -82.5 -147t-93.5 -174l-39 6l-35 3l-37 -3q-7 0 -16 -1.5t-22 -5.5z" />
<glyph unicode="Y" horiz-adv-x="1098" d="M-18 1399l52 -6l60 -2h23h19q12 2 18 2l53 6q43 -97 84 -180.5t92 -177.5q96 -172 207 -336q105 171 198 345q42 80 88 174q38 77 82 175l37 -6l39 -2h15q9 0 25 2l36 6q-37 -60 -84 -138q-67 -111 -82 -136q-40 -67 -78.5 -133t-75.5 -131q-26 -44 -73 -128 q-36 -64 -72 -127l-3 -133l-1 -84q0 -28 1 -89t1 -95l8 -205l-46 7l-44 3l-45 -3q-12 0 -28.5 -3t-20.5 -4l7 157l3 136l-3 133q0 27 -3.5 78.5t-3.5 68.5q-8 15 -93 160q-44 75 -87 150q-36 62 -83 140z" />
<glyph unicode="Z" horiz-adv-x="1227" d="M17 0q238 337 459 663q100 148 144 214q60 90 140 212q45 69 137 211l-62 2l-102 1q-44 0 -141 -3t-151 -3q-50 0 -116 -5q-159 -12 -206 -12v5l4 54l-1 25l-3 34l334 -6l209 -1l206 1l334 7q-249 -331 -479 -659q-219 -316 -422 -635l152 -4l94 -1q73 0 110 1 q186 5 191 5q51 0 116 5q157 12 201 12q0 -15 -2 -24v-38v-39q0 -15 2 -22l-288 3l-365 3q-41 0 -125 -1t-126 -1t-140 -2t-104 -2z" />
<glyph unicode="[" horiz-adv-x="563" d="M154 -225l3 118l1 271v422v422l-1 272q0 36 -1 64t-2 55l73 -1l76 -1l77 1l79 1v-72l-34 6l-46 2h-27h-67q0 -34 -2 -66q-7 -112 -7 -137l-2 -313v-233v-234q0 -69 1 -173t1 -138q0 -47 4.5 -117.5t4.5 -85.5h94h20h14q9 2 12 2l34 6v-71h-22h-19q-14 2 -21 2h-96h-91 h-28q-12 0 -28 -2z" />
<glyph unicode="\" horiz-adv-x="575" d="M-43 1536h90l561 -1726h-90z" />
<glyph unicode="]" horiz-adv-x="563" d="M72 -154l33 -6l47 -2h26l68 1l7 166q0 85 1 174.5t2 172.5v234v233q0 124 -1 202t-2 147q0 43 -1.5 85t-5.5 82h-94h-24q-12 0 -23 -2l-33 -6v72l79 -1l76 -1l76 1l74 1l-3 -112l-1 -271v-430v-418l1 -274q0 -36 1 -64t2 -55h-20h-17q-13 2 -19 2h-94h-95h-30 q-13 0 -30 -2v71z" />
<glyph unicode="^" horiz-adv-x="2048" d="M422 901l532 557h140l530 -557h-143l-457 455l-459 -455h-143z" />
<glyph unicode="_" horiz-adv-x="1024" d="M0 -383h1024v-100h-1024v100z" />
<glyph unicode="`" horiz-adv-x="1024" d="M229 1384q0 32 21 52t53 20q19 0 40 -12t56 -47l289 -299h-67l-330 205q-29 19 -47 40q-15 20 -15 41z" />
<glyph unicode="a" horiz-adv-x="985" d="M72 233q0 109 58.5 174.5t178.5 92.5l139 27q179 33 218 67v43q0 142 -55 205t-173 63q-85 0 -150.5 -36.5t-113.5 -108.5h-16l4 108q65 55 150 85t180 30q168 0 245.5 -82t77.5 -262v-25l-8 -350v-57q0 -83 18.5 -109t71.5 -26h21l14 1l8 -40l-6 -2q-52 -15 -92.5 -23 t-69.5 -8q-48 0 -77 27q-26 27 -36 92q-64 -67 -141.5 -102t-163.5 -35q-135 0 -208.5 66t-73.5 185zM240 260q0 -94 47.5 -144t134.5 -50q50 0 106 23.5t99 66.5q16 16 25.5 35t9.5 53v10v254q-267 -45 -344.5 -95.5t-77.5 -152.5z" />
<glyph unicode="b" d="M147 1536l41 -6l48 -2h18h13q10 2 14 2l41 6l-12 -284l-3 -257l1 -97l1 -99q64 97 143.5 141.5t184.5 44.5q190 0 302 -125.5t112 -339.5q0 -243 -125 -390.5t-328 -147.5q-82 0 -155.5 30t-147.5 97q-25 -19 -52.5 -46.5t-56.5 -62.5h-38l4 183l2 329v301v281 q0 67 -0.5 139.5t-1.5 149.5v21v18v16v13v11q0 19 -1 38t-4 36zM293 438q0 -189 71.5 -287t208.5 -98q147 0 226.5 120t79.5 339q0 192 -72.5 291.5t-214.5 99.5q-146 0 -222.5 -119.5t-76.5 -345.5z" />
<glyph unicode="c" horiz-adv-x="948" d="M72 481q0 228 138.5 366t369.5 138q87 0 171 -20.5t162 -61.5l-30 -82q-7 -22 -12 -40.5t-13 -53.5q-42 96 -112 144.5t-166 48.5q-162 0 -252 -115t-90 -322q0 -197 96 -314.5t260 -117.5q83 0 158.5 36t150.5 112l-1 -12l-3 -64v-26q0 -10 2 -15q-64 -49 -152.5 -75.5 t-197.5 -26.5q-217 0 -348 138t-131 363z" />
<glyph unicode="d" horiz-adv-x="1147" d="M72 467q0 231 120.5 374.5t313.5 143.5q55 0 99.5 -11t86.5 -36q80 -45 139 -141v368q0 32 -1 95t-1 94t-2 92t-2 90l50 -11l38 -3l38 3q8 1 22.5 4t27.5 7l-8 -275l-2 -382q0 -73 1 -220t1 -220t4 -219t4 -220l-43 7l-40 3l-42 -3q-12 0 -25 -3t-19 -4l3 72l1 49l-1 47 v11q0 7 -2 19q-57 -110 -143 -163t-207 -53q-185 0 -298 133t-113 352zM242 473q0 -195 74 -304.5t208 -109.5q148 0 229 117t81 336q0 189 -76 292t-211 103q-144 0 -224.5 -114.5t-80.5 -319.5z" />
<glyph unicode="e" horiz-adv-x="1036" d="M74 481q0 229 129 367.5t342 138.5q195 0 303 -116.5t108 -329.5l-1 -22l-1 -23h-704v-7q0 -207 88 -316.5t256 -109.5q90 0 167 33.5t148 103.5l-3 -49l-1 -28v-25q-80 -58 -167 -87q-45 -15 -87 -22t-94 -7q-214 0 -348.5 138.5t-134.5 360.5zM254 567h539v35 q0 150 -68 236t-188 86q-119 0 -199 -99q-40 -49 -62 -115t-22 -143z" />
<glyph unicode="f" horiz-adv-x="565" d="M37 875v79h6l80 -4l27 1h12q8 0 16 2q0 134 27.5 240.5t82.5 185.5q107 157 285 157l25 -1l16 -1l-20 -160q-26 12 -48.5 16.5t-37 6.5t-31.5 2q-86 0 -131 -48q-21 -24 -32 -59t-11 -84q0 -12 2 -51t2 -55l12 -150l46 -1l45 -1l48 1l72 3v-80l-155 3h-23q-12 0 -28 2 q0 -178 1 -310t2 -255q0 -93 3.5 -174.5t9.5 -138.5l-47 6l-43 3l-43 -3q-9 0 -19.5 -1.5t-27.5 -5.5q3 36 6.5 94.5t3.5 110.5l4 418v256l-88 -1z" />
<glyph unicode="g" horiz-adv-x="936" d="M55 -268q0 103 55.5 170t172.5 106q-71 16 -113.5 62.5t-42.5 109.5q0 58 37 102t125 89q-102 32 -153.5 101t-51.5 173q0 157 110 250.5t298 93.5q44 0 65.5 -2t68.5 -9q82 -11 105 -11l77 4q31 0 68 5t54 7l-1 -90l-64 4l-62 2h-41q41 -54 60 -112q10 -28 15 -57t5 -64 q0 -152 -99 -240t-272 -88h-37q-19 3 -28 4l-48 4q-44 0 -70 -26t-26 -70q0 -58 37 -84.5t123 -26.5h115q228 0 319.5 -64t91.5 -214q0 -189 -144.5 -306.5t-377.5 -117.5q-170 0 -270.5 80t-100.5 215zM176 -244q0 -114 78 -186t205 -72q151 0 249.5 81t98.5 206 q0 121 -76.5 168t-310.5 47l-23 -1l-40 -3q-87 -27 -134 -90t-47 -150zM246 662q0 -126 60 -198.5t169 -72.5q106 0 159.5 68.5t53.5 202.5q0 129 -55 200q-27 34 -66.5 52t-91.5 18q-101 0 -165 -74.5t-64 -195.5z" />
<glyph unicode="h" horiz-adv-x="1118" d="M154 0l7 425l3 343l-3 373q0 66 -2 144q-5 195 -5 251l6 -1l80 -7l34 1l50 7l-7 -229l-2 -228l4 -268v-12q65 96 140.5 141t177.5 45q161 0 244.5 -89.5t83.5 -266.5l-4 -145l-3 -171l6 -215l2 -98l-42 7l-41 3l-40 -3l-44 -7l7 329l3 216q0 180 -55 259t-179 79 q-74 0 -129.5 -35t-89.5 -100q-10 -20 -18 -50t-14 -70q-9 -75 -9 -243v-145l2 -107l6 -133l-47 7l-40 3l-40 -3q-8 0 -18.5 -1.5t-23.5 -5.5z" />
<glyph unicode="i" horiz-adv-x="508" d="M150 1323q0 42 30 72t74 30q41 0 72.5 -29.5t31.5 -72.5q0 -42 -30.5 -73t-73.5 -31q-41 0 -74 30q-30 30 -30 74zM170 0l7 266l3 242l-3 219q0 39 -2 86q-5 118 -5 153l40 -6l44 -2h18h13q10 2 14 2l39 6l-8 -241l-2 -217q0 -37 1 -117.5t1 -124.5l8 -265l-43 6l-41 3 l-39 -3q-8 0 -18.5 -1.5t-26.5 -5.5z" />
<glyph unicode="j" horiz-adv-x="506" d="M-39 -516q122 15 168.5 105t46.5 436q0 141 -1 223q-4 327 -4 335q0 88 -3.5 182.5t-7.5 201.5l41 -7l47 -2h19h15q10 2 14 2l42 6l-5 -119l-1 -106l1 -441l1 -388q0 -246 -80.5 -348t-280.5 -123zM143 1323q0 42 30 72t73 30q41 0 72.5 -29.5t31.5 -72.5 q0 -42 -30.5 -73t-73.5 -31q-41 0 -72 30t-31 74z" />
<glyph unicode="k" horiz-adv-x="995" d="M158 0l7 389l3 379l-3 415q0 51 -3.5 173t-3.5 180l52 -7l34 -1l32 1l54 7l-10 -471l-3 -412v-69q0 -15 9 -25t26 -10q39 0 161.5 117.5t266.5 299.5l45 -4l45 -1l45 1l45 4q-45 -31 -103 -80q-65 -55 -163 -149l-184 -174l228 -267l253 -296l-61 7l-53 3l-52 -3 q-11 0 -24 -1.5t-31 -5.5q-171 233 -288.5 370.5t-143.5 137.5q-10 0 -15.5 -5.5t-5.5 -23.5v-12v-102l3 -179l9 -186l-44 7l-41 3l-41 -3q-8 0 -20 -2t-25 -5z" />
<glyph unicode="l" horiz-adv-x="477" d="M154 0l6 188l2 410v342v195q0 61 -0.5 126.5t-1.5 135.5q0 38 -2 67.5t-4 71.5l47 -3l35 -1l35 1l53 3q0 -42 -2 -79q-7 -129 -7 -149l-2 -403v-219q0 -106 0.5 -193.5t1.5 -166.5q0 -76 4 -185t4 -141l-44 4l-43 2h-20q-10 0 -23 -2h-17q-6 0 -22 -4z" />
<glyph unicode="m" horiz-adv-x="1694" d="M160 0l6 105l2 212v166v168q0 50 -0.5 103t-1.5 109q0 26 -2 53t-4 51l37 -7l43 -2h15q9 0 25 2l37 6l-2 -86v-39v-31q-2 -11 -2 -15q75 99 154.5 145.5t171.5 46.5q99 0 172 -54t102 -151q60 101 141 153t181 52q146 0 228.5 -91t82.5 -253l-4 -134l-4 -230q0 -20 1 -64 t1 -69l6 -146l-32 4l-54 2h-28q-13 0 -24 -2q-18 0 -31 -4l10 260l4 307q0 166 -53.5 238t-176.5 72q-130 0 -183.5 -108.5t-53.5 -412.5l1 -183l4 -173l-42 4l-41 2h-20q-9 0 -22 -2q-21 0 -40 -4l10 245l4 300q0 184 -47 258t-158 74q-58 0 -104.5 -21.5t-79.5 -60.5 q-38 -46 -55 -133t-17 -306l3 -180l7 -176l-42 4l-41 2h-20q-10 0 -23 -2h-24q-12 -3 -17 -4z" />
<glyph unicode="n" horiz-adv-x="1120" d="M154 0l6 133l2 223v146q0 67 -0.5 140t-1.5 153l-6 172l40 -7l44 -2h17h13q9 2 13 2q8 0 16 1.5t20 5.5v-10l-4 -95l1 -37l1 -37q59 101 139 150t183 49q162 0 245 -92t83 -274l-2 -151l-2 -146l1 -158l4 -166l-44 7l-39 3l-40 -3l-44 -7q0 45 2 85q7 141 7 167l3 328 q0 152 -58.5 227.5t-174.5 75.5q-61 0 -108 -21.5t-84 -68t-53 -113.5q-8 -35 -12 -83.5t-4 -121.5v-92q0 -59 0.5 -122t1.5 -130q0 -26 3 -70t3 -61l-47 7l-40 3l-40 -3q-8 0 -18.5 -1.5t-25.5 -5.5z" />
<glyph unicode="o" horiz-adv-x="1118" d="M74 483q0 220 137 361t348 141q214 0 349.5 -139t135.5 -363q0 -222 -136 -362q-68 -69 -154.5 -104t-194.5 -35q-212 0 -348.5 139.5t-136.5 361.5zM248 485q0 -217 79 -329.5t232 -112.5q152 0 231.5 109.5t79.5 318.5q0 221 -80 337t-233 116q-152 0 -230.5 -111.5 t-78.5 -327.5z" />
<glyph unicode="p" horiz-adv-x="1143" d="M154 966l33 -6l40 -2h18h14q10 2 14 2q12 0 25 3t19 4l-6 -83l-2 -102q62 106 146 156.5t198 50.5q201 0 307.5 -131t106.5 -377q0 -229 -117.5 -367.5t-314.5 -138.5q-105 0 -182.5 42t-135.5 133v-246l5 -228l5 -235l-44 8l-41 2h-19q-9 0 -21 -2l-44 -8l4 249l2 601 q0 141 -1 237t-2 184q0 39 -3.5 126t-3.5 128zM305 481q0 -208 75.5 -318t217.5 -110q141 0 218 113t77 321q0 198 -77.5 307t-217.5 109q-138 0 -215.5 -111.5t-77.5 -310.5z" />
<glyph unicode="q" horiz-adv-x="1143" d="M72 494q0 233 111.5 364t312.5 131q107 0 189.5 -50t145.5 -157q0 17 -1 50t-1 48v11v38q-3 25 -4 37l42 -6l46 -2h16q9 0 25 2l33 6l-8 -253l-2 -422l1 -600q0 -69 2.5 -158.5t2.5 -91.5l-43 8l-41 2h-18q-9 0 -21 -2l-47 -8l6 292l2 171v246q-55 -89 -134 -132 t-191 -43q-200 0 -312 137.5t-112 381.5zM246 492q0 -208 77.5 -324.5t213.5 -116.5q145 0 221 110.5t76 321.5q0 195 -78.5 307.5t-212.5 112.5q-143 0 -220 -106t-77 -305z" />
<glyph unicode="r" horiz-adv-x="672" d="M152 2l6 260l2 408q0 43 -0.5 90.5t-1.5 99.5q0 25 -2 54.5t-4 52.5l41 -7l47 -2h18h13q10 2 14 2l41 7l-10 -106l-3 -120q57 119 120.5 177.5t135.5 58.5l30 -3q16 0 48 -8l-8 -64l-2 -91l-16 -10q-24 11 -50 19q-28 7 -49 7q-111 0 -163 -98t-52 -315q0 -43 1 -121 t1 -112q0 -40 2 -74q6 -103 6 -107l-41 6l-47 2h-19q-8 0 -20 -2h-22q-11 -3 -16 -4z" />
<glyph unicode="s" horiz-adv-x="729" d="M49 55l27 79l23 78q49 -75 112 -115t137 -40q92 0 145.5 50t53.5 137q0 65 -35.5 103t-126.5 65l-94 26q-117 33 -169 95t-52 169q0 127 87 205t226 78q36 0 70 -4t67 -13q66 -17 118 -50l-25 -65q-4 -11 -8 -27.5t-9 -37.5q-59 70 -118.5 103t-119.5 33q-76 0 -125 -48 t-49 -124q0 -67 35.5 -106.5t120.5 -65.5l139 -41q105 -30 151 -86t46 -150q0 -141 -101.5 -231t-261.5 -90q-77 0 -144.5 18t-119.5 55z" />
<glyph unicode="t" horiz-adv-x="592" d="M25 881l3 33l1 20l-1 17l-1 15l64 -4l67 -1v67l-1 72l-3 100q46 7 86.5 19.5t76.5 31.5l-5 -107l-1 -54v-136l123 3q29 0 54 2t89 8l-4 -33l-2 -35v-16l-103 4l-85 2l-47 -1l-26 -1l-3 -55v-48q0 -20 -2.5 -97.5t-2.5 -119.5l-5 -258q0 -140 39.5 -199t132.5 -59 q29 0 62 11q17 5 38 13t43 19l15 -45q-51 -33 -108.5 -51t-115.5 -18q-137 0 -198.5 65.5t-61.5 214.5l5 216q0 64 3 178t3 163v70h-23h-23q-12 0 -29 -2h-21q-8 0 -33 -4z" />
<glyph unicode="u" d="M154 315l5 174q0 73 2.5 183t2.5 121l-1 70l-3 103l38 -6l44 -2h18h13q10 2 14 2q9 0 19.5 1.5t23.5 5.5q-8 -72 -16 -153t-8 -138q0 -50 -2 -107q-5 -144 -5 -180q0 -162 58 -238.5t182 -76.5q78 0 140.5 39t94.5 108q19 44 28 133.5t9 360.5l-3 127q0 26 -1.5 57 t-5.5 67l40 -6l46 -2h16h13q9 2 13 2l38 7q0 -6 -3.5 -87t-3.5 -131l-2 -356q0 -51 1 -127t1 -100q0 -29 3.5 -87.5t3.5 -78.5l-29 3l-39 3h-17q-8 0 -19 -2q-17 0 -56 -6v37l-3 110l-1 19q-51 -95 -132.5 -141t-195.5 -46q-158 0 -239.5 86t-81.5 252z" />
<glyph unicode="v" horiz-adv-x="936" d="M12 967l44 -7l48 -2h20h16q10 2 15 2l46 7q33 -126 108 -321q37 -95 54 -136q33 -81 64 -152q10 -23 75 -168q98 189 174 385t129 391l31 -6l34 -2h13q7 0 21 2l30 7q-156 -345 -263.5 -603t-142.5 -364l-25 3l-38 1l-37 -1l-20 -3q-43 139 -137 369.5t-259 597.5z" />
<glyph unicode="w" horiz-adv-x="1513" d="M16 967l43 -7l47 -2h19h16q10 2 14 2l44 7q29 -119 93 -306t163 -444q68 153 140 351q62 174 128 398l38 -6l23 -2l23 2l37 6q63 -237 131 -434.5t125 -312.5q46 95 125 300q75 199 159 448q8 0 12.5 -0.5t18.5 -4.5l33 -4l32 4l29 5q-183 -414 -270 -630 q-40 -100 -70.5 -187t-48.5 -150l-30 4l-31 2q-20 0 -30 -2q-14 0 -29 -4q-9 61 -77 259t-175 480q-95 -227 -159 -411t-100 -328l-28 4l-29 2q-20 0 -30 -2q-14 0 -29 -4q-27 117 -112.5 349t-244.5 618z" />
<glyph unicode="x" horiz-adv-x="963" d="M10 0q62 65 115 128t137 173l135 176l-96 135l-18 26q-153 211 -250 329l49 -7l55 -2h22h16q12 2 17 2l50 6l33 -51l57 -84l166 -237l123 158q60 77 95 127.5t54 87.5l45 -7q19 0 29 -2l30 2l45 6l-150 -170l-101 -122l-121 -150l190 -266l10 -13q42 -60 87 -118.5 t102 -126.5l-52 6l-57 2h-27q-12 0 -28 -2l-49 -6l-84 133l-115 168l-75 105l-146 -183q-42 -53 -82 -114q-35 -54 -61 -109l-35 6l-39 2h-19q-9 0 -21 -2z" />
<glyph unicode="y" horiz-adv-x="956" d="M20 967l47 -7l54 -2h20q10 0 18 0.5t14 1.5l46 7q14 -46 34.5 -107.5t48.5 -138.5q59 -162 136 -348l72 -176l74 170q74 170 133 323q54 141 97 276l31 -6l38 -2h13q8 0 22 2l32 7q-39 -76 -85 -176l-109 -246l-275 -621q-45 -103 -77 -179.5t-53 -130.5 q-33 -90 -56 -173l-35 5l-35 1l-35 -1q-16 0 -36 -5q96 163 210 423l15 34l47 108l-86 225q-13 33 -43 104.5t-73 170.5z" />
<glyph unicode="z" horiz-adv-x="922" d="M-4 0v43q139 172 148 183q98 122 130 163q26 33 112 144q145 188 257 346h-82q-38 0 -114 -4t-116 -4q-49 0 -75 -2t-151 -19l1 16v27l-3 61v11l174 -5l169 -2q36 0 107 1t105 1l204 4v-38q-205 -258 -360.5 -464.5t-271.5 -375.5q67 0 186 5t170 5q74 0 147 6 q84 9 119 12l-4 -27v-17l1 -35l5 -35l-288 6l-183 2q-38 0 -107 -1t-100 -1z" />
<glyph unicode="{" horiz-adv-x="1024" d="M174 477v109l23 -1l22 -1q138 0 195 63t57 217v242q0 223 69.5 297t266.5 74h47v-107h-37q-131 0 -177 -49.5t-46 -204.5v-242q0 -170 -42.5 -240.5t-154.5 -103.5q110 -30 153.5 -103t43.5 -241v-241q0 -154 45 -204t170 -50l22 1l23 1v-107h-47q-197 0 -266.5 72.5 t-69.5 296.5v244q0 152 -57 216t-195 64l-22 -1z" />
<glyph unicode="|" horiz-adv-x="1024" d="M459 -483v2048h108v-2048h-108z" />
<glyph unicode="}" horiz-adv-x="1024" d="M172 -307h39q129 0 175 49t46 203v241q0 171 42.5 242t154.5 102q-111 31 -154 103t-43 241v242q0 155 -45 205.5t-170 50.5l-22 -1l-23 -1v107h47q195 0 265.5 -74.5t70.5 -296.5v-242q0 -152 57 -216t195 -64l22 1l23 1v-109l-23 1l-22 1q-138 0 -195 -63t-57 -217 v-244q0 -222 -70 -295.5t-266 -73.5h-47v107z" />
<glyph unicode="~" horiz-adv-x="1706" d="M178 471v113q104 71 201 108t186 37q104 0 272 -61l18 -7l31 -11q167 -60 257 -60q86 0 177 38q45 18 98.5 49t111.5 73v-113q-102 -72 -198.5 -107.5t-188.5 -35.5q-98 0 -260 57l-29 10l-16 6q-178 64 -273 64q-84 0 -176 -38t-211 -122z" />
<glyph unicode="&#xa0;" />
<glyph unicode="&#xa1;" horiz-adv-x="672" d="M221 1311q0 44 33 78t80 34q48 0 81.5 -32.5t33.5 -79.5q0 -46 -33.5 -79.5t-81.5 -33.5q-45 0 -79 33t-34 80zM238 88v26v20q3 11 4 16l73 915h39l76 -915l1 -23l1 -39q0 -51 -24.5 -78.5t-71.5 -27.5q-46 0 -73 27q-25 28 -25 79z" />
<glyph unicode="&#xa2;" d="M125 502q0 214 119 345t329 152q0 17 -1 51t-1 51l-3 103h87l-1 -24l-9 -178q83 0 166 -22q79 -18 154 -58q-2 -3 -12.5 -29.5t-19.5 -53.5l-24 -91q-40 90 -108.5 140t-154.5 50l-1 -868h12q75 0 148 36.5t147 112.5l-1 -40l-1 -36v-26q0 -10 2 -15 q-63 -49 -143.5 -75.5t-163.5 -26.5l2 -94l6 -121l-87 6l4 126l3 83q-101 0 -184 39.5t-146 109.5q-118 133 -118 353zM289 502q0 -175 73.5 -285t210.5 -141v860q-136 -20 -210 -133.5t-74 -300.5z" />
<glyph unicode="&#xa3;" d="M105 0l4 34l2 32v12q0 5 -2 21l-4 34q170 0 234 71.5t64 268.5q0 19 -1 55t-1 52l-6 94l-97 -6l-108 -8v88l65 -7l83 -2h51l-9 115l-3 68q0 211 105.5 326.5t299.5 115.5q80 0 145 -27q31 -13 58 -32.5t51 -47.5l-98 -120q-13 75 -62 117t-124 42q-111 0 -168.5 -75.5 t-57.5 -223.5q0 -8 2 -39t2 -55q0 -23 3 -60.5t10 -103.5q15 0 24 -2h39l92 3q29 0 58 4q25 5 37 6l-1 -84l-116 9l-88 3h-35v-47q0 -173 -48 -291.5t-148 -197.5q61 0 180 3t178 3q53 0 131 4q175 9 217 9l-2 -28v-49v-52l1 -32l-256 9l-233 3l-229 -3z" />
<glyph unicode="&#xa4;" horiz-adv-x="1241" d="M90 420l205 207q-44 58 -68 125q-10 31 -16 65t-6 68q0 68 22.5 134t67.5 126l-205 205l66 65l204 -205q58 43 124 68q68 22 137 22q75 0 138 -23q66 -21 124 -67l204 205l66 -65l-205 -205q44 -59 66 -125q10 -32 16 -66.5t6 -68.5q0 -69 -21.5 -133.5t-66.5 -124.5 l205 -207l-66 -66l-204 205q-57 -44 -125.5 -67t-136.5 -23q-72 0 -135 22q-33 11 -63 27t-63 41l-204 -205zM297 887q0 -132 96 -229t230 -97q131 0 226 96.5t95 229.5q0 132 -94 226.5t-227 94.5q-134 0 -230 -94t-96 -227z" />
<glyph unicode="&#xa5;" d="M68 1333l57 -13l39 -3l36 3q16 2 27.5 4t30.5 7q61 -147 141.5 -294.5t184.5 -299.5q93 150 172 299q72 136 143 297l6 -1l64 -9l33 2l50 8q-21 -31 -67 -101q-17 -27 -66 -102q-36 -56 -66 -104q-88 -141 -187 -309q34 0 98 1t94 1l170 6v-90l-119 1l-284 5v-174h21 q11 0 27 -2h81q20 0 63 1t67 1l144 8v-90l-138 4l-265 2v-67q0 -24 1 -75.5t1 -79.5l7 -169l-41 6l-36 2l-37 -2l-43 -6l6 166l2 225h-106q-26 0 -76 -1t-74 -1t-78 -2t-56 -2v90l187 -7l130 -1h73v174q-37 0 -106 -1t-101 -1q-33 0 -107.5 -2t-75.5 -2v90l194 -7l147 -1 q-18 33 -35.5 62.5t-53.5 87.5z" />
<glyph unicode="&#xa6;" horiz-adv-x="1024" d="M459 -350v758h108v-758h-108zM459 674v758h108v-758h-108z" />
<glyph unicode="&#xa7;" horiz-adv-x="1012" d="M100 639q0 70 39 138.5t113 127.5q-30 36 -45 81q-14 47 -14 101q0 150 99 244t259 94q93 0 165 -24t120 -72l-37 -60l-35 -71q-35 78 -97 121t-143 43q-100 0 -164.5 -61.5t-64.5 -155.5q0 -70 41.5 -115.5t159.5 -95.5l157 -66q145 -60 199.5 -121t54.5 -157 q0 -65 -30 -122t-103 -130q38 -29 59 -79.5t21 -117.5q0 -168 -120.5 -275.5t-311.5 -107.5q-91 0 -164 18.5t-121 53.5l18 83l15 97q60 -84 136.5 -126t170.5 -42q117 0 192.5 67.5t75.5 168.5q0 72 -45 119.5t-163 93.5l-150 57q-157 60 -222 126.5t-65 164.5zM203 715 q0 -63 59 -114.5t201 -108.5l129 -54l28 -11q41 -16 70 -30t51 -28q16 23 28.5 45t19.5 38q14 36 14 66q0 60 -43 103.5t-172 101.5l-145 67l-13 6q-88 38 -141 78q-40 -27 -64 -70q-22 -44 -22 -89z" />
<glyph unicode="&#xa8;" horiz-adv-x="1024" d="M238 1251q0 41 29 71t69 30q39 0 69.5 -30.5t30.5 -70.5q0 -42 -29 -71t-71 -29t-70 29q-14 15 -21 31.5t-7 39.5zM588 1251q0 38 30 70q15 15 32 23t38 8q39 0 68.5 -30.5t29.5 -70.5q0 -42 -27.5 -71t-70.5 -29q-42 0 -71 29t-29 71z" />
<glyph unicode="&#xa9;" horiz-adv-x="1706" d="M121 723q0 146 56.5 280.5t162.5 241.5q100 102 231.5 156.5t280.5 54.5q150 0 283 -54.5t239 -160.5q103 -103 157 -236.5t54 -281.5q0 -149 -53 -280t-158.5 -235t-241.5 -162q-68 -28 -137 -42t-143 -14q-144 0 -276.5 55t-238 160t-161 239t-55.5 279zM201 723 q0 -130 49.5 -247t142 -210.5t212 -143.5t247.5 -50q131 0 250 49.5t217 144.5q91 89 138.5 206t47.5 251q0 132 -48.5 251t-139.5 210t-212.5 141.5t-252.5 50.5q-132 0 -249.5 -48t-207.5 -140q-93 -96 -143.5 -216t-50.5 -249zM469 727q0 203 107.5 326t283.5 123 q134 0 225 -71.5t105 -189.5h-117q-18 79 -75.5 123.5t-141.5 44.5q-122 0 -190 -95t-68 -267q0 -164 69.5 -259t188.5 -95q89 0 151 50.5t78 137.5h115q-10 -124 -108 -204.5t-242 -80.5q-178 0 -279.5 122t-101.5 335z" />
<glyph unicode="&#xaa;" horiz-adv-x="739" d="M45 889q0 77 45 126t137 68l119 22q122 19 143 40v26q0 96 -36.5 138.5t-122.5 42.5q-64 0 -112 -25.5t-83 -77.5h-26l4 88q52 43 116.5 63.5t139.5 20.5q122 0 188 -57t66 -166l-1 -7l-1 -36l-7 -244v-45q0 -51 13 -67.5t49 -16.5l13 1l18 1l9 -41l-16 -4 q-82 -20 -120 -20t-64 18q-22 17 -29 56q-47 -42 -102.5 -64t-118.5 -22q-54 0 -93.5 11t-69.5 36q-58 49 -58 135zM92 475v103h574v-103h-574zM188 909q0 -61 33 -95t94 -34q69 0 120.5 36t51.5 87v168q-195 -30 -247 -63t-52 -99z" />
<glyph unicode="&#xab;" horiz-adv-x="868" d="M74 483l329 484l43 -56l-241 -428l241 -428l-43 -55zM457 483l331 484l41 -56l-241 -428l241 -428l-41 -55z" />
<glyph unicode="&#xac;" horiz-adv-x="1706" d="M254 758v100h1198v-502h-96v402h-1102z" />
<glyph unicode="&#xad;" horiz-adv-x="682" d="M90 430v131h502v-131h-502z" />
<glyph unicode="&#xae;" horiz-adv-x="1706" d="M121 723q0 146 56.5 280.5t162.5 241.5q100 102 231.5 156.5t280.5 54.5q153 0 286 -54.5t236 -159t157 -238t54 -281.5q0 -149 -53 -280t-158.5 -235t-241.5 -162q-68 -28 -137 -42t-143 -14q-148 0 -279 55t-236 160t-160.5 239t-55.5 279zM201 723q0 -130 49.5 -247 t142 -210.5t212 -143.5t247.5 -50q131 0 250 49.5t217 144.5q90 89 138 204.5t48 250.5q0 133 -48 252.5t-139.5 211.5t-212 141.5t-253.5 49.5q-128 0 -245.5 -48t-210 -141.5t-144 -214.5t-51.5 -249zM565 313v844h309q176 0 262.5 -57t86.5 -176q0 -87 -54 -148t-145 -74 l188 -389h-145l-178 371h-197v-371h-127zM692 768h158q132 0 187 33t55 114t-58 118.5t-184 37.5h-158v-303z" />
<glyph unicode="&#xaf;" horiz-adv-x="1024" d="M254 1190v125h516v-125h-516z" />
<glyph unicode="&#xb0;" horiz-adv-x="674" d="M59 1174q0 114 81 196t198 82q114 0 195 -81.5t81 -196.5q0 -114 -82 -196.5t-196 -82.5q-116 0 -196.5 81.5t-80.5 197.5zM129 1174q0 -87 60.5 -147t148.5 -60q87 0 147 60t60 147q0 86 -61 147q-29 29 -66 45t-80 16q-86 0 -147.5 -61t-61.5 -147z" />
<glyph unicode="&#xb1;" horiz-adv-x="1706" d="M254 51v99h1198v-99h-1198zM254 723v98h551v348h98v-348h549v-98h-549v-348h-98v348h-551z" />
<glyph unicode="&#xb2;" horiz-adv-x="741" d="M63 533v20q276 247 354.5 358t78.5 215q0 84 -42.5 132.5t-115.5 48.5q-62 0 -105 -36.5t-67 -109.5l-28 39l-27 31q41 56 106 88.5t143 32.5q121 0 187.5 -58.5t66.5 -163.5q0 -56 -24 -108.5t-80 -114.5l-126 -120q-106 -101 -175 -173h133q19 0 62 1t67 1l153 9 l-1 -14v-23l1 -35l3 -20l-107 1l-172 1l-175 -1z" />
<glyph unicode="&#xb3;" horiz-adv-x="741" d="M84 555q5 15 8 29l6 22l7 47q27 -45 78.5 -71.5t113.5 -26.5q95 0 148 56t53 159q0 77 -46 122q-23 22 -53 33t-71 11q-24 0 -38 -2l-38 -6l1 12l1 12l-1 13l-1 14l10 -2h19q89 0 133.5 44t44.5 132q0 74 -38 116t-106 42q-52 0 -90.5 -28t-58.5 -79l-34 44l-19 24 q44 39 100.5 59.5t122.5 20.5q111 0 175 -52t64 -143q0 -68 -45.5 -116.5t-141.5 -81.5q54 0 97 -13.5t74 -40.5q59 -50 59 -141q0 -112 -90 -182t-239 -70q-63 0 -113.5 11t-91.5 32z" />
<glyph unicode="&#xb4;" horiz-adv-x="1024" d="M336 1098l289 299q33 33 54.5 46t41.5 13q33 0 53.5 -20t20.5 -52q0 -21 -15.5 -40.5t-46.5 -40.5l-330 -205h-67z" />
<glyph unicode="&#xb5;" horiz-adv-x="1110" d="M-111 -426l316 1491h139l-125 -592l-12 -73l-4 -66q0 -117 57.5 -180.5t167.5 -63.5q124 0 214.5 107.5t133.5 310.5l121 557h139l-164 -770l-17 -85l-5 -48q0 -33 17.5 -49.5t50.5 -16.5h16l20 2l-20 -110l-41 -8l-45 -3q-68 0 -104 36q-33 36 -33 110v14 q-42 -76 -120 -119t-179 -43q-91 0 -161 39.5t-108 116.5l-114 -557h-140z" />
<glyph unicode="&#xb6;" horiz-adv-x="1024" d="M84 1130q0 156 107.5 252.5t285.5 96.5h463v-70h-127v-1409h-82v1409h-186v-1409h-84v782q-86 0 -154.5 26.5t-121.5 75.5q-101 95 -101 246z" />
<glyph unicode="&#xb8;" horiz-adv-x="1024" d="M244 -375l30 68q63 -26 122 -42t108 -16q62 0 91 23q30 21 30 70q0 43 -32 66q-30 24 -85 24l-27 -1l-32 -5v188h63v-112l31 4l30 2q84 0 133.5 -43t49.5 -115q0 -80 -57 -127t-156 -47q-66 0 -141 16t-158 47z" />
<glyph unicode="&#xb9;" horiz-adv-x="741" d="M94 1223q49 17 85 30t87 35q96 39 199 88q0 -51 -2 -96q-7 -158 -7 -185l-3 -350l1 -125l3 -88l-24 4l-38 1l-38 -1q-12 0 -23 -4l9 290l3 268l-1 115l-3 69l-205 -108q-5 13 -18 29q-9 15 -25 28z" />
<glyph unicode="&#xba;" horiz-adv-x="838" d="M45 1063q0 156 105.5 258t269.5 102q165 0 269 -100t104 -260q0 -159 -104 -258.5t-269 -99.5q-166 0 -270.5 99.5t-104.5 258.5zM100 475v103h637v-103h-637zM195 1065q0 -150 57 -226.5t168 -76.5q109 0 166 76.5t57 226.5q0 144 -58 221.5t-167 77.5t-166 -76 t-57 -223z" />
<glyph unicode="&#xbb;" horiz-adv-x="868" d="M35 55l241 428l-241 428l43 56l330 -484l-330 -483zM420 55l242 428l-242 428l41 56l332 -484l-332 -483z" />
<glyph unicode="&#xbc;" horiz-adv-x="1757" d="M88 1229q79 26 158 59q50 21 92 39q48 21 104 47l-8 -239l-2 -351v-116q0 -13 1 -40.5t1 -41.5l-22 3l-35 1l-37 -1l-23 -3l10 269l3 251l-1 69l-3 102l-196 -101q-4 9 -9 16.5t-11 13.5zM367 -190l923 1712h101l-930 -1712h-94zM1075 213v16q76 89 176 217 q49 61 106.5 136.5t133.5 177.5l20 -1l21 -1l19 1l21 1l-4 -125l-1 -211v-87v-27q0 -13 2 -29l16 -2h25h29l46 4l1 -70l-98 3l-19 1v-24v-25q-2 -11 -2 -15v-63l1 -52q0 -24 2 -38l-18 1l-32 1l-33 -1l-20 -1l6 80l2 76l-1 27v13q0 7 -2 17l-73 1l-117 1l-131 -1zM1180 281 h297v376q-33 -30 -109 -127q-40 -50 -84 -109q-40 -53 -104 -140z" />
<glyph unicode="&#xbd;" horiz-adv-x="1757" d="M88 1229q79 26 158 59q50 21 92 39q48 21 104 47l-8 -239l-2 -351v-116q0 -13 1 -40.5t1 -41.5l-22 3l-35 1l-37 -1l-23 -3l10 269l3 251l-1 69l-3 102l-196 -101q-4 9 -9 16.5t-11 13.5zM367 -190l923 1712h101l-930 -1712h-94zM1112 20q257 223 334.5 329t77.5 204 q0 78 -40 124t-110 46q-58 0 -99.5 -33t-66.5 -102l-27 35l-24 28q41 54 102 83.5t136 29.5q114 0 178.5 -54.5t64.5 -152.5q0 -52 -23.5 -101.5t-76.5 -105.5l-126 -118l-162 -154h23q11 0 27 -2h76q19 0 61 1t65 1l144 8l-1 -13v-22v-32l3 -19l-101 1l-165 1l-167 -1 l-102 -1z" />
<glyph unicode="&#xbe;" horiz-adv-x="1759" d="M80 606l12 44l8 48q26 -43 74 -66.5t109 -23.5q92 0 142 51.5t50 147.5q0 73 -43 114.5t-119 41.5l-36 -3q-15 0 -37 -5l1 9l1 15l-1 13l-1 9h28q85 0 127.5 41t42.5 123q0 70 -37 109t-100 39q-48 0 -86 -26.5t-57 -74.5q-15 24 -49 61l-3 3q42 36 97 55t116 19 q107 0 168.5 -48.5t61.5 -132.5q0 -62 -45 -109q-21 -21 -55 -40.5t-80 -36.5q106 0 164.5 -48t58.5 -134q0 -104 -87.5 -169t-228.5 -65q-58 0 -107 10q-27 5 -46 11t-43 18zM367 -190l923 1712h101l-930 -1712h-94zM1075 213v16q76 89 176 217q49 61 106.5 136.5 t133.5 177.5l20 -1l21 -1l19 1l21 1l-4 -125l-1 -211v-87v-27q0 -13 2 -29l16 -2h25h29l46 4l1 -70l-98 3l-19 1v-24v-25q-2 -11 -2 -15v-63l1 -52q0 -24 2 -38l-18 1l-32 1l-33 -1l-20 -1l6 80l2 76l-1 27v13q0 7 -2 17l-73 1l-117 1l-131 -1zM1180 281h297v376 q-33 -30 -109 -127q-40 -50 -84 -109q-40 -53 -104 -140z" />
<glyph unicode="&#xbf;" horiz-adv-x="788" d="M106 266q0 68 31 133t96 136l115 120q75 79 100 122.5t25 86.5q0 54 -32 86.5t-85 32.5l-37 -3q-10 0 -20 -2.5t-16 -4.5l16 59l34 7l36 3q104 0 168.5 -66t64.5 -175q0 -62 -27.5 -117t-99.5 -131l-135 -141q-52 -55 -72 -98t-20 -95q0 -82 46.5 -129t125.5 -47 q70 0 120 32.5t78 96.5l23 -125q-61 -36 -122 -55q-30 -9 -59.5 -14t-60.5 -5q-134 0 -213.5 80t-79.5 213zM289 1311q0 45 34 79.5t80 34.5q47 0 80 -33t33 -81q0 -45 -32.5 -79t-80.5 -34q-46 0 -80 33t-34 80z" />
<glyph unicode="&#xc0;" horiz-adv-x="1268" d="M-8 0q190 416 346 767l287 658h39q71 -179 144 -358q68 -167 147 -357q47 -113 99 -236q58 -138 100 -236q21 -48 103 -237l-52 6l-48 3l-50 -3q-13 0 -30 -3t-24 -4q-28 86 -47 140q-10 27 -33 88q-47 126 -94 237l-35 82l-97 3l-155 1l-158 -1l-96 -3l-100 -244 q-49 -129 -111 -303l-34 7l-34 3l-32 -3q-17 -2 -35 -7zM373 637l63 -1l92 -1l123 1l152 1l-35 90l-43 104q-34 85 -133 314zM352 1822q0 32 21 52t53 20q19 0 40 -12t56 -47l289 -299h-67l-330 205q-29 19 -47 40q-15 20 -15 41z" />
<glyph unicode="&#xc1;" horiz-adv-x="1268" d="M-8 0q190 416 346 767l287 658h39q71 -179 144 -358q68 -167 147 -357q47 -113 99 -236q58 -138 100 -236q21 -48 103 -237l-52 6l-48 3l-50 -3q-13 0 -30 -3t-24 -4q-28 86 -47 140q-10 27 -33 88q-47 126 -94 237l-35 82l-97 3l-155 1l-158 -1l-96 -3l-100 -244 q-49 -129 -111 -303l-34 7l-34 3l-32 -3q-17 -2 -35 -7zM373 637l63 -1l92 -1l123 1l152 1l-35 90l-43 104q-34 85 -133 314zM459 1536l289 299q33 33 54.5 46t41.5 13q33 0 53.5 -20t20.5 -52q0 -21 -15.5 -40.5t-46.5 -40.5l-330 -205h-67z" />
<glyph unicode="&#xc2;" horiz-adv-x="1268" d="M-8 0q190 416 346 767l287 658h39q71 -179 144 -358q68 -167 147 -357q47 -113 99 -236q58 -138 100 -236q21 -48 103 -237l-52 6l-48 3l-50 -3q-13 0 -30 -3t-24 -4q-28 86 -47 140q-10 27 -33 88q-47 126 -94 237l-35 82l-97 3l-155 1l-158 -1l-96 -3l-100 -244 q-49 -129 -111 -303l-34 7l-34 3l-32 -3q-17 -2 -35 -7zM373 637l63 -1l92 -1l123 1l152 1l-35 90l-43 104q-34 85 -133 314zM344 1536l232 348h118l232 -348h-58l-233 209l-233 -209h-58z" />
<glyph unicode="&#xc3;" horiz-adv-x="1268" d="M-8 0q190 416 346 767l287 658h39q71 -179 144 -358q68 -167 147 -357q47 -113 99 -236q58 -138 100 -236q21 -48 103 -237l-52 6l-48 3l-50 -3q-13 0 -30 -3t-24 -4q-28 86 -47 140q-10 27 -33 88q-47 126 -94 237l-35 82l-97 3l-155 1l-158 -1l-96 -3l-100 -244 q-49 -129 -111 -303l-34 7l-34 3l-32 -3q-17 -2 -35 -7zM373 637l63 -1l92 -1l123 1l152 1l-35 90l-43 104q-34 85 -133 314zM348 1585q18 105 67 157t130 52q21 0 32 -2l31 -6l111 -29l35 -8l20 -2q37 0 58 20.5t36 67.5h54q-19 -104 -68.5 -156.5t-126.5 -52.5 q-18 0 -28 2t-40 9l-6 1l-109 29l-24 4l-24 2q-21 0 -35 -4.5t-26 -15.5q-21 -18 -36 -68h-51z" />
<glyph unicode="&#xc4;" horiz-adv-x="1268" d="M-8 0q190 416 346 767l287 658h39q71 -179 144 -358q68 -167 147 -357q47 -113 99 -236q58 -138 100 -236q21 -48 103 -237l-52 6l-48 3l-50 -3q-13 0 -30 -3t-24 -4q-28 86 -47 140q-10 27 -33 88q-47 126 -94 237l-35 82l-97 3l-155 1l-158 -1l-96 -3l-100 -244 q-49 -129 -111 -303l-34 7l-34 3l-32 -3q-17 -2 -35 -7zM373 637l63 -1l92 -1l123 1l152 1l-35 90l-43 104q-34 85 -133 314zM361 1689q0 41 29 71t69 30q39 0 69.5 -30.5t30.5 -70.5q0 -42 -29 -71t-71 -29t-70 29q-14 15 -21 31.5t-7 39.5zM711 1689q0 38 30 70 q15 15 32 23t38 8q39 0 68.5 -30.5t29.5 -70.5q0 -42 -27.5 -71t-70.5 -29q-42 0 -71 29t-29 71z" />
<glyph unicode="&#xc5;" horiz-adv-x="1268" d="M-8 0q190 416 346 767l287 658h39q71 -179 144 -358q68 -167 147 -357q47 -113 99 -236q58 -138 100 -236q21 -48 103 -237l-52 6l-48 3l-50 -3q-13 0 -30 -3t-24 -4q-28 86 -47 140q-10 27 -33 88q-47 126 -94 237l-35 82l-97 3l-155 1l-158 -1l-96 -3l-100 -244 q-49 -129 -111 -303l-34 7l-34 3l-32 -3q-17 -2 -35 -7zM373 637l63 -1l92 -1l123 1l152 1l-35 90l-43 104q-34 85 -133 314zM406 1722q0 104 72 177t177 73q109 0 174.5 -63.5t65.5 -167.5q0 -106 -73 -178t-179 -72q-102 0 -169.5 66t-67.5 165zM496 1722q0 -79 39 -123.5 t112 -44.5t114.5 50.5t41.5 138.5q0 78 -40 124t-108 46q-71 0 -115 -52t-44 -139z" />
<glyph unicode="&#xc6;" horiz-adv-x="1602" d="M-59 0q84 129 212 329q125 195 269 422q154 243 327 517l82 130l118 -4l141 -1l178 1l247 5l-1 -29l-1 -31l1 -29l2 -30l-224 15q-52 0 -85 1q-131 4 -146 4h-43l-5 -294l-1 -138v-82h35q29 0 103.5 2t88.5 2q32 0 81 4q111 9 144 9l-2 -22v-36v-38q0 -16 2 -25 q-22 5 -53 8.5t-61 3.5q-13 0 -95 2t-153 2h-90v-98l3 -385l1 -115h47q42 0 66 1q120 5 136 5q44 0 73.5 2t187.5 15l-1 -31l-1 -31l1 -31v-30l-243 4l-158 2q-26 0 -76.5 -1t-74.5 -1t-79.5 -2t-57.5 -2q0 34 6 113t6 126l4 279l-84 3l-141 1l-149 -1l-95 -3l-45 -69 q-101 -159 -160 -269q-54 -104 -80 -180h-157zM439 608l124 -3l80 -1l79 1l130 4v659q-1 -1 -116 -176q-43 -65 -94 -144q-67 -103 -73 -113q-90 -142 -130 -227z" />
<glyph unicode="&#xc7;" horiz-adv-x="1343" d="M84 698q0 332 206.5 529.5t553.5 197.5q122 0 233 -24.5t207 -73.5q-1 -5 -10.5 -42.5t-14.5 -59.5q-8 -51 -8 -95q-72 113 -172.5 166.5t-240.5 53.5q-257 0 -400 -172t-143 -482q0 -299 141.5 -472t386.5 -173q116 0 229.5 44t217.5 128l-13 -135q-75 -56 -192 -85.5 t-266 -29.5h-17v-85l31 4l30 2q84 0 133.5 -43t49.5 -115q0 -80 -57 -127t-156 -47q-66 0 -141 16t-158 47l30 68q63 -26 122 -42t108 -16q62 0 91 23q30 21 30 70q0 43 -32 66q-30 24 -85 24l-27 -1l-32 -5v164q-136 0 -253 51q-108 47 -195 136q-187 190 -187 535z" />
<glyph unicode="&#xc8;" horiz-adv-x="1014" d="M182 0q0 38 4 102q9 145 9 199l4 414q0 105 -1.5 213t-2.5 175q0 50 -4 118q-9 152 -9 178l93 -3l159 -1l248 1l221 3l-1 -29l-1 -31l1 -29l1 -30l-238 15q-56 0 -91 1q-140 4 -156 4h-49q0 -40 -1 -116t-1 -111v-205v-82h36q32 0 112 2t93 2l240 12l-3 -36l-1 -27l1 -24 l3 -33q-25 5 -57 8.5t-66 3.5q-14 0 -102 2t-162 2h-94v-98v-285q0 -35 1 -107t1 -108h51q44 0 70 1q128 5 145 5q41 0 97 5q135 12 179 12l-1 -31l-1 -31l1 -31l1 -30l-130 3l-220 1l-231 -1zM260 1822q0 32 21 52t53 20q19 0 40 -12t56 -47l289 -299h-67l-330 205 q-29 19 -47 40q-15 20 -15 41z" />
<glyph unicode="&#xc9;" horiz-adv-x="1014" d="M182 0q0 38 4 102q9 145 9 199l4 414q0 105 -1.5 213t-2.5 175q0 50 -4 118q-9 152 -9 178l93 -3l159 -1l248 1l221 3l-1 -29l-1 -31l1 -29l1 -30l-238 15q-56 0 -91 1q-140 4 -156 4h-49q0 -40 -1 -116t-1 -111v-205v-82h36q32 0 112 2t93 2l240 12l-3 -36l-1 -27l1 -24 l3 -33q-25 5 -57 8.5t-66 3.5q-14 0 -102 2t-162 2h-94v-98v-285q0 -35 1 -107t1 -108h51q44 0 70 1q128 5 145 5q41 0 97 5q135 12 179 12l-1 -31l-1 -31l1 -31l1 -30l-130 3l-220 1l-231 -1zM367 1536l289 299q33 33 54.5 46t41.5 13q33 0 53.5 -20t20.5 -52 q0 -21 -15.5 -40.5t-46.5 -40.5l-330 -205h-67z" />
<glyph unicode="&#xca;" horiz-adv-x="1014" d="M182 0q0 38 4 102q9 145 9 199l4 414q0 105 -1.5 213t-2.5 175q0 50 -4 118q-9 152 -9 178l93 -3l159 -1l248 1l221 3l-1 -29l-1 -31l1 -29l1 -30l-238 15q-56 0 -91 1q-140 4 -156 4h-49q0 -40 -1 -116t-1 -111v-205v-82h36q32 0 112 2t93 2l240 12l-3 -36l-1 -27l1 -24 l3 -33q-25 5 -57 8.5t-66 3.5q-14 0 -102 2t-162 2h-94v-98v-285q0 -35 1 -107t1 -108h51q44 0 70 1q128 5 145 5q41 0 97 5q135 12 179 12l-1 -31l-1 -31l1 -31l1 -30l-130 3l-220 1l-231 -1zM252 1536l232 348h118l232 -348h-58l-233 209l-233 -209h-58z" />
<glyph unicode="&#xcb;" horiz-adv-x="1014" d="M182 0q0 38 4 102q9 145 9 199l4 414q0 105 -1.5 213t-2.5 175q0 50 -4 118q-9 152 -9 178l93 -3l159 -1l248 1l221 3l-1 -29l-1 -31l1 -29l1 -30l-238 15q-56 0 -91 1q-140 4 -156 4h-49q0 -40 -1 -116t-1 -111v-205v-82h36q32 0 112 2t93 2l240 12l-3 -36l-1 -27l1 -24 l3 -33q-25 5 -57 8.5t-66 3.5q-14 0 -102 2t-162 2h-94v-98v-285q0 -35 1 -107t1 -108h51q44 0 70 1q128 5 145 5q41 0 97 5q135 12 179 12l-1 -31l-1 -31l1 -31l1 -30l-130 3l-220 1l-231 -1zM269 1689q0 41 29 71t69 30q39 0 69.5 -30.5t30.5 -70.5q0 -42 -29 -71t-71 -29 t-70 29q-14 15 -21 31.5t-7 39.5zM619 1689q0 38 30 70q15 15 32 23t38 8q39 0 68.5 -30.5t29.5 -70.5q0 -42 -27.5 -71t-70.5 -29q-42 0 -71 29t-29 71z" />
<glyph unicode="&#xcc;" horiz-adv-x="563" d="M188 0l10 222l3 306v170q0 163 -1 267t-2 196q0 48 -5 127t-5 111l43 -6l50 -2h20h15q10 2 15 2l48 6l-10 -161l-2 -241v-299v-338q0 -55 0.5 -113.5t1.5 -120.5q0 -33 2.5 -60t7.5 -66l-45 6l-49 2h-25q-12 0 -26 -2zM0 1822q0 32 21 52t53 20q19 0 40 -12t56 -47 l289 -299h-67l-330 205q-29 19 -47 40q-15 20 -15 41z" />
<glyph unicode="&#xcd;" horiz-adv-x="563" d="M188 0l10 222l3 306v170q0 163 -1 267t-2 196q0 48 -5 127t-5 111l43 -6l50 -2h20h15q10 2 15 2l48 6l-10 -161l-2 -241v-299v-338q0 -55 0.5 -113.5t1.5 -120.5q0 -33 2.5 -60t7.5 -66l-45 6l-49 2h-25q-12 0 -26 -2zM107 1536l289 299q33 33 54.5 46t41.5 13 q33 0 53.5 -20t20.5 -52q0 -21 -15.5 -40.5t-46.5 -40.5l-330 -205h-67z" />
<glyph unicode="&#xce;" horiz-adv-x="563" d="M188 0l10 222l3 306v170q0 163 -1 267t-2 196q0 48 -5 127t-5 111l43 -6l50 -2h20h15q10 2 15 2l48 6l-10 -161l-2 -241v-299v-338q0 -55 0.5 -113.5t1.5 -120.5q0 -33 2.5 -60t7.5 -66l-45 6l-49 2h-25q-12 0 -26 -2zM-8 1536l232 348h118l232 -348h-58l-233 209 l-233 -209h-58z" />
<glyph unicode="&#xcf;" horiz-adv-x="563" d="M188 0l10 222l3 306v170q0 163 -1 267t-2 196q0 48 -5 127t-5 111l43 -6l50 -2h20h15q10 2 15 2l48 6l-10 -161l-2 -241v-299v-338q0 -55 0.5 -113.5t1.5 -120.5q0 -33 2.5 -60t7.5 -66l-45 6l-49 2h-25q-12 0 -26 -2zM9 1689q0 41 29 71t69 30q39 0 69.5 -30.5 t30.5 -70.5q0 -42 -29 -71t-71 -29t-70 29q-14 15 -21 31.5t-7 39.5zM359 1689q0 38 30 70q15 15 32 23t38 8q39 0 68.5 -30.5t29.5 -70.5q0 -42 -27.5 -71t-70.5 -29q-42 0 -71 29t-29 71z" />
<glyph unicode="&#xd0;" horiz-adv-x="1495" d="M86 678q0 339 220.5 543t590.5 204q146 0 274.5 -33t229.5 -98l-28 -92l-21 -88q-80 116 -202 175t-286 59q-258 0 -416.5 -178t-158.5 -474q0 -292 164.5 -468.5t435.5 -176.5q43 0 85.5 4t83.5 13t80.5 21.5t82.5 31.5l3 89l3 112q0 15 -1 50t-1 55l-6 157l52 -7 q23 0 34 -2h12q7 0 21 2l52 7l-4 -190l-2 -132q0 -20 1 -57t1 -53q0 -20 2 -43t5 -48q-140 -41 -282 -64q-66 -10 -134.5 -16t-128.5 -6q-351 0 -556.5 190t-205.5 513zM455 1845h51q16 -71 75 -107q28 -16 70.5 -25t96.5 -9q107 0 164.5 32.5t75.5 108.5h51 q-19 -132 -93.5 -201t-197.5 -69q-122 0 -197 68.5t-96 201.5z" />
<glyph unicode="&#xd1;" horiz-adv-x="1528" d="M168 1q0 77 4.5 179.5t10 218t5.5 179.5q0 135 1.5 222t3.5 210.5t2 197.5v217h38q104 -121 224 -254q114 -127 236 -258q127 -136 256 -269q136 -141 290 -296l1 31l3 149q0 113 -1.5 248t-2.5 221q0 83 -3 160q-9 231 -9 241l40 -6l25 -1l26 1l38 6l-13 -473l-4 -487 l1 -193l3 -272h-26q-44 55 -100.5 121t-122.5 139q-42 48 -90 100q-41 45 -100 108q-70 75 -111 118l-496 522l-4 -117l-2 -151q0 -42 2 -162.5t2 -157.5l12 -493l-36 7l-33 3l-33 -3zM477 1585q18 105 67 157t130 52q21 0 32 -2l31 -6l111 -29l35 -8l20 -2q37 0 58 20.5 t36 67.5h54q-19 -104 -68.5 -156.5t-126.5 -52.5q-18 0 -28 2t-40 9l-6 1l-109 29l-24 4l-24 2q-21 0 -35 -4.5t-26 -15.5q-21 -18 -36 -68h-51z" />
<glyph unicode="&#xd2;" horiz-adv-x="1679" d="M84 696q0 330 206 528.5t550 198.5q348 0 550.5 -195.5t202.5 -531.5q0 -324 -207.5 -524.5t-545.5 -200.5q-351 0 -553.5 195t-202.5 530zM289 690q0 -309 142.5 -475t408.5 -166q263 0 406 168.5t143 480.5q0 319 -140 483.5t-409 164.5q-264 0 -407.5 -171.5 t-143.5 -484.5zM557 1822q0 32 21 52t53 20q19 0 40 -12t56 -47l289 -299h-67l-330 205q-29 19 -47 40q-15 20 -15 41z" />
<glyph unicode="&#xd3;" horiz-adv-x="1679" d="M84 696q0 330 206 528.5t550 198.5q348 0 550.5 -195.5t202.5 -531.5q0 -324 -207.5 -524.5t-545.5 -200.5q-351 0 -553.5 195t-202.5 530zM289 690q0 -309 142.5 -475t408.5 -166q263 0 406 168.5t143 480.5q0 319 -140 483.5t-409 164.5q-264 0 -407.5 -171.5 t-143.5 -484.5zM664 1536l289 299q33 33 54.5 46t41.5 13q33 0 53.5 -20t20.5 -52q0 -21 -15.5 -40.5t-46.5 -40.5l-330 -205h-67z" />
<glyph unicode="&#xd4;" horiz-adv-x="1679" d="M84 696q0 330 206 528.5t550 198.5q348 0 550.5 -195.5t202.5 -531.5q0 -324 -207.5 -524.5t-545.5 -200.5q-351 0 -553.5 195t-202.5 530zM289 690q0 -309 142.5 -475t408.5 -166q263 0 406 168.5t143 480.5q0 319 -140 483.5t-409 164.5q-264 0 -407.5 -171.5 t-143.5 -484.5zM549 1536l232 348h118l232 -348h-58l-233 209l-233 -209h-58z" />
<glyph unicode="&#xd5;" horiz-adv-x="1679" d="M84 696q0 330 206 528.5t550 198.5q348 0 550.5 -195.5t202.5 -531.5q0 -324 -207.5 -524.5t-545.5 -200.5q-351 0 -553.5 195t-202.5 530zM289 690q0 -309 142.5 -475t408.5 -166q263 0 406 168.5t143 480.5q0 319 -140 483.5t-409 164.5q-264 0 -407.5 -171.5 t-143.5 -484.5zM553 1585q18 105 67 157t130 52q21 0 32 -2l31 -6l111 -29l35 -8l20 -2q37 0 58 20.5t36 67.5h54q-19 -104 -68.5 -156.5t-126.5 -52.5q-18 0 -28 2t-40 9l-6 1l-109 29l-24 4l-24 2q-21 0 -35 -4.5t-26 -15.5q-21 -18 -36 -68h-51z" />
<glyph unicode="&#xd6;" horiz-adv-x="1679" d="M84 696q0 330 206 528.5t550 198.5q348 0 550.5 -195.5t202.5 -531.5q0 -324 -207.5 -524.5t-545.5 -200.5q-351 0 -553.5 195t-202.5 530zM289 690q0 -309 142.5 -475t408.5 -166q263 0 406 168.5t143 480.5q0 319 -140 483.5t-409 164.5q-264 0 -407.5 -171.5 t-143.5 -484.5zM566 1689q0 41 29 71t69 30q39 0 69.5 -30.5t30.5 -70.5q0 -42 -29 -71t-71 -29t-70 29q-14 15 -21 31.5t-7 39.5zM916 1689q0 38 30 70q15 15 32 23t38 8q39 0 68.5 -30.5t29.5 -70.5q0 -42 -27.5 -71t-70.5 -29q-42 0 -71 29t-29 71z" />
<glyph unicode="&#xd7;" horiz-adv-x="1706" d="M305 129l481 481l-481 482l70 69l481 -481l481 481l70 -69l-481 -482l481 -481l-70 -70l-481 482l-481 -482z" />
<glyph unicode="&#xd8;" horiz-adv-x="1679" d="M84 696q0 331 205.5 529t548.5 198q141 0 254 -30.5t206 -96.5q23 24 44.5 47.5t46 52.5t43.5 53q6 8 43 56q18 -22 37 -39q21 -16 46 -30q-39 -37 -84 -87l-98 -112q108 -99 162.5 -236t54.5 -305q0 -330 -209.5 -527.5t-564.5 -197.5q-137 0 -251 33t-210 100 q-31 -32 -54.5 -57.5t-50.5 -58.5q-21 -26 -44.5 -56.5t-46.5 -62.5q-12 22 -33 42q-16 16 -43 32l101 105l106 114q-108 108 -158.5 237.5t-50.5 296.5zM289 682q0 -126 25 -227q12 -50 31 -98t46 -91l836 936q-67 73 -161.5 108.5t-227.5 35.5q-266 0 -407.5 -171.5 t-141.5 -492.5zM436 205q71 -79 169 -117.5t233 -38.5q263 0 407 168t144 481q0 138 -28.5 248t-84.5 193z" />
<glyph unicode="&#xd9;" horiz-adv-x="1536" d="M186 590l4 153q0 64 2.5 161.5t2.5 107.5q-3 97 -5 171.5t-2 159.5v25v20q-2 8 -2 11l43 -6l47 -2h21h17q10 2 15 2l44 7l-6 -468l-2 -277q0 -193 23.5 -288t78.5 -160.5t142 -102t194 -36.5q108 0 194.5 36.5t141.5 105.5t79 177q11 52 17 145t6 226q0 59 -1 170t-1 163 l-6 308l30 -6l33 -2h14q8 0 18 1t17 2t19 4l-8 -224l-2 -148v-53q0 -393 -18.5 -534.5t-65.5 -221.5q-71 -121 -197.5 -182.5t-302.5 -61.5q-303 0 -443.5 147.5t-140.5 469.5zM505 1822q0 32 21 52t53 20q19 0 40 -12t56 -47l289 -299h-67l-330 205q-29 19 -47 40 q-15 20 -15 41z" />
<glyph unicode="&#xda;" horiz-adv-x="1536" d="M186 590l4 153q0 64 2.5 161.5t2.5 107.5q-3 97 -5 171.5t-2 159.5v25v20q-2 8 -2 11l43 -6l47 -2h21h17q10 2 15 2l44 7l-6 -468l-2 -277q0 -193 23.5 -288t78.5 -160.5t142 -102t194 -36.5q108 0 194.5 36.5t141.5 105.5t79 177q11 52 17 145t6 226q0 59 -1 170t-1 163 l-6 308l30 -6l33 -2h14q8 0 18 1t17 2t19 4l-8 -224l-2 -148v-53q0 -393 -18.5 -534.5t-65.5 -221.5q-71 -121 -197.5 -182.5t-302.5 -61.5q-303 0 -443.5 147.5t-140.5 469.5zM612 1536l289 299q33 33 54.5 46t41.5 13q33 0 53.5 -20t20.5 -52q0 -21 -15.5 -40.5 t-46.5 -40.5l-330 -205h-67z" />
<glyph unicode="&#xdb;" horiz-adv-x="1536" d="M186 590l4 153q0 64 2.5 161.5t2.5 107.5q-3 97 -5 171.5t-2 159.5v25v20q-2 8 -2 11l43 -6l47 -2h21h17q10 2 15 2l44 7l-6 -468l-2 -277q0 -193 23.5 -288t78.5 -160.5t142 -102t194 -36.5q108 0 194.5 36.5t141.5 105.5t79 177q11 52 17 145t6 226q0 59 -1 170t-1 163 l-6 308l30 -6l33 -2h14q8 0 18 1t17 2t19 4l-8 -224l-2 -148v-53q0 -393 -18.5 -534.5t-65.5 -221.5q-71 -121 -197.5 -182.5t-302.5 -61.5q-303 0 -443.5 147.5t-140.5 469.5zM497 1536l232 348h118l232 -348h-58l-233 209l-233 -209h-58z" />
<glyph unicode="&#xdc;" horiz-adv-x="1536" d="M186 590l4 153q0 64 2.5 161.5t2.5 107.5q-3 97 -5 171.5t-2 159.5v25v20q-2 8 -2 11l43 -6l47 -2h21h17q10 2 15 2l44 7l-6 -468l-2 -277q0 -193 23.5 -288t78.5 -160.5t142 -102t194 -36.5q108 0 194.5 36.5t141.5 105.5t79 177q11 52 17 145t6 226q0 59 -1 170t-1 163 l-6 308l30 -6l33 -2h14q8 0 18 1t17 2t19 4l-8 -224l-2 -148v-53q0 -393 -18.5 -534.5t-65.5 -221.5q-71 -121 -197.5 -182.5t-302.5 -61.5q-303 0 -443.5 147.5t-140.5 469.5zM514 1689q0 41 29 71t69 30q39 0 69.5 -30.5t30.5 -70.5q0 -42 -29 -71t-71 -29t-70 29 q-14 15 -21 31.5t-7 39.5zM864 1689q0 38 30 70q15 15 32 23t38 8q39 0 68.5 -30.5t29.5 -70.5q0 -42 -27.5 -71t-70.5 -29q-42 0 -71 29t-29 71z" />
<glyph unicode="&#xdd;" horiz-adv-x="563" d="M188 0l10 222l3 306v170q0 163 -1 267t-2 196q0 48 -5 127t-5 111l43 -6l50 -2h20h15q10 2 15 2l48 6l-10 -161l-2 -241v-299v-338q0 -55 0.5 -113.5t1.5 -120.5q0 -33 2.5 -60t7.5 -66l-45 6l-49 2h-25q-12 0 -26 -2zM179 1689q0 44 30.5 75.5t73.5 31.5t73.5 -30.5 t30.5 -76.5q0 -42 -31 -73t-73 -31q-41 0 -73 31q-16 16 -23.5 33.5t-7.5 39.5z" />
<glyph unicode="&#xde;" horiz-adv-x="1004" d="M86 82q8 23 15 49.5t14.5 60.5t11.5 58t4 49q45 -115 135 -179.5t203 -64.5q132 0 212.5 82t80.5 219q0 95 -45.5 153.5t-161.5 104.5l-166 70q-141 59 -206.5 141t-65.5 203q0 173 120 284t312 111q84 0 160 -18.5t151 -56.5l-30 -72q-5 -15 -10 -29q-8 -26 -17 -57 q-54 78 -125.5 118t-157.5 40q-112 0 -179 -68.5t-67 -185.5q0 -87 47.5 -144t159.5 -106l166 -72q145 -61 208 -144.5t63 -211.5q0 -199 -134 -321q-110 -100 -282 -118v-89l31 4l30 2q84 0 133.5 -43t49.5 -115q0 -80 -57 -127t-156 -47q-66 0 -141 16t-158 47l30 68 q63 -26 122 -42t108 -16q62 0 91 23q30 21 30 70q0 43 -32 66q-30 24 -85 24l-27 -1l-32 -5v161h-9q-101 0 -188 27.5t-156 81.5z" />
<glyph unicode="&#xdf;" horiz-adv-x="1116" d="M145 0l7 139l2 287v229q0 54 -1 173t-1 185v62q0 216 108 338.5t299 122.5q140 0 219.5 -60.5t79.5 -166.5q0 -49 -21.5 -99t-64.5 -100l-80 -92q-38 -44 -54.5 -79t-16.5 -69q0 -40 23 -73q24 -31 99 -84l45 -31q256 -178 256 -320q0 -156 -124 -270.5t-302 -114.5 q-44 0 -87 11.5t-91 36.5q15 36 27 75q3 9 8 28.5t12 51.5q55 -61 104 -87.5t107 -26.5q94 0 153.5 57t59.5 147q0 74 -50.5 140.5t-181.5 155.5l-25 17q-175 116 -175 218q0 41 18.5 80t84.5 108q99 105 132.5 167.5t33.5 125.5q0 92 -53.5 148.5t-141.5 56.5 q-144 0 -198 -119.5t-54 -611.5v-74l3 -405q0 -59 3 -117q8 -155 8 -160l-45 3l-32 1l-87 -4h-6z" />
<glyph unicode="&#xe0;" horiz-adv-x="985" d="M72 233q0 109 58.5 174.5t178.5 92.5l139 27q179 33 218 67v43q0 142 -55 205t-173 63q-85 0 -150.5 -36.5t-113.5 -108.5h-16l4 108q65 55 150 85t180 30q168 0 245.5 -82t77.5 -262v-25l-8 -350v-57q0 -83 18.5 -109t71.5 -26h21l14 1l8 -40l-6 -2q-52 -15 -92.5 -23 t-69.5 -8q-48 0 -77 27q-26 27 -36 92q-64 -67 -141.5 -102t-163.5 -35q-135 0 -208.5 66t-73.5 185zM240 260q0 -94 47.5 -144t134.5 -50q50 0 106 23.5t99 66.5q16 16 25.5 35t9.5 53v10v254q-267 -45 -344.5 -95.5t-77.5 -152.5zM211 1384q0 32 21 52t53 20q19 0 40 -12 t56 -47l289 -299h-67l-330 205q-29 19 -47 40q-15 20 -15 41z" />
<glyph unicode="&#xe1;" horiz-adv-x="985" d="M72 233q0 109 58.5 174.5t178.5 92.5l139 27q179 33 218 67v43q0 142 -55 205t-173 63q-85 0 -150.5 -36.5t-113.5 -108.5h-16l4 108q65 55 150 85t180 30q168 0 245.5 -82t77.5 -262v-25l-8 -350v-57q0 -83 18.5 -109t71.5 -26h21l14 1l8 -40l-6 -2q-52 -15 -92.5 -23 t-69.5 -8q-48 0 -77 27q-26 27 -36 92q-64 -67 -141.5 -102t-163.5 -35q-135 0 -208.5 66t-73.5 185zM240 260q0 -94 47.5 -144t134.5 -50q50 0 106 23.5t99 66.5q16 16 25.5 35t9.5 53v10v254q-267 -45 -344.5 -95.5t-77.5 -152.5zM318 1098l289 299q33 33 54.5 46t41.5 13 q33 0 53.5 -20t20.5 -52q0 -21 -15.5 -40.5t-46.5 -40.5l-330 -205h-67z" />
<glyph unicode="&#xe2;" horiz-adv-x="985" d="M72 233q0 109 58.5 174.5t178.5 92.5l139 27q179 33 218 67v43q0 142 -55 205t-173 63q-85 0 -150.5 -36.5t-113.5 -108.5h-16l4 108q65 55 150 85t180 30q168 0 245.5 -82t77.5 -262v-25l-8 -350v-57q0 -83 18.5 -109t71.5 -26h21l14 1l8 -40l-6 -2q-52 -15 -92.5 -23 t-69.5 -8q-48 0 -77 27q-26 27 -36 92q-64 -67 -141.5 -102t-163.5 -35q-135 0 -208.5 66t-73.5 185zM240 260q0 -94 47.5 -144t134.5 -50q50 0 106 23.5t99 66.5q16 16 25.5 35t9.5 53v10v254q-267 -45 -344.5 -95.5t-77.5 -152.5zM203 1098l232 348h118l232 -348h-58 l-233 209l-233 -209h-58z" />
<glyph unicode="&#xe3;" horiz-adv-x="985" d="M72 233q0 109 58.5 174.5t178.5 92.5l139 27q179 33 218 67v43q0 142 -55 205t-173 63q-85 0 -150.5 -36.5t-113.5 -108.5h-16l4 108q65 55 150 85t180 30q168 0 245.5 -82t77.5 -262v-25l-8 -350v-57q0 -83 18.5 -109t71.5 -26h21l14 1l8 -40l-6 -2q-52 -15 -92.5 -23 t-69.5 -8q-48 0 -77 27q-26 27 -36 92q-64 -67 -141.5 -102t-163.5 -35q-135 0 -208.5 66t-73.5 185zM240 260q0 -94 47.5 -144t134.5 -50q50 0 106 23.5t99 66.5q16 16 25.5 35t9.5 53v10v254q-267 -45 -344.5 -95.5t-77.5 -152.5zM207 1147q18 105 67 157t130 52 q21 0 32 -2l31 -6l111 -29l35 -8l20 -2q37 0 58 20.5t36 67.5h54q-19 -104 -68.5 -156.5t-126.5 -52.5q-18 0 -28 2t-40 9l-6 1l-109 29l-24 4l-24 2q-21 0 -35 -4.5t-26 -15.5q-21 -18 -36 -68h-51z" />
<glyph unicode="&#xe4;" horiz-adv-x="985" d="M72 233q0 109 58.5 174.5t178.5 92.5l139 27q179 33 218 67v43q0 142 -55 205t-173 63q-85 0 -150.5 -36.5t-113.5 -108.5h-16l4 108q65 55 150 85t180 30q168 0 245.5 -82t77.5 -262v-25l-8 -350v-57q0 -83 18.5 -109t71.5 -26h21l14 1l8 -40l-6 -2q-52 -15 -92.5 -23 t-69.5 -8q-48 0 -77 27q-26 27 -36 92q-64 -67 -141.5 -102t-163.5 -35q-135 0 -208.5 66t-73.5 185zM240 260q0 -94 47.5 -144t134.5 -50q50 0 106 23.5t99 66.5q16 16 25.5 35t9.5 53v10v254q-267 -45 -344.5 -95.5t-77.5 -152.5zM220 1251q0 41 29 71t69 30 q39 0 69.5 -30.5t30.5 -70.5q0 -42 -29 -71t-71 -29t-70 29q-14 15 -21 31.5t-7 39.5zM570 1251q0 38 30 70q15 15 32 23t38 8q39 0 68.5 -30.5t29.5 -70.5q0 -42 -27.5 -71t-70.5 -29q-42 0 -71 29t-29 71z" />
<glyph unicode="&#xe5;" horiz-adv-x="985" d="M72 233q0 109 58.5 174.5t178.5 92.5l139 27q179 33 218 67v43q0 142 -55 205t-173 63q-85 0 -150.5 -36.5t-113.5 -108.5h-16l4 108q65 55 150 85t180 30q168 0 245.5 -82t77.5 -262v-25l-8 -350v-57q0 -83 18.5 -109t71.5 -26h21l14 1l8 -40l-6 -2q-52 -15 -92.5 -23 t-69.5 -8q-48 0 -77 27q-26 27 -36 92q-64 -67 -141.5 -102t-163.5 -35q-135 0 -208.5 66t-73.5 185zM240 260q0 -94 47.5 -144t134.5 -50q50 0 106 23.5t99 66.5q16 16 25.5 35t9.5 53v10v254q-267 -45 -344.5 -95.5t-77.5 -152.5zM250 1288q0 107 74.5 181.5t181.5 74.5 q108 0 176 -65t68 -170q0 -108 -75 -182t-183 -74q-105 0 -173.5 66t-68.5 169zM342 1284q0 -80 39.5 -124t112.5 -44q74 0 117.5 51.5t43.5 143.5q0 81 -40.5 126.5t-110.5 45.5q-74 0 -118 -54t-44 -145z" />
<glyph unicode="&#xe6;" horiz-adv-x="1554" d="M66 233q0 109 58.5 174.5t178.5 92.5l139 27q180 33 217 67v43q0 141 -54.5 204.5t-172.5 63.5q-85 0 -150.5 -36.5t-113.5 -108.5h-16l6 108q64 57 149 88t178 31q99 0 167.5 -36t119.5 -113q66 77 144.5 113t181.5 36q184 0 289.5 -110t105.5 -306l-4 -70v-5h-684v-29 q0 -185 87.5 -289t242.5 -104q94 0 172 33.5t145 103.5l-12 -111q-75 -60 -164.5 -90t-194.5 -30q-145 0 -246.5 64.5t-134.5 176.5q-34 -117 -126 -179t-228 -62q-130 0 -205 67.5t-75 185.5zM229 254q0 -84 48.5 -136t132.5 -52q121 0 186.5 77t65.5 222v24l-5 117 q-251 -33 -339.5 -88t-88.5 -164zM805 567h526v37q0 150 -67 235t-183 85q-114 0 -194 -99q-39 -49 -60.5 -115.5t-21.5 -142.5z" />
<glyph unicode="&#xe7;" horiz-adv-x="948" d="M72 481q0 228 138.5 366t369.5 138q87 0 171 -20.5t162 -61.5l-30 -82q-7 -22 -12 -40.5t-13 -53.5q-42 96 -112 144.5t-166 48.5q-162 0 -252 -115t-90 -322q0 -197 96 -314.5t260 -117.5q83 0 158.5 36t150.5 112l-1 -12l-3 -64v-26q0 -10 2 -15q-64 -49 -153 -77 q-42 -12 -88 -18.5t-99 -6.5v-92l31 4l30 2q84 0 133.5 -43t49.5 -115q0 -80 -57 -127t-156 -47q-66 0 -141 16t-158 47l30 68q63 -26 122 -42t108 -16q62 0 91 23q30 21 30 70q0 43 -32 66q-30 24 -85 24l-27 -1l-32 -5v170q-86 0 -159.5 35.5t-135.5 99.5 q-131 139 -131 364z" />
<glyph unicode="&#xe8;" horiz-adv-x="1036" d="M74 481q0 229 129 367.5t342 138.5q195 0 303 -116.5t108 -329.5l-1 -22l-1 -23h-704v-7q0 -207 88 -316.5t256 -109.5q90 0 167 33.5t148 103.5l-3 -49l-1 -28v-25q-80 -58 -167 -87q-45 -15 -87 -22t-94 -7q-214 0 -348.5 138.5t-134.5 360.5zM254 567h539v35 q0 150 -68 236t-188 86q-119 0 -199 -99q-40 -49 -62 -115t-22 -143zM235 1384q0 32 21 52t53 20q19 0 40 -12t56 -47l289 -299h-67l-330 205q-29 19 -47 40q-15 20 -15 41z" />
<glyph unicode="&#xe9;" horiz-adv-x="1036" d="M74 481q0 229 129 367.5t342 138.5q195 0 303 -116.5t108 -329.5l-1 -22l-1 -23h-704v-7q0 -207 88 -316.5t256 -109.5q90 0 167 33.5t148 103.5l-3 -49l-1 -28v-25q-80 -58 -167 -87q-45 -15 -87 -22t-94 -7q-214 0 -348.5 138.5t-134.5 360.5zM254 567h539v35 q0 150 -68 236t-188 86q-119 0 -199 -99q-40 -49 -62 -115t-22 -143zM342 1098l289 299q33 33 54.5 46t41.5 13q33 0 53.5 -20t20.5 -52q0 -21 -15.5 -40.5t-46.5 -40.5l-330 -205h-67z" />
<glyph unicode="&#xea;" horiz-adv-x="1036" d="M74 481q0 229 129 367.5t342 138.5q195 0 303 -116.5t108 -329.5l-1 -22l-1 -23h-704v-7q0 -207 88 -316.5t256 -109.5q90 0 167 33.5t148 103.5l-3 -49l-1 -28v-25q-80 -58 -167 -87q-45 -15 -87 -22t-94 -7q-214 0 -348.5 138.5t-134.5 360.5zM254 567h539v35 q0 150 -68 236t-188 86q-119 0 -199 -99q-40 -49 -62 -115t-22 -143zM227 1098l232 348h118l232 -348h-58l-233 209l-233 -209h-58z" />
<glyph unicode="&#xeb;" horiz-adv-x="1036" d="M74 481q0 229 129 367.5t342 138.5q195 0 303 -116.5t108 -329.5l-1 -22l-1 -23h-704v-7q0 -207 88 -316.5t256 -109.5q90 0 167 33.5t148 103.5l-3 -49l-1 -28v-25q-80 -58 -167 -87q-45 -15 -87 -22t-94 -7q-214 0 -348.5 138.5t-134.5 360.5zM254 567h539v35 q0 150 -68 236t-188 86q-119 0 -199 -99q-40 -49 -62 -115t-22 -143zM244 1251q0 41 29 71t69 30q39 0 69.5 -30.5t30.5 -70.5q0 -42 -29 -71t-71 -29t-70 29q-14 15 -21 31.5t-7 39.5zM594 1251q0 38 30 70q15 15 32 23t38 8q39 0 68.5 -30.5t29.5 -70.5q0 -42 -27.5 -71 t-70.5 -29q-42 0 -71 29t-29 71z" />
<glyph unicode="&#xec;" horiz-adv-x="508" d="M170 0l7 266l3 242l-3 219q0 39 -2 86q-5 118 -5 153l40 -6l44 -2h18h13q10 2 14 2l39 6l-8 -241l-2 -217q0 -37 1 -117.5t1 -124.5l8 -265l-43 6l-41 3l-39 -3q-8 0 -18.5 -1.5t-26.5 -5.5zM-29 1384q0 32 21 52t53 20q19 0 40 -12t56 -47l289 -299h-67l-330 205 q-29 19 -47 40q-15 20 -15 41z" />
<glyph unicode="&#xed;" horiz-adv-x="508" d="M170 0l7 266l3 242l-3 219q0 39 -2 86q-5 118 -5 153l40 -6l44 -2h18h13q10 2 14 2l39 6l-8 -241l-2 -217q0 -37 1 -117.5t1 -124.5l8 -265l-43 6l-41 3l-39 -3q-8 0 -18.5 -1.5t-26.5 -5.5zM78 1098l289 299q33 33 54.5 46t41.5 13q33 0 53.5 -20t20.5 -52 q0 -21 -15.5 -40.5t-46.5 -40.5l-330 -205h-67z" />
<glyph unicode="&#xee;" horiz-adv-x="508" d="M170 0l7 266l3 242l-3 219q0 39 -2 86q-5 118 -5 153l40 -6l44 -2h18h13q10 2 14 2l39 6l-8 -241l-2 -217q0 -37 1 -117.5t1 -124.5l8 -265l-43 6l-41 3l-39 -3q-8 0 -18.5 -1.5t-26.5 -5.5zM-37 1098l232 348h118l232 -348h-58l-233 209l-233 -209h-58z" />
<glyph unicode="&#xef;" horiz-adv-x="508" d="M170 0l7 266l3 242l-3 219q0 39 -2 86q-5 118 -5 153l40 -6l44 -2h18h13q10 2 14 2l39 6l-8 -241l-2 -217q0 -37 1 -117.5t1 -124.5l8 -265l-43 6l-41 3l-39 -3q-8 0 -18.5 -1.5t-26.5 -5.5zM-20 1251q0 41 29 71t69 30q39 0 69.5 -30.5t30.5 -70.5q0 -42 -29 -71 t-71 -29t-70 29q-14 15 -21 31.5t-7 39.5zM330 1251q0 38 30 70q15 15 32 23t38 8q39 0 68.5 -30.5t29.5 -70.5q0 -42 -27.5 -71t-70.5 -29q-42 0 -71 29t-29 71z" />
<glyph unicode="&#xf0;" horiz-adv-x="936" d="M55 -268q0 103 55.5 170t172.5 106q-71 16 -113.5 62.5t-42.5 109.5q0 58 37 102t125 89q-102 32 -153.5 101t-51.5 173q0 157 110 250.5t298 93.5q44 0 65.5 -2t68.5 -9q82 -11 105 -11l77 4q31 0 68 5t54 7l-1 -90l-64 4l-62 2h-41q41 -54 60 -112q10 -28 15 -57t5 -64 q0 -152 -99 -240t-272 -88h-37q-19 3 -28 4l-48 4q-44 0 -70 -26t-26 -70q0 -58 37 -84.5t123 -26.5h115q228 0 319.5 -64t91.5 -214q0 -189 -144.5 -306.5t-377.5 -117.5q-170 0 -270.5 80t-100.5 215zM176 -244q0 -114 78 -186t205 -72q151 0 249.5 81t98.5 206 q0 121 -76.5 168t-310.5 47l-23 -1l-40 -3q-87 -27 -134 -90t-47 -150zM246 662q0 -126 60 -198.5t169 -72.5q106 0 159.5 68.5t53.5 202.5q0 129 -55 200q-27 34 -66.5 52t-91.5 18q-101 0 -165 -74.5t-64 -195.5zM176 1407h51q16 -71 75 -107q28 -16 70.5 -25t96.5 -9 q107 0 164.5 32.5t75.5 108.5h51q-19 -132 -93.5 -201t-197.5 -69q-122 0 -197 68.5t-96 201.5z" />
<glyph unicode="&#xf1;" horiz-adv-x="1120" d="M154 0l6 133l2 223v146q0 67 -0.5 140t-1.5 153l-6 172l40 -7l44 -2h17h13q9 2 13 2q8 0 16 1.5t20 5.5v-10l-4 -95l1 -37l1 -37q59 101 139 150t183 49q162 0 245 -92t83 -274l-2 -151l-2 -146l1 -158l4 -166l-44 7l-39 3l-40 -3l-44 -7q0 45 2 85q7 141 7 167l3 328 q0 152 -58.5 227.5t-174.5 75.5q-61 0 -108 -21.5t-84 -68t-53 -113.5q-8 -35 -12 -83.5t-4 -121.5v-92q0 -59 0.5 -122t1.5 -130q0 -26 3 -70t3 -61l-47 7l-40 3l-40 -3q-8 0 -18.5 -1.5t-25.5 -5.5zM274 1147q18 105 67 157t130 52q21 0 32 -2l31 -6l111 -29l35 -8l20 -2 q37 0 58 20.5t36 67.5h54q-19 -104 -68.5 -156.5t-126.5 -52.5q-18 0 -28 2t-40 9l-6 1l-109 29l-24 4l-24 2q-21 0 -35 -4.5t-26 -15.5q-21 -18 -36 -68h-51z" />
<glyph unicode="&#xf2;" horiz-adv-x="1118" d="M74 483q0 220 137 361t348 141q214 0 349.5 -139t135.5 -363q0 -222 -136 -362q-68 -69 -154.5 -104t-194.5 -35q-212 0 -348.5 139.5t-136.5 361.5zM248 485q0 -217 79 -329.5t232 -112.5q152 0 231.5 109.5t79.5 318.5q0 221 -80 337t-233 116q-152 0 -230.5 -111.5 t-78.5 -327.5zM276 1384q0 32 21 52t53 20q19 0 40 -12t56 -47l289 -299h-67l-330 205q-29 19 -47 40q-15 20 -15 41z" />
<glyph unicode="&#xf3;" horiz-adv-x="1118" d="M74 483q0 220 137 361t348 141q214 0 349.5 -139t135.5 -363q0 -222 -136 -362q-68 -69 -154.5 -104t-194.5 -35q-212 0 -348.5 139.5t-136.5 361.5zM248 485q0 -217 79 -329.5t232 -112.5q152 0 231.5 109.5t79.5 318.5q0 221 -80 337t-233 116q-152 0 -230.5 -111.5 t-78.5 -327.5zM383 1098l289 299q33 33 54.5 46t41.5 13q33 0 53.5 -20t20.5 -52q0 -21 -15.5 -40.5t-46.5 -40.5l-330 -205h-67z" />
<glyph unicode="&#xf4;" horiz-adv-x="1118" d="M74 483q0 220 137 361t348 141q214 0 349.5 -139t135.5 -363q0 -222 -136 -362q-68 -69 -154.5 -104t-194.5 -35q-212 0 -348.5 139.5t-136.5 361.5zM248 485q0 -217 79 -329.5t232 -112.5q152 0 231.5 109.5t79.5 318.5q0 221 -80 337t-233 116q-152 0 -230.5 -111.5 t-78.5 -327.5zM268 1098l232 348h118l232 -348h-58l-233 209l-233 -209h-58z" />
<glyph unicode="&#xf5;" horiz-adv-x="1118" d="M74 483q0 220 137 361t348 141q214 0 349.5 -139t135.5 -363q0 -222 -136 -362q-68 -69 -154.5 -104t-194.5 -35q-212 0 -348.5 139.5t-136.5 361.5zM248 485q0 -217 79 -329.5t232 -112.5q152 0 231.5 109.5t79.5 318.5q0 221 -80 337t-233 116q-152 0 -230.5 -111.5 t-78.5 -327.5zM272 1147q18 105 67 157t130 52q21 0 32 -2l31 -6l111 -29l35 -8l20 -2q37 0 58 20.5t36 67.5h54q-19 -104 -68.5 -156.5t-126.5 -52.5q-18 0 -28 2t-40 9l-6 1l-109 29l-24 4l-24 2q-21 0 -35 -4.5t-26 -15.5q-21 -18 -36 -68h-51z" />
<glyph unicode="&#xf6;" horiz-adv-x="1118" d="M74 483q0 220 137 361t348 141q214 0 349.5 -139t135.5 -363q0 -222 -136 -362q-68 -69 -154.5 -104t-194.5 -35q-212 0 -348.5 139.5t-136.5 361.5zM248 485q0 -217 79 -329.5t232 -112.5q152 0 231.5 109.5t79.5 318.5q0 221 -80 337t-233 116q-152 0 -230.5 -111.5 t-78.5 -327.5zM285 1251q0 41 29 71t69 30q39 0 69.5 -30.5t30.5 -70.5q0 -42 -29 -71t-71 -29t-70 29q-14 15 -21 31.5t-7 39.5zM635 1251q0 38 30 70q15 15 32 23t38 8q39 0 68.5 -30.5t29.5 -70.5q0 -42 -27.5 -71t-70.5 -29q-42 0 -71 29t-29 71z" />
<glyph unicode="&#xf7;" horiz-adv-x="1706" d="M254 561v98h1198v-98h-1198zM748 258q0 44 30.5 75.5t75.5 31.5t76 -31t31 -76q0 -44 -31 -75t-76 -31t-75.5 30.5t-30.5 75.5zM748 963q0 44 31.5 76t74.5 32q44 0 75.5 -32t31.5 -76q0 -45 -31 -76t-76 -31q-44 0 -75 30t-31 77z" />
<glyph unicode="&#xf8;" horiz-adv-x="1118" d="M33 -84q40 39 83 89q40 46 95 116q-68 68 -103 159q-16 44 -25 95.5t-9 107.5q0 220 137 361t348 141q79 0 151 -21.5t134 -64.5l69 94l72 103q22 -22 40 -33.5t38 -18.5l-95 -107q-42 -48 -69 -85q71 -68 108 -163t37 -206q0 -222 -136 -362q-68 -69 -154.5 -104 t-194.5 -35q-48 0 -85.5 5t-77.5 18q-72 23 -132 69l-100 -127l-60 -86q-11 13 -15 17l-18 15zM248 485q0 -84 10 -147t33 -119l489 600q-36 54 -91 79.5t-132 25.5q-152 0 -230.5 -111.5t-78.5 -327.5zM328 152q45 -57 99 -84q56 -25 132 -25q152 0 231.5 111.5t79.5 330.5 q0 37 -3 71.5t-9.5 70t-15.5 66t-23 61.5z" />
<glyph unicode="&#xf9;" d="M154 315l5 174q0 73 2.5 183t2.5 121l-1 70l-3 103l38 -6l44 -2h18h13q10 2 14 2q9 0 19.5 1.5t23.5 5.5q-8 -72 -16 -153t-8 -138q0 -50 -2 -107q-5 -144 -5 -180q0 -162 58 -238.5t182 -76.5q78 0 140.5 39t94.5 108q19 44 28 133.5t9 360.5l-3 127q0 26 -1.5 57 t-5.5 67l40 -6l46 -2h16h13q9 2 13 2l38 7q0 -6 -3.5 -87t-3.5 -131l-2 -356q0 -51 1 -127t1 -100q0 -29 3.5 -87.5t3.5 -78.5l-29 3l-39 3h-17q-8 0 -19 -2q-17 0 -56 -6v37l-3 110l-1 19q-51 -95 -132.5 -141t-195.5 -46q-158 0 -239.5 86t-81.5 252zM280 1384q0 32 21 52 t53 20q19 0 40 -12t56 -47l289 -299h-67l-330 205q-29 19 -47 40q-15 20 -15 41z" />
<glyph unicode="&#xfa;" d="M154 315l5 174q0 73 2.5 183t2.5 121l-1 70l-3 103l38 -6l44 -2h18h13q10 2 14 2q9 0 19.5 1.5t23.5 5.5q-8 -72 -16 -153t-8 -138q0 -50 -2 -107q-5 -144 -5 -180q0 -162 58 -238.5t182 -76.5q78 0 140.5 39t94.5 108q19 44 28 133.5t9 360.5l-3 127q0 26 -1.5 57 t-5.5 67l40 -6l46 -2h16h13q9 2 13 2l38 7q0 -6 -3.5 -87t-3.5 -131l-2 -356q0 -51 1 -127t1 -100q0 -29 3.5 -87.5t3.5 -78.5l-29 3l-39 3h-17q-8 0 -19 -2q-17 0 -56 -6v37l-3 110l-1 19q-51 -95 -132.5 -141t-195.5 -46q-158 0 -239.5 86t-81.5 252zM387 1098l289 299 q33 33 54.5 46t41.5 13q33 0 53.5 -20t20.5 -52q0 -21 -15.5 -40.5t-46.5 -40.5l-330 -205h-67z" />
<glyph unicode="&#xfb;" d="M154 315l5 174q0 73 2.5 183t2.5 121l-1 70l-3 103l38 -6l44 -2h18h13q10 2 14 2q9 0 19.5 1.5t23.5 5.5q-8 -72 -16 -153t-8 -138q0 -50 -2 -107q-5 -144 -5 -180q0 -162 58 -238.5t182 -76.5q78 0 140.5 39t94.5 108q19 44 28 133.5t9 360.5l-3 127q0 26 -1.5 57 t-5.5 67l40 -6l46 -2h16h13q9 2 13 2l38 7q0 -6 -3.5 -87t-3.5 -131l-2 -356q0 -51 1 -127t1 -100q0 -29 3.5 -87.5t3.5 -78.5l-29 3l-39 3h-17q-8 0 -19 -2q-17 0 -56 -6v37l-3 110l-1 19q-51 -95 -132.5 -141t-195.5 -46q-158 0 -239.5 86t-81.5 252zM272 1098l232 348 h118l232 -348h-58l-233 209l-233 -209h-58z" />
<glyph unicode="&#xfc;" d="M154 315l5 174q0 73 2.5 183t2.5 121l-1 70l-3 103l38 -6l44 -2h18h13q10 2 14 2q9 0 19.5 1.5t23.5 5.5q-8 -72 -16 -153t-8 -138q0 -50 -2 -107q-5 -144 -5 -180q0 -162 58 -238.5t182 -76.5q78 0 140.5 39t94.5 108q19 44 28 133.5t9 360.5l-3 127q0 26 -1.5 57 t-5.5 67l40 -6l46 -2h16h13q9 2 13 2l38 7q0 -6 -3.5 -87t-3.5 -131l-2 -356q0 -51 1 -127t1 -100q0 -29 3.5 -87.5t3.5 -78.5l-29 3l-39 3h-17q-8 0 -19 -2q-17 0 -56 -6v37l-3 110l-1 19q-51 -95 -132.5 -141t-195.5 -46q-158 0 -239.5 86t-81.5 252zM289 1251q0 41 29 71 t69 30q39 0 69.5 -30.5t30.5 -70.5q0 -42 -29 -71t-71 -29t-70 29q-14 15 -21 31.5t-7 39.5zM639 1251q0 38 30 70q15 15 32 23t38 8q39 0 68.5 -30.5t29.5 -70.5q0 -42 -27.5 -71t-70.5 -29q-42 0 -71 29t-29 71z" />
<glyph unicode="&#xfd;" horiz-adv-x="508" d="M170 0l7 266l3 242l-3 219q0 39 -2 86q-5 118 -5 153l40 -6l44 -2h18h13q10 2 14 2l39 6l-8 -241l-2 -217q0 -37 1 -117.5t1 -124.5l8 -265l-43 6l-41 3l-39 -3q-8 0 -18.5 -1.5t-26.5 -5.5z" />
<glyph unicode="&#xfe;" horiz-adv-x="729" d="M49 55l27 79l23 78q49 -75 112 -115t137 -40q92 0 145.5 50t53.5 137q0 65 -35.5 103t-126.5 65l-94 26q-117 33 -169 95t-52 169q0 127 87 205t226 78q36 0 70 -4t67 -13q66 -17 118 -50l-25 -65q-4 -11 -8 -27.5t-9 -37.5q-59 70 -118.5 103t-119.5 33q-76 0 -125 -48 t-49 -124q0 -67 35.5 -106.5t120.5 -65.5l139 -41q105 -30 151 -86t46 -150q0 -141 -102 -231q-84 -75 -209 -87v-97l31 4l30 2q84 0 133.5 -43t49.5 -115q0 -80 -57 -127t-156 -47q-66 0 -141 16t-158 47l30 68q63 -26 122 -42t108 -16q62 0 91 23q30 21 30 70q0 43 -32 66 q-30 24 -85 24l-27 -1l-32 -5v170q-34 0 -68.5 5t-66.5 13q-66 18 -118 55z" />
<glyph unicode="&#xff;" horiz-adv-x="956" d="M20 967l47 -7l54 -2h20q10 0 18 0.5t14 1.5l46 7q14 -46 34.5 -107.5t48.5 -138.5q59 -162 136 -348l72 -176l74 170q74 170 133 323q54 141 97 276l31 -6l38 -2h13q8 0 22 2l32 7q-39 -76 -85 -176l-109 -246l-275 -621q-45 -103 -77 -179.5t-53 -130.5 q-33 -90 -56 -173l-35 5l-35 1l-35 -1q-16 0 -36 -5q96 163 210 423l15 34l47 108l-86 225q-13 33 -43 104.5t-73 170.5zM205 1251q0 41 29 71t69 30q39 0 69.5 -30.5t30.5 -70.5q0 -42 -29 -71t-71 -29t-70 29q-14 15 -21 31.5t-7 39.5zM555 1251q0 38 30 70q15 15 32 23 t38 8q39 0 68.5 -30.5t29.5 -70.5q0 -42 -27.5 -71t-70.5 -29q-42 0 -71 29t-29 71z" />
<glyph unicode="&#x131;" horiz-adv-x="508" d="M170 0l7 266l3 242l-3 219q0 39 -2 86q-5 118 -5 153l40 -6l44 -2h18h13q10 2 14 2l39 6l-8 -241l-2 -217q0 -37 1 -117.5t1 -124.5l8 -265l-43 6l-41 3l-39 -3q-8 0 -18.5 -1.5t-26.5 -5.5z" />
<glyph unicode="&#x152;" horiz-adv-x="2052" d="M84 696q0 333 198 531t531 198q183 0 307.5 -46t210.5 -144v163l102 -4l115 -1l183 1l259 5v-29l-1 -31l1 -29l1 -30l-222 15q-51 0 -83 1q-129 4 -144 4h-45l-1 -91l-3 -341v-82h35q28 0 101.5 2t87.5 2q31 0 80 4q110 9 142 9l-2 -22v-36v-38q0 -16 2 -25 q-25 5 -54.5 8.5t-60.5 3.5q-13 0 -94 2t-149 2h-88v-166v-242q0 -32 1 -95t1 -94l47 -1q42 0 66 1q119 5 134 5q43 0 71.5 2t185.5 15l-1 -31l-1 -31l1 -31l1 -30l-120 3l-204 1l-216 -1l-138 -3v172q-79 -96 -216.5 -147.5t-313.5 -51.5q-322 0 -514.5 196.5t-192.5 526.5 zM287 698q0 -316 133.5 -482.5t388.5 -166.5q253 0 387.5 167t134.5 482q0 342 -124 497t-398 155q-248 0 -385 -171t-137 -481z" />
<glyph unicode="&#x153;" horiz-adv-x="1817" d="M76 473q0 230 143 373t375 143q117 0 209.5 -44t157.5 -130q63 84 158.5 129t211.5 45q196 0 305 -113.5t109 -316.5l-1 -38l-1 -23h-711l-1 -21l-1 -20q0 -181 98 -290.5t258 -109.5q86 0 163 37t147 111l-4 -101q-59 -61 -147.5 -92.5t-196.5 -31.5q-130 0 -232 46.5 t-160 133.5q-74 -92 -175 -136t-234 -44q-209 0 -340 137t-131 356zM258 485q0 -216 80 -329t233 -113q151 0 231.5 109.5t80.5 318.5q0 221 -80 337t-234 116q-151 0 -231 -112t-80 -327zM1039 567h546v35q0 151 -68.5 236.5t-191.5 85.5q-121 0 -202 -99 q-41 -50 -62.5 -114t-21.5 -144z" />
<glyph unicode="&#x178;" horiz-adv-x="1098" d="M-18 1399l52 -6l60 -2h23h19q12 2 18 2l53 6q43 -97 84 -180.5t92 -177.5q96 -172 207 -336q105 171 198 345q42 80 88 174q38 77 82 175l37 -6l39 -2h15q9 0 25 2l36 6q-37 -60 -84 -138q-67 -111 -82 -136q-40 -67 -78.5 -133t-75.5 -131q-26 -44 -73 -128 q-36 -64 -72 -127l-3 -133l-1 -84q0 -28 1 -89t1 -95l8 -205l-46 7l-44 3l-45 -3q-12 0 -28.5 -3t-20.5 -4l7 157l3 136l-3 133q0 27 -3.5 78.5t-3.5 68.5q-8 15 -93 160q-44 75 -87 150q-36 62 -83 140zM275 1689q0 41 29 71t69 30q39 0 69.5 -30.5t30.5 -70.5 q0 -42 -29 -71t-71 -29t-70 29q-14 15 -21 31.5t-7 39.5zM625 1689q0 38 30 70q15 15 32 23t38 8q39 0 68.5 -30.5t29.5 -70.5q0 -42 -27.5 -71t-70.5 -29q-42 0 -71 29t-29 71z" />
<glyph unicode="&#x2c6;" horiz-adv-x="1024" d="M221 1098l232 348h118l232 -348h-58l-233 209l-233 -209h-58z" />
<glyph unicode="&#x2d8;" horiz-adv-x="1024" d="M219 1407h51q16 -71 75 -107q28 -16 70.5 -25t96.5 -9q107 0 164.5 32.5t75.5 108.5h51q-19 -132 -93.5 -201t-197.5 -69q-122 0 -197 68.5t-96 201.5z" />
<glyph unicode="&#x2d9;" horiz-adv-x="1024" d="M408 1251q0 44 30.5 75.5t73.5 31.5t73.5 -30.5t30.5 -76.5q0 -42 -31 -73t-73 -31q-41 0 -73 31q-16 16 -23.5 33.5t-7.5 39.5z" />
<glyph unicode="&#x2dc;" horiz-adv-x="1024" d="M225 1147q18 105 67 157t130 52q21 0 32 -2l31 -6l111 -29l35 -8l20 -2q37 0 58 20.5t36 67.5h54q-19 -104 -68.5 -156.5t-126.5 -52.5q-18 0 -28 2t-40 9l-6 1l-109 29l-24 4l-24 2q-21 0 -35 -4.5t-26 -15.5q-21 -18 -36 -68h-51z" />
<glyph unicode="&#x2000;" horiz-adv-x="986" />
<glyph unicode="&#x2001;" horiz-adv-x="1972" />
<glyph unicode="&#x2002;" horiz-adv-x="986" />
<glyph unicode="&#x2003;" horiz-adv-x="1972" />
<glyph unicode="&#x2004;" horiz-adv-x="657" />
<glyph unicode="&#x2005;" horiz-adv-x="493" />
<glyph unicode="&#x2006;" horiz-adv-x="328" />
<glyph unicode="&#x2007;" horiz-adv-x="328" />
<glyph unicode="&#x2008;" horiz-adv-x="246" />
<glyph unicode="&#x2009;" horiz-adv-x="394" />
<glyph unicode="&#x200a;" horiz-adv-x="109" />
<glyph unicode="&#x2010;" horiz-adv-x="682" d="M90 430v131h502v-131h-502z" />
<glyph unicode="&#x2011;" horiz-adv-x="682" d="M90 430v131h502v-131h-502z" />
<glyph unicode="&#x2012;" horiz-adv-x="682" d="M90 430v131h502v-131h-502z" />
<glyph unicode="&#x2013;" horiz-adv-x="1024" d="M0 442v97h1024v-97h-1024z" />
<glyph unicode="&#x2014;" horiz-adv-x="2048" d="M0 442v97h2048v-97h-2048z" />
<glyph unicode="&#x2018;" horiz-adv-x="559" d="M147 942q0 15 5.5 31.5t21.5 44.5l242 407l28 -18l-127 -451q-10 -41 -37 -68q-24 -26 -55 -26q-33 0 -55.5 23.5t-22.5 56.5z" />
<glyph unicode="&#x2019;" horiz-adv-x="559" d="M160 881l125 450q10 41 36.5 67.5t55.5 26.5q33 0 56 -23q24 -21 24 -56q0 -15 -5.5 -31.5t-21.5 -44.5l-244 -406z" />
<glyph unicode="&#x201a;" horiz-adv-x="559" d="M90 -317l131 444q13 40 38 67t54 27q33 0 55.5 -22.5t22.5 -57.5q0 -15 -5.5 -30.5t-8.5 -22t-12 -22.5l-244 -400z" />
<glyph unicode="&#x201c;" horiz-adv-x="893" d="M147 934q0 18 5 33.5t9 23.5t15 27l242 407l28 -18l-127 -451q-12 -46 -37 -70q-25 -22 -61 -22q-31 0 -52.5 19.5t-21.5 50.5zM481 934q0 18 5 33.5t9 23.5t15 27l242 407l28 -18l-127 -451q-14 -47 -38 -69.5t-60 -22.5q-31 0 -52.5 19.5t-21.5 50.5z" />
<glyph unicode="&#x201d;" horiz-adv-x="893" d="M160 881l125 450q10 41 36.5 67.5t55.5 26.5q33 0 56 -23q24 -21 24 -56q0 -15 -5.5 -31.5t-21.5 -44.5l-244 -406zM494 881l124 450q12 41 37.5 67.5t55.5 26.5q33 0 56 -23q24 -21 24 -56q0 -17 -7 -34q-5 -18 -20 -42l-244 -406z" />
<glyph unicode="&#x201e;" horiz-adv-x="893" d="M84 -317l131 444q12 42 38 68t54 26q33 0 55 -23q23 -21 23 -57q0 -17 -6 -36t-19 -39l-243 -400zM422 -317l131 444q12 42 38 68t54 26q33 0 55 -23q23 -21 23 -57q0 -17 -6 -36t-19 -39l-243 -400z" />
<glyph unicode="&#x2022;" horiz-adv-x="1208" d="M307 762q0 122 87.5 208.5t209.5 86.5q121 0 208 -86.5t87 -208.5t-87.5 -209.5t-209.5 -87.5t-208.5 87.5t-86.5 209.5z" />
<glyph unicode="&#x2026;" horiz-adv-x="2048" d="M227 94q0 48 33.5 81.5t81.5 33.5q46 0 80 -34t34 -81q0 -45 -33.5 -78.5t-80.5 -33.5q-49 0 -82 32.5t-33 79.5zM909 94q0 48 33.5 81.5t81.5 33.5q46 0 80 -34t34 -81q0 -45 -33.5 -78.5t-80.5 -33.5q-49 0 -82 32.5t-33 79.5zM1593 94q0 48 33.5 81.5t81.5 33.5 q46 0 80 -34t34 -81q0 -45 -33.5 -78.5t-80.5 -33.5q-49 0 -82 32.5t-33 79.5z" />
<glyph unicode="&#x202f;" horiz-adv-x="394" />
<glyph unicode="&#x2039;" horiz-adv-x="483" d="M74 483l329 484l43 -56l-241 -428l241 -428l-43 -55z" />
<glyph unicode="&#x203a;" horiz-adv-x="483" d="M35 55l241 428l-241 428l43 56l330 -484l-330 -483z" />
<glyph unicode="&#x205f;" horiz-adv-x="493" />
<glyph unicode="&#x2122;" horiz-adv-x="1706" d="M264 1397v57h430v-57h-172v-473h-82v473h-176zM821 924v530h117l166 -422l156 422h116v-530h-71v467l-177 -467h-49l-186 467v-467h-72z" />
<glyph unicode="&#xe000;" horiz-adv-x="965" d="M0 965h965v-965h-965v965z" />
<glyph unicode="&#xfb01;" horiz-adv-x="1073" d="M715 1323q0 42 30 72t74 30q41 0 72.5 -29.5t31.5 -72.5q0 -42 -30.5 -73t-73.5 -31q-41 0 -74 30q-30 30 -30 74zM735 0l7 266l3 242l-3 219q0 39 -2 86q-5 118 -5 153l40 -6l44 -2h18h13q10 2 14 2l39 6l-8 -241l-2 -217q0 -37 1 -117.5t1 -124.5l8 -265l-43 6l-41 3 l-39 -3q-8 0 -18.5 -1.5t-26.5 -5.5zM37 875v79h6l80 -4l27 1h12q8 0 16 2q0 134 27.5 240.5t82.5 185.5q107 157 285 157l25 -1l16 -1l-20 -160q-26 12 -48.5 16.5t-37 6.5t-31.5 2q-86 0 -131 -48q-21 -24 -32 -59t-11 -84q0 -12 2 -51t2 -55l12 -150l46 -1l45 -1l48 1 l72 3v-80l-155 3h-23q-12 0 -28 2q0 -178 1 -310t2 -255q0 -93 3.5 -174.5t9.5 -138.5l-47 6l-43 3l-43 -3q-9 0 -19.5 -1.5t-27.5 -5.5q3 36 6.5 94.5t3.5 110.5l4 418v256l-88 -1z" />
<glyph unicode="&#xfb02;" horiz-adv-x="1042" d="M719 0l6 188l2 410v342v195q0 61 -0.5 126.5t-1.5 135.5q0 38 -2 67.5t-4 71.5l47 -3l35 -1l35 1l53 3q0 -42 -2 -79q-7 -129 -7 -149l-2 -403v-219q0 -106 0.5 -193.5t1.5 -166.5q0 -76 4 -185t4 -141l-44 4l-43 2h-20q-10 0 -23 -2h-17q-6 0 -22 -4zM37 875v79h6l80 -4 l27 1h12q8 0 16 2q0 134 27.5 240.5t82.5 185.5q107 157 285 157l25 -1l16 -1l-20 -160q-26 12 -48.5 16.5t-37 6.5t-31.5 2q-86 0 -131 -48q-21 -24 -32 -59t-11 -84q0 -12 2 -51t2 -55l12 -150l46 -1l45 -1l48 1l72 3v-80l-155 3h-23q-12 0 -28 2q0 -178 1 -310t2 -255 q0 -93 3.5 -174.5t9.5 -138.5l-47 6l-43 3l-43 -3q-9 0 -19.5 -1.5t-27.5 -5.5q3 36 6.5 94.5t3.5 110.5l4 418v256l-88 -1z" />
<glyph unicode="&#xfb03;" horiz-adv-x="1638" d="M1280 1323q0 42 30 72t74 30q41 0 72.5 -29.5t31.5 -72.5q0 -42 -30.5 -73t-73.5 -31q-41 0 -74 30q-30 30 -30 74zM1300 0l7 266l3 242l-3 219q0 39 -2 86q-5 118 -5 153l40 -6l44 -2h18h13q10 2 14 2l39 6l-8 -241l-2 -217q0 -37 1 -117.5t1 -124.5l8 -265l-43 6l-41 3 l-39 -3q-8 0 -18.5 -1.5t-26.5 -5.5zM602 875v79h6l80 -4l27 1h12q8 0 16 2q0 134 27.5 240.5t82.5 185.5q107 157 285 157l25 -1l16 -1l-20 -160q-26 12 -48.5 16.5t-37 6.5t-31.5 2q-86 0 -131 -48q-21 -24 -32 -59t-11 -84q0 -12 2 -51t2 -55l12 -150l46 -1l45 -1l48 1 l72 3v-80l-155 3h-23q-12 0 -28 2q0 -178 1 -310t2 -255q0 -93 3.5 -174.5t9.5 -138.5l-47 6l-43 3l-43 -3q-9 0 -19.5 -1.5t-27.5 -5.5q3 36 6.5 94.5t3.5 110.5l4 418v256l-88 -1zM37 875v79h6l80 -4l27 1h12q8 0 16 2q0 134 27.5 240.5t82.5 185.5q107 157 285 157l25 -1 l16 -1l-20 -160q-26 12 -48.5 16.5t-37 6.5t-31.5 2q-86 0 -131 -48q-21 -24 -32 -59t-11 -84q0 -12 2 -51t2 -55l12 -150l46 -1l45 -1l48 1l72 3v-80l-155 3h-23q-12 0 -28 2q0 -178 1 -310t2 -255q0 -93 3.5 -174.5t9.5 -138.5l-47 6l-43 3l-43 -3q-9 0 -19.5 -1.5 t-27.5 -5.5q3 36 6.5 94.5t3.5 110.5l4 418v256l-88 -1z" />
<glyph unicode="&#xfb04;" horiz-adv-x="1607" d="M1284 0l6 188l2 410v342v195q0 61 -0.5 126.5t-1.5 135.5q0 38 -2 67.5t-4 71.5l47 -3l35 -1l35 1l53 3q0 -42 -2 -79q-7 -129 -7 -149l-2 -403v-219q0 -106 0.5 -193.5t1.5 -166.5q0 -76 4 -185t4 -141l-44 4l-43 2h-20q-10 0 -23 -2h-17q-6 0 -22 -4zM602 875v79h6 l80 -4l27 1h12q8 0 16 2q0 134 27.5 240.5t82.5 185.5q107 157 285 157l25 -1l16 -1l-20 -160q-26 12 -48.5 16.5t-37 6.5t-31.5 2q-86 0 -131 -48q-21 -24 -32 -59t-11 -84q0 -12 2 -51t2 -55l12 -150l46 -1l45 -1l48 1l72 3v-80l-155 3h-23q-12 0 -28 2q0 -178 1 -310 t2 -255q0 -93 3.5 -174.5t9.5 -138.5l-47 6l-43 3l-43 -3q-9 0 -19.5 -1.5t-27.5 -5.5q3 36 6.5 94.5t3.5 110.5l4 418v256l-88 -1zM37 875v79h6l80 -4l27 1h12q8 0 16 2q0 134 27.5 240.5t82.5 185.5q107 157 285 157l25 -1l16 -1l-20 -160q-26 12 -48.5 16.5t-37 6.5 t-31.5 2q-86 0 -131 -48q-21 -24 -32 -59t-11 -84q0 -12 2 -51t2 -55l12 -150l46 -1l45 -1l48 1l72 3v-80l-155 3h-23q-12 0 -28 2q0 -178 1 -310t2 -255q0 -93 3.5 -174.5t9.5 -138.5l-47 6l-43 3l-43 -3q-9 0 -19.5 -1.5t-27.5 -5.5q3 36 6.5 94.5t3.5 110.5l4 418v256 l-88 -1z" />
</font>
</defs>
</svg>
