<?xml version="1.0" standalone="no"?> <!DOCTYPE svg PUBLIC "-//W3C//DTD SVG 1.0//EN" "http://www.w3.org/TR/2001/REC-SVG-20010904/DTD/svg10.dtd" > <svg xmlns="http://www.w3.org/2000/svg" width="100%" height="100%">
<defs >
<font id="segoepr" horiz-adv-x="1325" ><font-face
    font-family="Segoe Print"
    units-per-em="2048"
    panose-1="2 0 6 0 0 0 0 0 0 0"
    ascent="2556"
    descent="-1014"
    alphabetic="0" />
<missing-glyph horiz-adv-x="1024" d="M51 0V1536H973V0H51ZM179 128H845V1408H179V128Z" />
<glyph unicode=" " glyph-name="space" horiz-adv-x="819" />
<glyph unicode="!" glyph-name="exclam" horiz-adv-x="664" d="M352 498Q327 498 283 506T223 526Q210 633 273 928Q324 1166 324 1261Q324 1395 373 1442T455 1489Q480 1489 506 1468T532 1421Q532 1399 422 914Q376 711 374 603Q372 533 352 498ZM352 201Q352
102 303 61T217 20Q143 20 143 117Q143 155 179 207T253 260Q278 260 315 238T352 201Z" />
<glyph unicode="&quot;" glyph-name="quotedbl" horiz-adv-x="827" d="M592 788Q520 788 520 891Q520 951 555 1079Q594 1214 606 1301Q629 1440 645 1466T694 1493Q719 1493 743 1473T768 1425Q768 1400 743 1296Q714 1175 699 1070Q670 861 652 825T592 788ZM199
805Q131 805 131 909Q131 937 156 1026L194 1235Q216 1354 225 1415Q235 1493 289 1493Q312 1493 334 1467T356 1413Q356 1393 352 1363L348 1330Q346 1312 342 1292L334 1235Q331 1206 312 1152Q292 1096 291 1069Q276 883 257 844T199 805Z" />
<glyph unicode="#" glyph-name="numbersign" horiz-adv-x="1632" d="M1092 881Q1083 831 1056 745Q1029 656 1018 612Q1028 584 1059 584Q1076 584 1192 610Q1308 637 1329 637Q1416 637 1439 613T1462 532Q1462 507 1437 491T1386 475Q1368 475 1342 489Q1317
504 1288 504Q1209 504 1145 485Q1092 471 981 471Q980 464 960 416Q920 309 920 272L924 217Q924 186 905 152T852 117Q833 117 814 152T795 211Q795 275 820 360Q832 400 838 434Q785 431 675 413L532 393Q444 90 387 90Q344 90 344 135Q344 260 414 393Q387
396 247 393T75 398T43 446Q43 478 92 505T178 532Q241 532 314 525Q388 518 442 518Q462 559 476 615Q519 794 537 805Q502 813 349 789Q230 770 190 770Q68 770 68 821Q68 852 95 864T274 901Q305 906 338 912Q470 936 524 938Q585 978 646 1146Q676 1228 702
1259T770 1290Q797 1290 797 1245Q797 1201 750 1095Q701 990 694 950L1016 991Q1037 1019 1070 1191Q1109 1394 1133 1444Q1159 1481 1196 1481Q1247 1481 1247 1419Q1247 1374 1218 1301Q1183 1214 1154 1112Q1140 1057 1124 1006Q1223 1017 1301 1029Q1380 1040
1464 1040Q1532 1040 1548 1024T1565 973Q1565 960 1556 940T1536 920Q1208 920 1092 881ZM975 870Q741 850 645 821Q596 706 561 532Q706 543 737 543Q817 543 891 584Q894 591 918 666Q928 698 945 746Q970 818 975 870Z" />
<glyph unicode="$" glyph-name="dollar" horiz-adv-x="1124" d="M723 1106Q719 1058 709 978Q690 828 690 774Q690 771 698 766Q706 761 707 756Q757 726 784 709Q797 700 833 682Q891 658 914 623T938 506Q938 349 639 264Q639 238 625 98Q612 -32 612 -57Q612
-82 622 -129Q633 -184 633 -203Q633 -218 611 -230T565 -242Q479 -242 479 -138V-106Q479 -72 489 30Q500 142 500 193Q477 185 433 180Q370 172 268 145Q162 119 135 119Q99 119 63 133T27 170Q27 218 72 258T270 307L388 318Q426 322 512 356Q547 603 547 709Q526
725 422 766Q315 798 248 859T180 1004Q180 1073 337 1140T594 1212Q600 1250 600 1288V1509Q600 1539 635 1556T698 1573Q764 1573 764 1462Q764 1425 748 1349Q733 1271 733 1241Q763 1246 846 1246Q876 1246 914 1255Q943 1262 969 1262Q1036 1262 1036 1184Q1036
1127 1001 1117T810 1107H752Q731 1107 723 1106ZM584 1081Q380 1039 348 977Q361 929 563 846L584 1081ZM678 657Q653 483 653 393Q815 481 815 512Q815 542 763 590T678 657Z" />
<glyph unicode="%" glyph-name="percent" horiz-adv-x="1495" d="M1100 1196Q1039 1081 904 881Q754 651 701 560T571 298Q507 151 486 111T439 54T412 37Q360 37 360 106Q360 160 443 358T645 719Q731 840 904 1127Q929 1168 946 1194Q801 1235 631 1225Q651
1179 651 1128Q651 1044 598 948T449 802T287 752Q150 752 150 965Q150 1009 194 1131T330 1328T532 1403Q574 1403 625 1350Q654 1342 1143 1305Q1157 1288 1157 1268Q1157 1226 1100 1196ZM500 1253Q488 1253 466 1249Q444 1245 432 1245Q384 1244 328 1138T272
971Q272 925 275 912T306 885T371 870Q433 870 482 945T532 1087Q532 1134 500 1253ZM1010 59Q899 59 865 127T831 250Q831 355 913 475T1080 596Q1205 596 1297 533T1389 373Q1389 316 1374 270T1310 180T1185 97T1010 59ZM995 182Q1021 188 1047 188L1090 184Q1104
184 1184 225T1264 360Q1264 385 1244 407T1198 436Q1183 440 1151 459Q1116 479 1104 479Q1056 479 1015 414T973 260Q973 203 995 182Z" />
<glyph unicode="&amp;" glyph-name="ampersand" horiz-adv-x="1892" d="M1243 43Q1223 63 1163 92T1099 119L1087 111Q1086 110 1049 88Q1001 60 927 13Q883 -16 790 -45T651 -74Q417 -74 296 40T175 286Q175 374 250 515T541 784Q563 799 563 819Q563 854 552
973Q539 1102 539 1126Q539 1304 614 1404T836 1505Q936 1505 997 1421T1059 1223Q1059 1153 1030 1087T953 970T761 792Q745 777 745 768Q745 696 863 536T1113 292Q1152 292 1194 379L1219 428Q1249 485 1307 632Q1123 646 1090 663T1057 754Q1057 780 1098 797T1169
815Q1192 815 1211 808Q1311 770 1375 770Q1427 770 1569 787Q1710 803 1744 803Q1828 803 1828 760Q1828 722 1779 700T1539 645Q1507 640 1485 617T1412 485Q1366 388 1346 360Q1264 244 1264 233Q1264 208 1342 177T1503 145Q1519 145 1595 157Q1670 168 1686
168Q1768 168 1768 111Q1768 90 1694 40T1518 -10Q1344 -10 1243 43ZM706 907Q907 1068 907 1245Q907 1284 868 1324T796 1364Q750 1364 718 1307T686 1141Q686 915 706 907ZM971 192Q952 221 865 301Q785 374 770 393T725 464Q615 643 602 657Q500 607 429 497T358
295Q358 207 451 146T643 84Q742 84 971 192Z" />
<glyph unicode="&apos;" glyph-name="quotesingle" horiz-adv-x="473" d="M209 764Q177 764 155 807T133 887Q133 936 156 1083T229 1354T328 1479Q357 1479 374 1457T391 1403Q391 1378 368 1326Q346 1276 342 1260Q339 1247 314 1159Q280 1047 280 945Q280 853
267 809T209 764Z" />
<glyph unicode="(" glyph-name="parenleft" horiz-adv-x="823" d="M70 425V458Q70 605 97 710T204 989Q311 1220 362 1282Q385 1311 534 1446Q625 1529 670 1548T743 1568Q786 1568 786 1516Q786 1482 642 1344Q447 1161 327 915T207 487Q207 400 256 151Q262
120 264 104Q297 -58 342 -139T485 -305Q592 -397 592 -449Q592 -507 494 -507Q434 -507 354 -416T209 -229T107 89T70 425Z" />
<glyph unicode=")" glyph-name="parenright" horiz-adv-x="745" d="M215 -508Q182 -508 154 -487T125 -442Q125 -422 141 -392T254 -241Q322 -159 404 54T487 317Q487 637 397 887T238 1248T37 1480Q25 1492 25 1521Q25 1536 54 1561T113 1586Q157 1586 208 1530T365
1313T496 1063Q522 978 550 897Q631 661 631 393Q631 29 384 -289Q342 -345 324 -379Q293 -439 269 -473T215 -508Z" />
<glyph unicode="*" glyph-name="asterisk" horiz-adv-x="1053" d="M612 1067Q619 1054 693 966Q829 811 829 778Q829 750 811 730T770 709Q744 709 705 758Q688 780 684 784Q670 800 625 857Q517 998 494 1016Q471 1003 416 887Q305 659 264 659Q260 659 225 679T190
739Q190 758 329 945Q380 1016 389 1032Q371 1035 307 1034T229 1029T117 998Q77 987 59 987Q52 987 45 1008T37 1038Q37 1051 49 1070T124 1105T209 1120Q368 1120 414 1141Q405 1161 341 1236Q331 1247 330 1249Q254 1349 254 1386Q254 1398 265 1412T287 1427Q345
1427 496 1214Q539 1257 659 1401Q720 1493 756 1493Q780 1493 799 1479T819 1442Q824 1426 780 1392Q769 1384 762 1374Q703 1273 646 1224Q620 1200 606 1186Q621 1180 639 1180Q710 1180 840 1206Q929 1223 969 1223Q988 1223 1002 1194T1016 1147Q1016 1123
990 1113T836 1095Q635 1088 612 1067Z" />
<glyph unicode="+" glyph-name="plus" horiz-adv-x="1169" d="M1081 506Q1060 479 989 479Q963 479 903 486Q835 494 805 494H739Q710 494 687 493H639Q615 493 588 492Q566 449 566 356Q566 242 561 213Q556 185 559 134T504 82Q461 82 448 98T434 158Q434 181
451 315Q459 380 467 492Q403 498 274 498Q252 498 215 488Q176 479 164 479Q137 479 116 499T94 547Q94 567 108 589T141 612Q176 612 214 605Q253 598 272 598L473 608Q485 646 485 686Q485 740 477 870Q473 924 473 963Q473 997 493 1031T545 1065Q561 1065
580 1032T600 981Q600 929 591 842Q582 755 582 723Q582 672 588 621Q608 614 705 614L934 618Q1027 618 1054 598T1081 506Z" />
<glyph unicode="," glyph-name="comma" horiz-adv-x="700" d="M152 -190Q338 -144 391 -60T444 61Q444 163 416 205Q403 224 403 242Q403 257 416 285T444 313Q465 313 510 298T563 271T589 196T608 88Q608 71 571 -17T468 -155T346 -216Q323 -220 303 -227Q224
-262 174 -262Q145 -262 145 -215Q145 -197 152 -190Z" />
<glyph unicode="-" glyph-name="hyphen" horiz-adv-x="1313" d="M645 651H718Q904 651 995 664Q1039 670 1083 670Q1102 670 1160 647T1230 609T1241 567Q1241 530 1226 515T1161 500Q1139 500 1099 513Q1059 526 1032 526Q1021 526 959 521Q926 518 839 526Q772
532 739 532Q693 532 600 526Q507 520 459 520Q411 520 382 530T352 578Q352 594 365 615T457 649T569 662L645 651Z" />
<glyph unicode="." glyph-name="period" horiz-adv-x="514" d="M277 276H299Q317 276 342 259T367 211Q367 151 346 123T279 61T213 27Q171 27 151 46T131 150Q131 229 140 244T183 267T277 276Z" />
<glyph unicode="/" glyph-name="slash" horiz-adv-x="1178" d="M61 -131Q36 -131 10 -105T-16 -53Q-16 -35 33 69T190 337T386 619Q395 631 401 641Q465 745 589 925Q723 1116 826 1287Q874 1366 954 1471T1069 1577Q1089 1577 1119 1541T1149 1483Q1149 1444
1013 1257Q719 856 449 453Q416 404 356 318Q256 170 234 118Q212 66 145 -32T61 -131Z" />
<glyph unicode="0" glyph-name="zero" horiz-adv-x="1496" d="M354 -25Q194 -25 107 84T20 356Q20 555 142 795T497 1189T909 1343Q1039 1343 1189 1257T1399 1064T1459 780Q1459 515 1114 245T354 -25ZM1058 1149Q1035 1120 986 1120Q979 1120 948 1142Q916 1165
890 1165Q767 1165 695 1127T498 967T293 702T214 408Q214 231 297 186T478 141Q602 141 788 240T1132 494T1290 748Q1290 804 1272 878T1233 981T1153 1071T1058 1149Z" />
<glyph unicode="1" glyph-name="one" horiz-adv-x="1496" d="M842 127L846 68Q846 16 715 16Q701 16 675 50Q651 82 639 78Q628 78 530 51T412 16Q291 -23 242 -23Q196 -23 169 8T141 68Q141 121 231 145T389 182Q604 226 641 248Q652 439 686 686L743 1108Q685
1108 582 1038Q399 918 260 918Q215 918 215 981Q215 1021 230 1034T370 1100T682 1266T887 1378Q919 1378 942 1334T965 1257Q965 1229 936 1200Q838 772 822 545T817 279Q893 282 1036 322Q1233 375 1354 375Q1378 329 1378 297Q1378 263 1368 253T1302 224T1109
187Q908 159 842 127Z" />
<glyph unicode="2" glyph-name="two" horiz-adv-x="1496" d="M543 254Q595 258 701 258Q832 258 1136 239Q1219 235 1242 236T1304 252Q1345 268 1366 268Q1383 268 1405 243T1428 199Q1428 134 1360 98T1239 61H1202Q1106 61 1061 74Q922 111 715 111Q538 111
404 68T230 -23Q185 -77 163 -90T101 -104Q23 -104 23 -35Q23 70 109 150T398 334Q517 393 543 415T686 544T865 728T952 865T979 977Q979 1047 896 1119T742 1192Q681 1192 558 1116T375 968Q336 922 256 922Q237 922 215 965T193 1034Q193 1053 198 1060T298
1135T470 1252T624 1328T822 1354Q925 1354 1015 1269T1150 1101T1194 1006Q1194 869 990 627T543 254Z" />
<glyph unicode="3" glyph-name="three" horiz-adv-x="1496" d="M474 612Q401 612 401 655Q401 679 415 708T496 796L674 948Q784 1042 915 1135Q860 1144 621 1115Q436 1092 362 1092Q190 1092 190 1249Q190 1280 210 1303T261 1327Q283 1327 315 1304Q355 1276
377 1268T444 1260Q515 1260 704 1278Q953 1307 1101 1307Q1224 1307 1224 1227Q1224 1170 1174 1130T1027 1033Q900 957 850 920T749 821Q859 829 915 829Q1036 829 1123 799T1253 719T1320 640T1343 532Q1343 465 1245 316T921 78T480 -10Q418 -10 302 5T159
62T132 145Q132 250 231 250Q235 250 246 245L315 216Q429 164 523 164Q605 164 773 196T1055 335T1169 506Q1169 615 1055 650T800 686Q605 686 474 612Z" />
<glyph unicode="4" glyph-name="four" horiz-adv-x="1496" d="M1312 479Q1174 529 980 518Q947 404 947 305L948 260V219L949 174Q950 135 949 122T975 75Q1001 43 1001 31Q1001 1 969 -35T906 -72Q827 -72 801 -36T775 74Q775 113 783 197Q790 278 792 319Q796
416 816 506Q792 510 745 510Q532 510 400 475Q256 436 140 436Q92 436 32 504Q77 628 521 979Q663 1090 751 1170Q843 1255 956 1339T1089 1423Q1170 1423 1170 1382Q1163 1353 1113 1174Q1026 833 1003 676Q1068 651 1239 651H1308Q1365 651 1391 628T1418 528Q1418
505 1400 487T1359 469Q1331 469 1312 479ZM949 1149Q912 1112 779 1007Q668 919 622 870Q515 757 329 623Q329 608 347 608Q386 624 640 641Q783 651 849 670Q857 734 878 814Q949 1084 949 1149Z" />
<glyph unicode="5" glyph-name="five" horiz-adv-x="1496" d="M702 1102Q645 1048 567 932Q546 901 533 883Q519 864 514 856Q570 822 731 799Q937 769 1037 731T1182 621T1227 423Q1227 345 1155 248T915 64T543 -23Q376 -23 257 43T137 154Q137 250 258 250Q285
250 316 225Q427 147 571 147Q724 147 885 238T1047 412Q1047 518 969 574T724 649L498 674Q403 686 351 723T299 793Q299 827 336 870Q344 881 423 996Q586 1239 628 1252T1168 1282Q1256 1284 1350 1311Q1424 1331 1442 1331Q1504 1331 1550 1294Q1583 1277 1583
1257Q1583 1228 1546 1184T1440 1130T1266 1120L932 1130Q785 1130 702 1102Z" />
<glyph unicode="6" glyph-name="six" horiz-adv-x="1496" d="M955 1178Q920 1178 906 1169Q775 1132 625 944Q598 908 532 844Q460 775 424 722T355 572T322 393Q322 342 343 299T472 188Q452 345 527 482T716 680T1069 741Q1184 741 1276 662T1369 471Q1369 398
1309 318T1112 151T895 33T601 2Q490 2 404 40T238 172T158 343Q158 515 204 620T333 842T494 1030Q520 1054 578 1117Q687 1237 760 1287T902 1337Q936 1337 966 1314T996 1255Q996 1186 955 1178ZM1232 512Q1119 594 969 594Q613 594 590 174Q623 164 679 164L777
168Q875 168 1053 291T1232 512Z" />
<glyph unicode="7" glyph-name="seven" horiz-adv-x="1496" d="M1203 1146L1184 1160Q725 1133 321 1133Q298 1133 281 1156T263 1210Q263 1241 289 1271T344 1301Q380 1301 513 1293Q645 1284 769 1284Q996 1284 1187 1305Q1312 1318 1377 1318Q1438 1318 1438
1258Q1438 1229 1430 1218T1376 1150T1294 1053Q1257 1011 1178 891L1090 760Q996 616 907 432T800 193T781 76Q781 30 755 1T689 -29Q646 -29 619 14T592 104Q592 152 710 390T957 820T1124 1053Q1168 1100 1203 1146Z" />
<glyph unicode="8" glyph-name="eight" horiz-adv-x="1496" d="M871 635Q977 592 1078 489T1180 299Q1180 209 1149 140T942 24T664 -23Q586 -23 471 4T318 80T279 213Q279 283 341 365T493 507Q605 584 633 606L580 636Q429 716 367 792T304 935Q304 1006 354
1067T565 1216Q605 1237 643 1260Q731 1315 861 1315Q903 1315 985 1281T1092 1219T1130 1110Q1141 1031 1143 1030Q1155 1045 1169 1067Q1186 1095 1192 1102Q1213 1097 1234 1071T1256 1022Q1256 997 1195 912T1036 759Q900 663 871 635ZM768 698Q1008 892 1008
985Q1008 1065 958 1115T828 1165Q738 1165 608 1082T478 948Q478 860 695 740Q742 714 768 698ZM1022 291Q1022 351 938 430T758 549Q453 335 453 211Q453 169 509 145T613 121Q837 121 929 167T1022 270V291Z" />
<glyph unicode="9" glyph-name="nine" horiz-adv-x="1496" d="M1298 1102Q1298 1072 1274 1016Q1183 794 1109 521T1034 156Q1034 6 966 6Q905 6 883 62T860 162Q860 218 967 580L987 649L969 662Q798 561 711 533T491 504Q430 504 348 595T266 748Q266 811 285
867T350 985T503 1135T663 1248T823 1301T987 1329Q1041 1329 1084 1311T1191 1234T1268 1169T1298 1102ZM1124 1081Q1095 1167 952 1167Q745 1167 590 1019T434 780Q434 714 476 679T586 643Q656 643 753 687T929 780T1028 854T1068 934Q1106 1051 1124 1081Z"
/>
<glyph unicode=":" glyph-name="colon" horiz-adv-x="610" d="M289 762Q264 762 236 809T207 887Q207 901 238 956T338 1012Q345 1012 389 987T441 946T449 889Q449 853 408 808T289 762ZM285 20Q227 20 208 49T188 139Q188 188 192 212T232 262T293 289Q340 289
382 269T424 209Q424 126 362 73T285 20Z" />
<glyph unicode=";" glyph-name="semicolon" horiz-adv-x="676" d="M317 778Q292 778 271 815T250 879Q250 894 273 954T340 1014Q343 1014 399 990T467 949T479 889Q479 842 423 810T317 778ZM12 -176Q194 -132 248 -48T303 76Q303 184 277 223Q264 242 264 260Q264
281 279 306T315 332Q353 332 383 319T421 285T443 204T457 102Q457 76 425 3T367 -98T219 -187T31 -248Q4 -248 4 -207Q4 -187 12 -176Z" />
<glyph unicode="&lt;" glyph-name="less" horiz-adv-x="1098" d="M309 649Q321 633 380 604T442 575Q459 567 489 543Q518 519 545 508Q889 360 935 335T981 256Q981 230 953 199T895 168Q890 168 831 201Q618 319 496 369Q421 398 267 488T113 618Q113 644 133
682T267 804Q281 814 285 819Q377 937 608 1108Q742 1207 776 1245Q807 1281 821 1288T860 1296Q888 1296 909 1279T930 1235Q930 1153 545 870Q507 842 453 786Q409 742 309 649Z" />
<glyph unicode="=" glyph-name="equal" horiz-adv-x="1282" d="M1026 825Q1004 825 965 842Q922 857 902 857Q887 857 858 852Q828 846 812 846Q781 846 722 852Q662 858 623 858Q549 858 428 844Q306 829 229 829Q186 829 166 842T146 904Q146 933 163 957T268
996T409 1011Q431 1011 472 1006Q527 1002 660 1005T865 1025Q871 1027 941 1026T1057 992T1103 911Q1103 825 1026 825ZM675 357H553L239 352Q223 352 194 394T165 457Q165 487 233 502T354 518L605 512Q636 512 678 519Q728 528 795 528Q918 528 1018 504T1118
421Q1118 393 1102 366T1070 338Q1044 338 976 350Q893 362 849 360T675 357Z" />
<glyph unicode="&gt;" glyph-name="greater" horiz-adv-x="1174" d="M829 684Q772 759 707 791Q670 810 562 869Q447 933 382 966Q292 1010 229 1075T166 1208Q166 1257 215 1257Q239 1257 329 1188Q397 1136 574 1024T874 846Q1036 763 1049 740T1063 690Q1063
661 864 522Q847 511 804 476T694 368L529 189Q479 134 447 108T385 82Q357 82 329 106T301 160Q301 193 359 237Q377 250 395 268Q538 437 673 549Q782 633 829 684Z" />
<glyph unicode="?" glyph-name="question" horiz-adv-x="1055" d="M508 662Q473 571 453 471Q442 422 410 406T317 389Q308 389 302 430T295 489Q295 559 374 713Q383 730 385 737Q455 803 660 878Q723 901 782 924T871 1008T901 1124Q901 1157 882 1238T803 1342T686
1366Q566 1366 511 1332T449 1258Q441 1212 385 1196Q355 1190 328 1190Q272 1190 272 1251Q272 1332 393 1425T594 1518Q609 1518 732 1523Q828 1527 889 1489T1002 1391T1055 1161Q1055 1011 1001 925T862 795T508 662ZM446 80Q446 29 386 -9T279 -47Q232 -47
198 -18T164 59Q164 97 229 139Q243 149 251 156Q272 174 307 174Q330 174 375 139Q446 139 446 80Z" />
<glyph unicode="@" glyph-name="at" horiz-adv-x="1686" d="M1032 516Q963 463 860 419T702 375Q628 375 564 431T500 551Q500 701 645 885T897 1069Q1029 1069 1087 1012Q1100 1003 1100 981Q1100 966 1099 947T1116 928Q1125 928 1140 936Q1155 944 1165 944Q1221
944 1221 891Q1221 878 1189 799Q1158 726 1151 701T1143 629Q1143 584 1210 584Q1301 584 1378 679T1456 866Q1456 957 1380 1108T1194 1319T1020 1380Q904 1380 715 1225T382 821T238 467Q238 324 411 204T817 84Q937 84 1133 140T1442 286Q1483 319 1491 319Q1506
319 1526 305T1546 279Q1546 203 1508 162T1370 81T1084 2T748 -37Q506 -37 303 103T100 465Q100 622 266 903T645 1341T1010 1499Q1256 1499 1414 1293T1573 874Q1573 741 1503 620T1323 462T1192 424Q1101 424 1032 516ZM969 936Q848 930 752 787T655 584Q655
544 675 528T764 512Q810 512 900 565T991 659Q991 670 986 738Q983 783 1007 831Q1030 875 1030 877Q1030 889 969 936Z" />
<glyph unicode="A" glyph-name="A" horiz-adv-x="1592" d="M968 1431Q977 1424 977 1382Q977 1339 968 1317L981 1275Q1014 1157 1046 1081Q1086 979 1125 862Q1214 593 1310 402T1487 132Q1537 83 1549 65T1562 21Q1562 -23 1533 -53T1462 -84Q1334 -84 1152
319Q1079 478 1064 478Q1016 478 858 449T568 381Q493 358 473 358Q448 358 421 383Q416 387 409 387Q387 387 314 257Q194 42 163 1T93 -41Q66 -41 28 -10T-10 55Q-10 87 26 141T173 361Q371 654 507 911Q722 1320 780 1393T869 1467Q935 1467 968 1431ZM1029
636Q994 716 926 929Q852 1156 832 1205Q777 1089 662 876L481 533Q502 549 592 559Q661 566 712 577Q985 632 1029 636Z" />
<glyph unicode="B" glyph-name="B" horiz-adv-x="1504" d="M1091 818Q1091 802 1111 797Q1219 766 1302 677T1385 464Q1385 275 1143 75T634 -125Q559 -125 517 -106T474 -60Q474 66 652 66Q677 66 729 64T850 89T984 160T1095 250T1170 349T1199 454Q1199 540
1125 607T926 674Q906 674 831 642Q756 609 733 609Q655 609 636 629T616 700Q616 731 785 800Q926 856 1058 983T1191 1198Q1191 1259 1141 1295T1001 1331Q852 1331 705 1295T544 1226T462 742T395 218Q395 148 398 88T377 -16T293 -60Q239 -60 210 -18T180 90Q180
107 189 142Q241 357 287 692T333 1079Q333 1121 322 1141T269 1161Q253 1161 238 1160T207 1179T191 1227Q191 1315 474 1400T1049 1485Q1199 1485 1294 1405T1390 1216Q1390 1136 1309 1028T1091 818Z" />
<glyph unicode="C" glyph-name="C" horiz-adv-x="1432" d="M1178 302Q1217 302 1217 254Q1217 204 1106 111T850 -37T583 -92Q406 -92 261 25T115 364Q115 769 463 1152T1135 1536Q1256 1536 1328 1462T1401 1288Q1401 1196 1391 1143T1327 1054T1242 1017Q1219
1017 1202 1037T1185 1091Q1185 1114 1202 1187Q1219 1259 1219 1294Q1219 1396 1130 1396Q992 1396 789 1238T443 836T301 387Q301 250 382 160T615 69Q702 69 826 112T1055 229Q1159 302 1178 302Z" />
<glyph unicode="D" glyph-name="D" horiz-adv-x="1627" d="M330 1207Q330 1246 285 1258Q203 1278 203 1327Q203 1364 235 1399T305 1435L445 1431Q543 1431 703 1444Q862 1457 941 1457Q1217 1457 1384 1302T1552 892Q1552 613 1313 384T630 48Q455 6 393 -37Q311
-93 257 -93Q219 -93 190 -53T160 12Q160 22 180 64Q201 109 209 155T224 320Q229 438 260 701T312 1075Q330 1171 330 1207ZM511 1274Q392 559 392 265Q392 200 405 167Q413 160 436 160Q500 160 771 244T1211 503T1380 901Q1380 1086 1250 1196T905 1307Q775
1307 592 1283Q551 1277 511 1274Z" />
<glyph unicode="E" glyph-name="E" horiz-adv-x="1401" d="M1293 1290Q1290 1289 1239 1291T1133 1281Q1079 1268 1037 1265Q1008 1263 974 1257Q931 1249 804 1248Q613 1245 564 1222T508 1127Q503 1072 487 1006Q438 809 438 744L453 743Q500 740 643 756T857
788Q1003 823 1080 823Q1205 823 1205 756Q1205 674 1122 656T773 608Q449 572 428 544T382 360T358 162V151Q363 101 422 94L440 93Q495 90 571 102L763 130Q870 145 980 165Q1117 194 1154 194Q1182 194 1216 171T1251 96Q1251 59 1233 45Q1131 0 970 -5Q831
-10 536 -52Q387 -74 340 -74Q223 -74 194 -56T158 35L154 69V73Q154 89 172 138Q197 209 230 408T274 723Q279 763 290 820Q334 1059 334 1198Q334 1205 314 1235Q309 1241 307 1245Q300 1268 294 1283Q287 1297 287 1316V1326Q287 1348 314 1365T366 1382H369Q411
1382 465 1376H469Q492 1376 691 1395T1166 1461Q1195 1466 1201 1466L1216 1467Q1294 1472 1323 1452T1360 1372Q1360 1344 1334 1318T1293 1290Z" />
<glyph unicode="F" glyph-name="F" horiz-adv-x="1214" d="M511 1219Q492 1185 456 1001T420 691Q489 702 562 710L772 734Q822 741 912 765Q1003 789 1036 789Q1154 789 1154 693Q1154 674 1121 645T1032 604T764 569Q504 539 456 524T398 493T379 348T369 137L373
13Q373 -89 299 -89Q253 -89 214 -54T175 40Q175 272 289 1018Q316 1192 316 1205Q316 1224 304 1263Q288 1312 288 1331Q288 1358 318 1389T375 1421L507 1406Q568 1406 734 1426Q1016 1460 1121 1460Q1213 1460 1253 1432T1293 1377Q1293 1329 1261 1295T1191
1260Q1174 1260 1154 1264Q1045 1282 988 1282Q881 1282 711 1263T511 1219Z" />
<glyph unicode="G" glyph-name="G" horiz-adv-x="1589" d="M1150 294Q782 5 485 5Q317 5 218 104T119 380Q119 803 480 1169T1228 1536Q1342 1536 1410 1495T1479 1391Q1479 1336 1438 1270T1357 1203Q1331 1203 1314 1244Q1286 1309 1253 1334T1152 1359Q978
1359 761 1193T419 813T293 397Q293 163 508 163Q607 163 736 212T1013 362T1192 539T1242 746Q1252 817 1346 817Q1447 817 1447 755Q1447 727 1417 655Q1368 539 1344 444T1301 224T1281 46Q1281 -1 1299 -93Q1302 -112 1302 -125Q1302 -160 1276 -193T1210 -226Q1167
-226 1126 -193T1084 -118Q1084 -86 1130 169Q1144 249 1150 294Z" />
<glyph unicode="H" glyph-name="H" horiz-adv-x="1650" d="M1464 1529Q1502 1529 1531 1502T1560 1432Q1560 1361 1516 1121Q1462 827 1440 495T1418 78Q1418 32 1377 -13T1304 -58Q1271 -58 1242 -32T1213 35Q1213 71 1244 290Q1270 475 1270 557Q1270 605 1256
623T1209 641Q1159 641 1013 630Q855 617 816 617Q775 617 608 604T423 582T387 450T364 246Q359 107 333 17T264 -74Q235 -74 193 -29T150 63Q150 103 174 200Q207 333 253 675T334 1386Q336 1410 361 1435T414 1460Q512 1460 512 1319Q512 1236 476 1052Q444
886 444 812Q444 781 464 767T559 753Q723 753 1000 779T1299 855T1343 1080T1366 1447Q1366 1469 1397 1499T1464 1529Z" />
<glyph unicode="I" glyph-name="I" horiz-adv-x="649" d="M538 1325Q532 1286 471 1046Q442 933 433 856Q427 804 418 743Q378 487 378 393Q378 252 395 116Q405 37 367 2T291 -33Q237 -33 216 27T195 223Q195 364 235 613Q249 707 251 726Q253 760 259 796Q264
831 267 866Q273 959 303 1109Q325 1222 335 1308Q342 1368 351 1389T397 1435T454 1460Q496 1460 517 1420T538 1325Z" />
<glyph unicode="J" glyph-name="J" horiz-adv-x="1220" d="M1017 1510Q1048 1510 1072 1488T1097 1439Q1097 1194 1040 787T855 183T512 -13Q347 -13 169 108T-10 313Q-10 401 89 401Q120 401 176 346Q360 161 515 161Q650 161 733 305T868 789T919 1427Q919 1458
952 1484T1017 1510Z" />
<glyph unicode="K" glyph-name="K" horiz-adv-x="1524" d="M622 642Q677 603 862 458Q1057 305 1159 237T1304 156T1463 136Q1467 122 1467 105Q1467 41 1434 6T1343 -30Q1285 -30 1204 12T909 216L681 389Q564 482 462 526Q437 530 401 500Q370 437 357 341T344
192Q330 -83 230 -83Q191 -83 168 -58T145 7Q145 36 158 89Q188 213 241 809Q259 992 286 1177T327 1396T364 1446T408 1462Q501 1462 499 1349Q430 1065 413 821Q407 744 397 668Q397 664 397 661T408 661T471 705T587 797T687 891Q710 918 748 952Q872 1063 932
1127T1044 1281Q1117 1409 1149 1409Q1184 1409 1222 1372T1260 1297Q1260 1201 956 935Q889 877 870 858Q836 826 622 642Z" />
<glyph unicode="L" glyph-name="L" horiz-adv-x="1289" d="M190 282Q190 302 220 526T277 1048T311 1381T343 1438T420 1460Q453 1460 479 1432T505 1371Q505 1328 487 1231Q461 1098 412 691T362 230Q362 195 372 183T412 170Q459 170 634 199Q742 216 1042 232Q1096
234 1175 255Q1190 259 1197 259Q1235 259 1257 234T1279 174Q1279 117 1235 84T1137 50Q1116 50 1054 56Q991 61 960 61Q634 61 331 -41Q280 -58 239 -58Q194 -58 170 -19T145 57Q145 79 164 153Q185 240 190 282Z" />
<glyph unicode="M" glyph-name="M" horiz-adv-x="1938" d="M1595 1179Q1496 1069 1289 786Q1082 504 998 423T860 342Q819 342 780 403T679 652Q551 1033 518 1091Q506 1057 491 980Q459 818 406 585Q303 138 289 -7Q287 -25 257 -46T207 -67Q171 -67 141 -31T110
39Q110 127 168 346L255 674Q335 984 354 1130T373 1360Q373 1447 510 1447Q539 1447 571 1397T613 1308Q626 1270 644 1223L778 848Q857 618 875 589T906 559Q957 570 1267 998Q1612 1473 1661 1473Q1701 1473 1749 1442T1798 1387Q1798 1377 1740 948Q1719 789
1701 567T1683 316Q1683 265 1701 202Q1717 146 1717 112Q1717 85 1707 34T1664 -27T1610 -36Q1505 -36 1505 139Q1505 299 1574 922Q1579 972 1579 984Q1579 992 1591 1051Q1600 1101 1600 1135Q1600 1168 1595 1179Z" />
<glyph unicode="N" glyph-name="N" horiz-adv-x="1655" d="M1179 255Q1240 493 1298 840T1357 1326Q1357 1399 1368 1425T1416 1470T1496 1489Q1524 1489 1544 1449T1564 1354Q1564 1311 1532 1202Q1469 954 1408 614T1347 220Q1347 113 1350 85Q1354 33 1317
3T1218 -27Q1182 -27 1170 -18T1118 36T1068 121Q1060 159 1007 221Q719 589 489 1025Q424 794 368 384L343 217Q339 192 339 117T332 15T292 -44T231 -78Q164 -78 152 -21T140 68Q140 141 184 306Q228 470 292 811T357 1244L356 1299Q357 1328 367 1350T407 1389T466
1405Q493 1405 516 1394T549 1359T573 1271Q613 1077 820 753T1179 255Z" />
<glyph unicode="O" glyph-name="O" horiz-adv-x="1646" d="M521 -72Q361 -72 237 87T112 417Q112 619 235 878T556 1300T968 1464Q1132 1464 1241 1424T1437 1307T1553 1151T1582 927Q1582 791 1500 609T1245 254T916 5T521 -72ZM295 426Q295 287 383 192T587
97Q889 97 1142 375T1395 965Q1395 1084 1349 1152T1199 1269T968 1318Q744 1318 520 1014T295 426Z" />
<glyph unicode="P" glyph-name="P" horiz-adv-x="1447" d="M294 1187Q237 1207 237 1290Q237 1355 501 1416T963 1478Q1181 1478 1309 1388T1437 1149Q1437 928 1194 753T537 496Q428 474 415 460T394 282T386 54Q386 9 358 -27T291 -63Q203 -63 203 56Q203 121
239 418L310 1011Q313 1026 312 1097T294 1187ZM502 1244Q495 1215 488 1137Q474 998 453 830Q442 742 432 639Q761 684 1016 823T1271 1128Q1271 1332 955 1332Q748 1332 502 1244Z" />
<glyph unicode="Q" glyph-name="Q" horiz-adv-x="1657" d="M1248 1326Q1378 1208 1457 1053T1537 759Q1537 588 1425 413T1136 128Q1144 117 1302 -70Q1418 -208 1418 -240Q1418 -271 1371 -306T1304 -341Q1269 -341 1238 -307Q1186 -205 1084 -81T977 43Q967
43 935 34Q764 -14 601 -14Q398 -14 251 99T104 406Q104 634 268 898T671 1336T1099 1510Q1151 1510 1203 1451T1248 1326ZM858 172Q853 202 784 277Q719 347 719 359Q719 392 762 422T817 453Q829 453 844 457Q904 471 917 414Q930 357 974 309T1045 260Q1138
260 1258 422T1379 734Q1379 947 1233 1131T1007 1316Q866 1316 693 1170T403 811T286 422Q286 287 373 212T592 136Q737 136 858 172Z" />
<glyph unicode="R" glyph-name="R" horiz-adv-x="1493" d="M440 1413Q734 1461 869 1461Q1080 1461 1206 1361T1332 1110Q1332 959 1199 826T863 616Q838 606 838 595Q838 578 1044 419T1424 152Q1473 122 1473 73Q1473 41 1440 10T1377 -22Q1318 -22 1189 76T920
292Q619 545 584 547Q516 549 488 566T460 627Q460 665 496 693T581 722Q598 722 635 717Q672 711 690 711Q770 711 963 830T1157 1110Q1157 1195 1071 1256T850 1317Q750 1317 650 1303T523 1279T478 1228T421 963T359 542T336 251Q336 179 346 126Q355 73 355
41Q355 11 324 -21T255 -53Q150 -53 150 117Q150 518 291 1184Q298 1219 298 1225Q298 1231 291 1243Q251 1306 251 1327Q251 1365 288 1393T355 1421L440 1413Z" />
<glyph unicode="S" glyph-name="S" horiz-adv-x="1308" d="M1118 1116Q1118 1249 1049 1278T877 1308Q665 1308 493 1225T320 1024Q320 940 396 878T730 740Q979 668 1084 592T1190 407Q1190 298 1043 172T689 -21T336 -87Q215 -87 153 -59T90 13Q90 43 108 86T146
130Q166 130 187 123Q294 83 399 83Q588 83 800 193T1012 400Q1012 441 948 478T621 599Q296 702 222 799T147 1005Q147 1213 386 1340T886 1468Q1059 1468 1152 1410T1245 1280Q1245 1246 1224 1181T1118 1116Z" />
<glyph unicode="T" glyph-name="T" horiz-adv-x="1376" d="M40 1216Q29 1236 29 1266Q29 1311 61 1327T256 1345Q455 1346 613 1359T1102 1418Q1227 1435 1340 1435Q1397 1435 1448 1428T1521 1415T1556 1379T1569 1333Q1569 1262 1519 1262Q1486 1262 1429 1268Q1371
1273 1272 1273Q1170 1273 1025 1259T863 1211T811 821T774 289Q774 208 799 102Q803 82 803 78Q803 34 779 -1T721 -37Q669 -37 635 13T600 293Q600 511 683 1144Q687 1178 687 1179Q687 1213 650 1213Q590 1213 421 1198Q252 1182 180 1182Q72 1182 40 1216Z"
/>
<glyph unicode="U" glyph-name="U" horiz-adv-x="1587" d="M712 -70Q614 -70 472 -4T254 220T179 568Q179 682 229 951Q238 1000 255 1107Q287 1320 299 1363T339 1431T402 1457Q427 1457 453 1410T480 1336Q480 1316 434 1155Q410 1074 382 869T354 579Q354 298
485 198T706 98Q878 98 998 150T1181 341T1269 854Q1295 1237 1332 1331T1439 1426Q1507 1426 1507 1315Q1507 1221 1468 1007Q1443 875 1431 698Q1420 558 1402 452T1343 274T1240 141T1109 32T922 -42T712 -70Z" />
<glyph unicode="V" glyph-name="V" horiz-adv-x="1469" d="M110 1294Q119 1351 149 1392T219 1433Q302 1433 333 1235Q362 1042 714 242Q752 307 796 375Q995 686 1081 852Q1428 1501 1539 1501Q1615 1501 1615 1415Q1615 1400 1608 1389T1541 1292Q1345 1009
1165 702Q1023 461 930 316Q826 155 807 83Q795 43 749 18T639 -7Q612 -7 518 250Q476 362 237 967Q110 1288 110 1294Z" />
<glyph unicode="W" glyph-name="W" horiz-adv-x="2074" d="M1093 791Q1059 745 968 584Q589 -98 544 -98Q476 -98 434 -19T319 403T194 1057Q175 1145 157 1201Q132 1276 132 1313Q132 1352 161 1383T227 1415Q271 1415 303 1348T376 1020Q462 455 552 166Q802
565 863 673T1035 1024Q1064 1077 1115 1077Q1137 1077 1165 1034T1263 794Q1437 309 1500 212Q1852 794 1909 1419Q1909 1433 1935 1457T1986 1482Q2066 1482 2066 1380Q2066 1274 2013 1063T1885 673T1634 129Q1605 70 1585 24Q1575 5 1547 -8T1501 -21Q1458
-21 1414 26T1280 301T1150 645Q1122 724 1093 791Z" />
<glyph unicode="X" glyph-name="X" horiz-adv-x="1502" d="M751 872Q1102 1263 1217 1377T1363 1491Q1392 1491 1427 1460T1462 1396Q1462 1373 1365 1287Q1241 1175 1044 970T847 735Q847 730 874 688T1006 521T1161 351T1281 265Q1328 236 1366 185T1405 118Q1405
92 1383 67T1328 41Q1240 41 1139 134T811 519Q765 578 725 627Q697 597 653 552Q276 166 238 56Q201 -56 167 -92T60 -128Q-15 -128 -15 -50Q-15 95 545 662Q625 742 625 753Q625 766 558 856Q209 1316 209 1365Q209 1409 234 1450T285 1492Q349 1492 407 1375Q516
1153 751 872Z" />
<glyph unicode="Y" glyph-name="Y" horiz-adv-x="1374" d="M627 697Q547 780 409 965Q312 1095 272 1137T162 1236Q69 1308 48 1339T26 1404Q26 1420 57 1446T114 1473Q175 1473 275 1381T456 1187Q703 874 762 837Q821 902 886 970Q1216 1312 1288 1414Q1367
1524 1445 1524Q1475 1524 1492 1496T1509 1438Q1509 1411 1434 1322T1034 896Q878 734 851 687T799 414T764 60Q758 -18 748 -28T706 -48T655 -59Q580 -59 580 67Q580 145 612 344Q642 535 642 600Q642 657 627 697Z" />
<glyph unicode="Z" glyph-name="Z" horiz-adv-x="1568" d="M1494 1315Q1491 1306 1451 1282Q1420 1264 1374 1207Q1339 1164 1294 1116L1172 978Q955 729 825 603Q783 562 734 511L435 208Q433 189 460 189Q548 189 861 220Q921 226 963 226Q1038 226 1087 230Q1136
234 1172 234Q1434 234 1434 117Q1434 20 1361 20Q1326 20 1302 26Q1174 58 1036 58Q966 58 615 36L551 32Q346 19 201 -20Q117 -43 103 -43Q39 -43 39 30Q39 101 79 131Q285 281 675 672T1196 1243L1172 1244Q1088 1247 847 1224Q795 1219 739 1215Q685 1211 648
1207Q519 1193 438 1193Q320 1193 271 1227T221 1304Q221 1330 249 1364T294 1398Q306 1398 338 1387Q372 1374 395 1374Q487 1374 563 1372T765 1379Q889 1389 1005 1393Q1164 1397 1331 1428Q1417 1444 1462 1444Q1508 1444 1508 1382Q1508 1336 1494 1315Z"
/>
<glyph unicode="[" glyph-name="bracketleft" horiz-adv-x="831" d="M682 1376L623 1377H570L516 1378Q444 1379 428 1370T412 1337L422 1264Q422 1093 375 371Q347 -59 347 -138Q347 -146 349 -188L354 -268Q356 -305 358 -314T380 -329T429 -336Q499 -336 564
-319Q629 -304 631 -304Q713 -304 713 -382Q713 -441 674 -462T506 -496Q425 -504 370 -520Q290 -544 261 -544Q229 -544 207 -516T185 -456Q185 -428 193 -370Q201 -312 201 -286Q201 -259 197 -203Q193 -147 193 -122Q193 -71 244 660Q265 891 265 1066Q265 1246
226 1351Q205 1414 205 1438Q205 1496 242 1521T379 1546H408Q426 1546 449 1547L542 1550L583 1551H613L639 1552Q836 1560 836 1452Q836 1425 797 1401T682 1376Z" />
<glyph unicode="\" glyph-name="backslash" horiz-adv-x="1124" d="M946 -197L584 538Q408 897 302 1066T152 1296Q27 1492 27 1548Q27 1576 64 1597T133 1618Q165 1618 191 1584T253 1477Q288 1406 299 1393Q396 1263 481 1100L505 1055Q597 888 656 764Q726
616 821 437Q1038 43 1067 -24T1096 -133Q1096 -186 1042 -197T979 -209Q954 -209 946 -197Z" />
<glyph unicode="]" glyph-name="bracketright" horiz-adv-x="858" d="M355 -290Q401 -284 411 -294Q419 -292 431 -274V95Q431 127 437 303T450 540L488 842Q519 1082 535 1183L554 1294Q557 1304 575 1345Q592 1384 592 1397Q592 1425 567 1425Q433 1425 311
1392Q253 1376 217 1376Q188 1376 149 1396T109 1438Q109 1472 145 1520T213 1569Q228 1569 258 1565Q288 1561 301 1561Q338 1561 494 1585Q649 1608 684 1608Q717 1608 748 1577T780 1513Q780 1457 748 1401Q730 1371 721 1331T670 1040L614 704Q598 616 592
321Q588 131 585 103Q570 -97 570 -225Q570 -258 578 -310Q587 -363 587 -395Q587 -479 499 -479Q472 -479 419 -470Q367 -462 333 -462Q299 -462 191 -473Q95 -485 58 -485Q38 -485 10 -470T-19 -436Q-19 -300 61 -300Q90 -300 136 -303Q181 -307 196 -307Q217
-307 272 -298Q328 -290 355 -290Z" />
<glyph unicode="^" glyph-name="asciicircum" horiz-adv-x="1178" d="M602 1139L588 1137Q569 1130 469 998T338 807Q244 641 217 605T156 569Q123 569 101 599T78 662Q78 687 187 824Q218 863 242 901Q318 1019 393 1116Q401 1127 415 1149Q507 1290 533 1324T606
1358Q646 1358 678 1288Q718 1209 818 1090L852 1046Q890 998 926 956Q984 893 1052 795T1120 643Q1120 622 1099 590T1055 557Q1013 557 961 655Q946 681 819 856T602 1139Z" />
<glyph unicode="_" glyph-name="underscore" horiz-adv-x="854" d="M854 -205Q830 -205 750 -196Q670 -188 645 -188Q589 -188 406 -200Q223 -213 166 -213Q149 -213 83 -209Q17 -205 0 -205Q-61 -205 -61 -139Q-61 -115 -44 -98T0 -80L154 -70Q191 -70 255 -74Q319
-78 377 -78Q423 -78 511 -69Q601 -61 649 -61Q665 -61 750 -70Q836 -80 854 -80Q915 -80 915 -154Q915 -184 903 -194T854 -205Z" />
<glyph unicode="`" glyph-name="grave" horiz-adv-x="643" d="M280 1252Q272 1257 250 1274L187 1320Q24 1441 24 1497Q24 1517 57 1541T113 1566Q127 1566 171 1528T279 1431T451 1285T578 1174T596 1123Q596 1088 571 1061T514 1034Q503 1034 465 1072L280 1252Z" />
<glyph unicode="a" glyph-name="a" horiz-adv-x="1202" d="M807 364Q667 176 530 82T279 -12Q202 -12 146 53T90 220Q90 483 325 786T792 1090Q876 1090 917 994Q930 962 958 962Q1038 962 1038 900Q1038 869 1028 815Q974 520 974 399Q974 157 1066 109Q1110
85 1110 50Q1110 19 1067 -12T984 -44Q907 -44 857 62T807 364ZM746 927Q614 927 439 680T264 269Q264 154 340 154Q450 154 645 376T840 784Q840 927 746 927Z" />
<glyph unicode="b" glyph-name="b" horiz-adv-x="1192" d="M316 569Q444 802 622 946T943 1091Q1022 1091 1077 1018T1132 840Q1132 529 898 257T402 -16Q331 -16 272 22T205 119Q201 166 178 189Q135 232 135 281Q135 372 185 670L288 1268Q341 1569 365 1640T420
1735T494 1759Q564 1759 564 1638Q564 1523 487 1316Q413 1117 316 569ZM292 236Q344 139 418 139Q532 139 659 233T878 499T971 789Q971 842 952 880T904 918Q765 918 565 691T292 236Z" />
<glyph unicode="c" glyph-name="c" horiz-adv-x="1038" d="M406 -57Q256 -57 176 29T95 270Q95 531 302 820T687 1110Q768 1110 826 1023T885 837Q885 778 860 736T808 693Q750 693 726 810Q699 936 648 936Q544 936 402 689T260 272Q260 102 453 102Q600 102
799 240Q869 289 902 289Q936 289 936 250Q936 174 757 59T406 -57Z" />
<glyph unicode="d" glyph-name="d" horiz-adv-x="1354" d="M850 414Q716 199 566 83T290 -34Q193 -34 137 40T80 239Q80 492 285 758T729 1024Q833 1024 922 935L1062 1589Q1077 1656 1117 1679T1181 1702Q1251 1702 1251 1578Q1251 1556 1205 1414Q1132 1194
1067 874T1001 359Q1001 159 1088 159Q1144 159 1204 196Q1229 214 1251 214Q1283 214 1283 172Q1283 121 1194 54T1010 -13Q845 -13 845 305Q845 359 850 414ZM719 882Q557 882 398 663T239 257Q239 132 322 132Q400 132 511 214T741 475T859 745Q859 789 819
835T719 882Z" />
<glyph unicode="e" glyph-name="e" horiz-adv-x="1065" d="M989 339Q989 237 809 93T436 -51Q275 -51 188 44T100 309Q100 595 293 853T715 1111Q790 1111 837 1062T885 944Q885 790 734 649T330 372Q278 345 278 302Q278 219 326 169T468 119Q683 119 907 357Q940
390 957 390Q989 390 989 339ZM294 495Q718 747 718 900Q718 960 664 960Q572 960 457 825T294 495Z" />
<glyph unicode="f" glyph-name="f" horiz-adv-x="763" d="M332 -46Q325 -71 294 -88T232 -105Q130 -105 130 44Q130 115 177 446Q206 649 206 754Q206 772 164 801Q121 829 121 856Q121 899 186 949Q236 988 247 1036T274 1169Q325 1479 433 1616T710 1753Q799
1753 861 1693T923 1542Q923 1469 889 1377T810 1284Q777 1284 777 1317L784 1414Q784 1607 676 1607Q559 1607 482 1378T405 1004Q405 958 465 958Q726 958 772 960T819 921Q819 880 769 859T548 820Q403 805 384 795Q317 423 317 132Q317 45 325 3Q332 -36 332
-46Z" />
<glyph unicode="g" glyph-name="g" horiz-adv-x="1176" d="M840 362Q828 371 773 306Q682 199 541 116T278 33Q188 33 137 89T86 246Q86 401 203 591T530 924T899 1066Q982 1066 1045 1018Q1060 1006 1071 998Q1089 985 1105 946T1121 882Q1121 867 1110 836Q1049
670 1027 561T979 194Q955 -38 927 -163T826 -405T651 -580T441 -639Q254 -639 72 -510T-110 -303Q-110 -254 -73 -254Q-55 -254 34 -313Q269 -470 457 -470Q621 -470 706 -295T823 228Q830 307 840 362ZM838 911Q753 911 626 823T378 565T258 280Q258 241 282
219T337 196Q426 196 569 288T816 543T920 800Q920 911 838 911Z" />
<glyph unicode="h" glyph-name="h" horiz-adv-x="1282" d="M297 300Q669 987 910 987Q974 987 1014 914T1079 590Q1104 323 1192 204Q1237 143 1237 114Q1237 88 1207 66T1143 44Q1065 44 1005 131T928 439Q911 647 892 711T829 775Q724 775 406 226Q311 62 266
12T184 -39Q140 -39 110 -13T80 51Q80 79 96 159Q219 794 290 1415Q306 1560 341 1608T401 1656Q444 1656 479 1621T514 1524Q514 1340 424 1019Q380 860 331 615T282 312Q282 300 293 300H297Z" />
<glyph unicode="i" glyph-name="i" horiz-adv-x="592" d="M455 1339Q434 1339 423 1384Q419 1398 412 1415Q385 1480 385 1528Q385 1568 432 1609T538 1651Q567 1651 603 1629T639 1585Q639 1552 615 1473T537 1367T455 1339ZM324 222Q324 146 345 51Q349 33 349
21Q349 3 316 -25T246 -54Q149 -54 149 124Q149 308 225 706Q251 845 251 877Q251 940 274 984T339 1029Q390 1029 419 1005T449 950Q449 920 435 871Q360 607 342 493T324 222Z" />
<glyph unicode="j" glyph-name="j" horiz-adv-x="660" d="M412 1617H415Q443 1617 499 1597T572 1564T590 1518Q590 1456 533 1410T448 1363Q400 1363 364 1405T328 1489Q328 1597 412 1617ZM7 -635Q-112 -635 -223 -536T-335 -364Q-335 -344 -321 -325T-300 -305Q-293
-305 -269 -325Q-112 -463 -16 -463Q63 -463 120 -388T202 -108T249 528Q264 839 275 923T323 1040T415 1074Q444 1074 469 1052T495 997Q495 979 488 948Q415 632 393 125Q379 -181 336 -328T204 -555T7 -635Z" />
<glyph unicode="k" glyph-name="k" horiz-adv-x="1211" d="M327 467Q340 484 506 628Q663 765 725 827Q956 1058 1057 1058Q1135 1058 1135 983Q1135 898 1058 858Q958 807 791 689T624 521Q624 501 742 372T946 181T1113 119L1146 120Q1181 122 1181 89Q1181
45 1126 0T981 -46Q923 -46 864 -6T652 213Q531 360 501 388T451 417Q440 417 381 365T317 286T311 80V33Q311 -4 276 -33T200 -62Q158 -62 134 -38T110 13Q110 49 137 183Q175 376 207 700Q281 1465 321 1565T435 1666Q461 1666 478 1638T496 1566Q496 1486 427
1141Q358 795 327 467Z" />
<glyph unicode="l" glyph-name="l" horiz-adv-x="586" d="M483 1693Q555 1693 555 1601Q555 1519 468 1211Q413 1017 383 783T353 416Q353 251 374 88Q378 57 378 43Q378 -7 344 -43T272 -79Q219 -79 199 -13T178 200Q178 535 258 1030T386 1609T483 1693Z" />
<glyph unicode="m" glyph-name="m" horiz-adv-x="2105" d="M888 791Q795 789 490 240Q387 55 370 39T308 9T232 -4Q165 -4 165 257Q165 404 228 789Q254 945 254 1012Q254 1078 313 1078Q424 1078 424 918Q424 843 387 624Q344 374 343 320Q405 380 525 583Q695
861 775 935T942 1010Q1007 1010 1045 923T1092 508Q1094 426 1107 386T1126 346Q1173 346 1330 666Q1414 835 1493 923T1670 1011Q1751 1011 1788 928T1841 680Q1856 514 1887 376T2003 199Q2060 172 2060 136Q2060 101 2012 64T1924 27Q1844 27 1781 125T1686
549Q1672 680 1659 735T1618 790Q1576 790 1519 710T1333 385Q1233 194 1182 131T1082 67Q1039 67 1005 101T962 184T943 423Q928 739 888 791Z" />
<glyph unicode="n" glyph-name="n" horiz-adv-x="1358" d="M814 769Q762 769 701 701T513 396Q347 78 299 34T218 -10Q100 -10 100 104Q100 152 116 240Q171 542 171 877Q171 915 203 961T265 1008Q317 1008 339 976T361 847Q361 746 301 431Q281 327 281 299Q281
283 289 283Q304 283 428 522Q553 765 647 864T854 963Q944 963 1000 881T1083 582Q1111 335 1133 275T1205 214Q1236 214 1283 236Q1291 240 1295 240Q1338 240 1338 190Q1338 146 1279 97T1137 47Q1052 47 1006 114T932 475Q904 769 814 769Z" />
<glyph unicode="o" glyph-name="o" horiz-adv-x="1158" d="M425 -50Q288 -50 199 54T110 311Q110 569 283 819T699 1070Q859 1070 958 947T1058 654Q1058 394 853 172T425 -50ZM286 337Q286 236 328 172T441 108Q590 108 740 271T890 635Q890 758 833 834T678
911Q517 911 402 714T286 337Z" />
<glyph unicode="p" glyph-name="p" horiz-adv-x="1324" d="M326 116Q277 -64 234 -389L206 -578Q199 -618 169 -657T114 -697Q83 -697 44 -666T4 -615Q4 -560 29 -463Q212 276 212 835L211 919Q209 1027 249 1076T341 1125Q365 1125 387 1088T409 981Q409 884
389 746Q363 572 362 546Q511 806 678 952T988 1098Q1089 1098 1158 1023T1228 835Q1228 509 978 243T491 -23Q432 -23 398 7T326 116ZM947 921Q806 921 598 657T390 246Q390 210 431 176T535 142Q678 142 864 353T1050 769Q1050 842 1021 881T947 921Z" />
<glyph unicode="q" glyph-name="q" horiz-adv-x="1174" d="M821 326Q816 328 795 304Q655 149 528 71T286 -8Q194 -8 139 69T84 267Q84 539 334 836T839 1134Q933 1134 959 1026Q968 994 998 989Q1091 967 1091 887Q1091 830 1044 642Q1011 511 943 150T870 -386Q866
-502 863 -543T829 -608T753 -632Q711 -632 687 -600T663 -518Q663 -487 695 -306T764 39Q807 236 821 326ZM898 805Q898 961 779 961Q633 961 441 722T249 282Q249 159 330 159Q481 159 689 383T898 805Z" />
<glyph unicode="r" glyph-name="r" horiz-adv-x="1043" d="M335 397Q345 415 359 447Q427 603 484 691T609 861T734 984T837 1042T926 1059Q1013 1059 1068 1007T1123 884Q1123 853 1104 828T1044 803Q1002 803 967 840Q931 877 892 877Q788 877 604 625T380 70Q370
-8 342 -33T263 -58Q214 -58 192 15T170 261Q170 308 175 468Q181 657 199 773Q202 792 209 862Q216 939 226 969T269 1025T340 1051Q377 1051 395 1028T414 977Q414 938 394 867Q371 788 367 758Q364 724 356 687Q346 644 336 461L335 424V397Z" />
<glyph unicode="s" glyph-name="s" horiz-adv-x="869" d="M636 229Q636 294 476 377Q273 481 202 543T130 683Q130 882 329 1013T655 1144Q736 1144 772 1116T809 1019Q809 988 783 966T741 944Q730 944 698 959Q666 973 656 973Q606 973 453 900T300 735Q300
679 354 634T548 522Q661 468 728 407T796 262Q796 109 585 23T182 -64Q20 -64 20 46Q20 84 56 102T130 120Q145 120 187 110Q228 100 241 100Q352 100 479 137T636 229Z" />
<glyph unicode="t" glyph-name="t" horiz-adv-x="960" d="M540 1009Q643 1017 734 1028Q824 1038 884 1038Q960 1038 980 1024T1000 975Q1000 894 887 887Q742 878 620 862T489 836T428 598T377 302Q377 192 406 156T493 119Q579 119 732 248Q791 301 823 301Q866
301 866 255Q866 183 728 69T444 -46Q202 -46 202 239Q202 342 252 558Q301 773 301 816Q301 831 277 831L173 822Q45 822 45 924Q45 982 104 982H310Q331 982 347 1001T394 1128T449 1343Q473 1448 543 1448Q586 1448 610 1418T634 1362Q634 1348 598 1219L540
1009Z" />
<glyph unicode="u" glyph-name="u" horiz-adv-x="1249" d="M839 435Q711 220 577 102T328 -16Q262 -16 194 61T125 298Q125 429 188 684Q241 897 241 983Q270 1043 332 1043Q374 1043 399 1014T424 952Q424 882 375 753Q282 502 282 322Q282 158 358 158Q455 158
605 323T862 783Q904 901 930 936T1002 972Q1070 972 1070 882Q1070 871 1051 809Q991 590 991 395Q991 161 1068 92Q1108 55 1108 32Q1108 4 1068 -19T994 -42Q924 -42 881 62T838 369V402Q838 418 839 435Z" />
<glyph unicode="v" glyph-name="v" horiz-adv-x="1118" d="M325 -12Q327 46 240 288Q75 739 75 916Q75 1057 169 1057Q261 1057 261 931Q261 828 267 773T315 570T405 296Q430 230 441 195Q462 227 495 283Q671 579 775 739T946 972T1043 1059T1106 1074Q1145
1074 1167 1046T1190 982Q1190 935 1108 880Q1031 828 881 619T557 86Q468 -78 420 -78Q378 -78 325 -12Z" />
<glyph unicode="w" glyph-name="w" horiz-adv-x="1805" d="M925 662Q897 661 790 429Q702 238 610 89T475 -61Q351 -61 246 307T140 901Q140 974 176 1022T263 1074Q270 1075 288 1074T332 1041T358 979V975Q358 963 347 875Q338 810 338 716Q338 567 395 387T491
207Q519 207 676 511Q775 704 818 777L850 837Q919 969 981 1019Q1067 1008 1067 933Q1067 908 1063 891Q1059 874 1059 849Q1059 664 1155 462T1292 259Q1322 259 1387 471Q1475 759 1549 903T1659 1074T1738 1101Q1763 1101 1780 1080T1798 1033Q1798 996 1787
982Q1663 819 1549 473Q1452 176 1416 100T1356 24Q1235 24 1158 112T954 583Q939 628 925 662Z" />
<glyph unicode="x" glyph-name="x" horiz-adv-x="1103" d="M477 372Q249 176 176 -23Q148 -89 119 -122Q0 -115 0 -11Q0 142 341 453L389 498Q190 797 190 957Q190 1099 310 1099Q344 1099 359 1070T384 938Q397 779 521 601Q798 839 895 1027Q928 1087 946 1103T994
1119Q1030 1119 1061 1091T1093 1020Q1093 920 607 472Q774 258 963 151Q986 138 1007 124Q1011 115 1011 96Q1011 53 980 19T904 -15Q769 -15 477 372Z" />
<glyph unicode="y" glyph-name="y" horiz-adv-x="1210" d="M872 353Q688 193 549 121T335 48Q236 48 184 130T131 323Q131 477 193 703T286 972T384 1015Q412 1015 430 982T448 907Q448 882 425 842Q371 748 369 738T330 618T294 410Q294 376 310 304T379 232Q434
232 514 265T696 375T832 498T881 605T902 865Q908 1065 999 1065Q1053 1065 1069 1037T1085 928Q1085 862 1076 763Q1065 638 1062 585Q1048 310 991 33T823 -431T520 -618Q324 -618 172 -516T19 -342Q19 -309 34 -277T74 -245Q86 -245 100 -264Q231 -465 512
-465Q657 -465 755 -211T864 267Q866 310 872 353Z" />
<glyph unicode="z" glyph-name="z" horiz-adv-x="1029" d="M982 11Q956 22 932 35Q844 79 694 79Q607 79 404 46T127 -57Q76 -102 20 -102Q-11 -102 -49 -84T-90 -35Q-43 17 40 101Q491 559 726 861Q722 870 694 870Q641 870 468 845Q390 833 306 833Q101 833
101 941Q101 1023 192 1023Q197 1023 211 1018Q283 988 385 988Q520 988 690 1010Q707 1013 730 1016Q752 1018 781 1024Q839 1034 873 1034Q907 1034 942 1016T973 958L972 954Q950 867 443 326Q321 195 312 171Q316 161 332 161Q346 161 472 188Q708 239 830
239Q1021 239 1021 123Q1021 50 982 11Z" />
<glyph unicode="{" glyph-name="braceleft" horiz-adv-x="866" d="M644 -464L579 -460Q472 -460 387 -349T302 -38V184Q301 301 284 344T239 388Q225 388 164 362Q103 336 89 336Q67 336 41 365T15 418Q15 455 71 499T167 553Q243 572 316 639T390 752Q390 768
386 785Q382 807 377 855Q373 903 365 932Q338 1049 338 1133Q338 1255 397 1359T562 1513T701 1562Q742 1562 777 1546T812 1497Q812 1466 800 1424T763 1382Q747 1382 715 1388Q684 1394 667 1394Q631 1394 584 1354T517 1278T496 1102Q496 1073 511 1011Q526
950 526 894Q526 734 502 667T400 545Q347 513 347 502Q347 491 376 476Q445 434 445 293Q445 255 439 133Q433 11 433 -39Q433 -309 607 -309Q679 -309 765 -274Q784 -266 790 -266Q873 -266 873 -313Q873 -328 853 -360T818 -414T743 -450T644 -464Z" />
<glyph unicode="|" glyph-name="bar" horiz-adv-x="662" d="M287 2028Q323 2054 338 2054Q399 2054 399 1919L387 219V19L391 -520Q391 -819 376 -916T309 -1014Q281 -1014 260 -991T238 -940L260 297L254 678L270 1753Q270 1797 262 1905Q254 1999 287 2028Z" />
<glyph unicode="}" glyph-name="braceright" horiz-adv-x="825" d="M571 468Q524 419 524 371Q524 358 542 258T579 81Q600 -7 600 -92Q600 -284 514 -385T285 -487Q189 -487 149 -458T109 -390Q109 -359 157 -337T242 -315Q274 -315 317 -325Q432 -280 432 -49Q432
16 406 173Q381 318 381 380Q381 442 403 464T473 502L438 517Q390 535 348 583T306 709Q306 799 384 1012Q444 1175 444 1284Q444 1347 391 1388T274 1429Q146 1429 70 1373Q36 1346 30 1346Q2 1346 2 1369Q2 1580 332 1580Q422 1580 508 1502T594 1269Q594 1194
556 1075T504 929Q453 798 453 660Q496 611 541 611Q559 611 618 616Q676 621 694 621Q811 621 811 531Q811 506 777 476T717 445Q628 445 571 468Z" />
<glyph unicode="~" glyph-name="asciitilde" horiz-adv-x="1593" d="M999 532Q957 532 918 554T780 669Q708 737 653 775T530 813L485 819Q445 819 388 768T293 637Q279 606 241 548T184 489Q150 489 124 509T98 563Q98 704 158 756Q172 768 206 806Q256 862 363
919T514 977Q541 977 594 964T688 923T832 813Q888 766 932 734L990 692Q1005 682 1051 682Q1080 682 1144 695T1220 717T1244 744T1318 879Q1340 922 1381 957T1460 993Q1522 993 1522 938Q1522 933 1505 880T1456 787Q1436 763 1419 741Q1321 612 1218 572T999
532Z" />
</font>
</defs>
</svg>
