<?xml version="1.0" standalone="no"?> <!DOCTYPE svg PUBLIC "-//W3C//DTD SVG 1.0//EN" "http://www.w3.org/TR/2001/REC-SVG-20010904/DTD/svg10.dtd" > <svg xmlns="http://www.w3.org/2000/svg" width="100%" height="100%">
<defs >
<font id="optimabold" horiz-adv-x="472" ><font-face
    font-family="Optima"
    units-per-em="1000"
    panose-1="0 0 0 0 0 0 0 0 0 0"
    ascent="772"
    descent="-268"
    alphabetic="0" />
<missing-glyph horiz-adv-x="316" />
<glyph unicode=" " glyph-name="space" horiz-adv-x="316" />
<glyph unicode="!" glyph-name="exclam" horiz-adv-x="371" d="M110 55Q112 69 117 80T132 99Q140 107 149 111T168 116L208 117H210H212Q224 116 235 112T256 99Q266 90 271 79T276 53Q276 37 271 25T256 5Q246 -1 236 -5T214 -9H174Q162 -9 151 -6T130 5Q120
13 115 25T110 53V55V55ZM165 173L126 630V633V638Q125 653 129 665T140 686Q148 695 156 699T173 704L213 705H214H216Q225 703 234 697T251 679Q259 667 263 649T268 604L229 173H189H165V173V173Z" />
<glyph unicode="&quot;" glyph-name="quotedbl" horiz-adv-x="371" d="M47 425V654Q47 663 49 671T58 685Q64 691 70 694T83 698L123 699Q130 698 136 695T147 685Q152 679 155 669T158 644V409Q158 402 155 397T147 387Q141 383 135 381T123 377L83 378H80H78Q72
376 67 378T56 384Q51 389 49 396T46 413V416L47 419V421V424V425V425ZM205 441V646Q205 656 208 665T217 681Q223 689 230 692T245 697L285 698Q290 697 295 695T305 688Q310 684 312 677T316 659V425Q316 414 313 405T304 390Q298 384 292 381T278 378L238 379Q231
378 225 380T214 389Q209 395 207 404T204 427V430L205 434V434V436V438V440V441V441Z" />
<glyph unicode="#" glyph-name="numbersign" horiz-adv-x="599" d="M102 0L134 213H24V268H142L165 402H55V457H173L205 661H245H308L276 457H362L394 661H434H497L465 457H560V402H457L434 268H536V213H426L394 0H354H291L323 213H237L205 0H165H102V0V0ZM245
268H331L354 402H268L245 268V268Z" />
<glyph unicode="$" glyph-name="dollar" horiz-adv-x="599" d="M150 126Q152 121 155 116T163 105Q165 102 167 99T173 93Q176 89 179 86T185 80Q195 70 207 62T235 45Q243 41 251 38T268 33V307Q222 315 189 333T134 377Q112 403 101 430T90 487Q90 519 101 548T136
605Q159 632 192 650T268 675V756H308L311 753L315 752Q316 750 317 750T319 749Q319 748 320 748T322 748L282 749Q283 748 284 748T286 748H287Q288 748 289 748Q292 748 294 748T299 749Q301 750 303 751T307 754L347 755V677Q355 675 364 675T383 672Q394 671
404 669T427 663Q438 660 448 657T469 648Q480 644 489 639T505 628Q499 619 494 609T486 587Q482 576 479 565T473 541L433 542L425 543Q419 556 409 570T383 597Q375 605 366 611T347 621V386Q349 384 351 383T356 381Q358 380 360 379T364 377Q368 376 372 375T380
371Q412 358 438 344T486 312Q507 296 517 271T528 211V206V200Q528 165 520 138T496 87Q480 65 463 48T426 18Q415 11 405 6T383 -1Q373 -4 364 -6T347 -8V-118H307Q305 -117 303 -116T299 -115Q298 -115 297 -114H296Q295 -114 294 -114T292 -114H332Q330 -114
328 -114T324 -114L318 -116L312 -117L308 -118H268V-10Q267 -10 267 -10T265 -10H225Q199 -10 177 -7T136 2Q118 9 102 19T71 45Q74 50 76 54T81 64Q83 69 85 74T90 85Q91 89 92 93T94 101Q96 105 97 109T100 117V121L102 125L110 126H150V126V126ZM347 54Q353
56 358 60T368 68Q379 79 387 89T399 111Q402 118 404 124T407 138Q408 145 408 151T409 163Q409 183 401 202T378 238Q371 246 363 253T347 266V54V54ZM268 420V610Q261 604 254 598T240 584Q227 568 220 552T213 518Q216 497 223 479T243 444Q248 437 254 431T268
419V420Z" />
<glyph unicode="%" glyph-name="percent" horiz-adv-x="930" d="M220 -31L598 701H638H694L316 -31H276L272 -29L269 -28Q267 -29 265 -29T260 -31H220V-31V-31ZM520 157Q520 195 533 225T572 278Q598 299 627 311T688 324L728 325H731H734Q763 324 790 315T841
285Q865 266 877 236T890 164V160V156Q888 115 876 86T842 36Q820 17 796 6T746 -8Q743 -8 741 -8T736 -8Q735 -8 734 -8T732 -9Q730 -9 729 -9T727 -9H687Q685 -9 683 -9T678 -9Q677 -9 676 -9T674 -9Q672 -8 671 -8T669 -8Q637 -5 610 7T562 41Q541 63 531 91T520
155V157V157ZM638 156Q638 152 638 150T638 145Q638 143 638 141T639 136Q641 114 646 94T662 56Q670 42 681 33T707 18Q718 23 727 32T744 58Q755 81 761 105T770 156Q770 157 770 158T771 161Q771 162 771 163T771 166Q771 168 771 170T771 176Q771 200 767 221T754
260Q747 274 736 283T711 296Q698 294 688 287T670 267Q660 252 654 236T643 202Q642 196 641 190T639 178Q638 172 638 166T638 155V156ZM47 520Q47 554 58 581T92 628Q115 648 140 659T193 674Q195 674 197 674T203 674Q204 674 205 674T208 675Q209 675 210
675T213 675L253 676Q287 675 312 667T355 641Q372 625 384 607T402 568Q404 561 405 554T408 538Q409 531 409 524T410 510Q410 508 410 506T410 502Q409 499 409 497T409 493Q408 489 408 485T407 477Q402 450 390 426T358 380Q339 358 313 348T253 337L213 338Q171
337 141 350T91 388Q72 414 61 441T48 500Q47 502 47 504T47 508Q47 510 47 512T47 518V520V520ZM158 512Q158 478 164 452T183 406Q192 392 202 384T225 371Q239 375 250 385T271 412Q283 434 290 458T298 509V515V521Q298 544 293 565T277 606Q269 620 258 629T231
642Q217 639 206 633T187 615Q177 600 171 584T161 551Q160 545 159 540T158 530Q158 525 158 521T158 511V512Z" />
<glyph unicode="&amp;" glyph-name="ampersand" horiz-adv-x="764" d="M244 370Q227 393 215 415T195 457Q188 477 184 496T180 532Q180 561 188 585T215 627Q232 645 251 657T292 676Q295 677 298 677T304 679Q307 679 310 679T316 681Q319 681 322 681T328 682Q330
683 333 683T339 683L379 684Q414 680 440 671T483 647Q500 632 508 614T518 575Q518 565 516 554T510 532Q506 521 501 510T489 488Q480 475 469 462T443 434Q430 421 414 408T379 384L531 199Q535 203 538 208T546 219Q550 225 554 231T562 244Q565 250 569 256T577
270Q580 276 583 282T591 295Q594 301 597 307T604 319Q607 325 610 331T617 344Q621 350 624 356T630 368L670 369L709 331Q711 327 707 318T693 292Q683 276 671 259T644 222Q641 218 638 214T632 206Q631 204 629 202T626 198Q624 196 623 194T619 190Q616 186
613 183T608 176Q605 172 602 169T596 163Q590 156 585 151T575 140L701 0H661H543L494 55Q490 50 487 46T478 39Q465 28 448 18T409 0Q388 -7 365 -11T316 -16H276Q274 -16 272 -16T267 -16Q265 -16 263 -16T259 -16Q220 -16 190 -9T138 14Q117 30 103 47T80 84Q79
87 78 90T76 97Q75 100 75 103T73 109Q72 112 72 115T71 121Q71 123 71 126T71 132L70 139V145V150V156Q70 185 78 210T102 255Q119 275 137 292T174 324Q179 327 183 330T193 336Q197 339 202 342T211 348Q220 353 228 358T244 368V370V370ZM449 102L282 320Q279
317 277 315T272 312Q270 310 268 308T262 304Q249 293 237 280T213 251Q202 236 197 218T191 180Q191 178 191 176T191 171Q191 168 191 166T192 161Q193 156 194 151T197 140Q208 112 223 92T257 59Q272 50 287 44T319 36Q337 38 354 43T388 56Q406 65 421 76T449
100V102V102ZM342 432Q350 437 358 445T375 463Q387 478 396 494T411 528Q412 530 412 532T414 538Q414 540 414 542T416 548Q417 553 417 558T418 568Q418 581 415 592T403 614Q396 625 384 632T354 644V644H353Q342 642 333 636T317 621Q308 608 304 592T299
557Q299 549 300 541T302 524Q304 515 306 507T311 490Q314 480 318 471T329 451Q332 446 335 441T342 431V432Z" />
<glyph unicode="&apos;" glyph-name="quotesingle" horiz-adv-x="316" d="M47 417L126 661Q129 668 133 674T142 686Q147 691 153 694T165 698L169 700H209H213Q220 699 226 696T238 688Q244 683 247 676T250 660Q250 656 250 651T247 641Q246 636 243 631T237
620L111 409H71L47 417V417V417Z" />
<glyph unicode="(" glyph-name="parenleft" horiz-adv-x="316" d="M220 -110Q210 -99 201 -88T184 -66Q176 -54 168 -43T153 -21Q139 1 127 23T105 69Q98 85 92 101T80 133Q75 148 71 164T64 196Q58 228 55 259T52 320Q52 385 63 444T96 557Q118 611 142 653T192
726Q195 730 198 733T206 741Q208 743 209 744T213 748Q214 749 216 751T220 754L260 755L284 732Q271 714 260 697T240 661Q231 643 223 626T209 591Q196 554 187 519T174 449Q170 415 168 385T166 329Q168 271 173 224T187 138Q196 100 206 69T226 15Q235 -5
244 -21T261 -48Q269 -59 275 -67T284 -79L260 -110H220V-110V-110Z" />
<glyph unicode=")" glyph-name="parenright" horiz-adv-x="316" d="M55 -102L31 -79Q62 -35 83 4T117 80Q129 116 136 151T147 221Q148 232 148 243T149 266Q149 272 149 277T150 289Q150 295 150 301T150 313Q150 379 142 438T118 549Q102 601 85 640T48 708Q47
710 46 711T44 714Q42 715 41 716T39 719Q38 721 37 722T35 725Q34 726 33 727T31 730L55 756H95Q124 728 146 698T185 633Q202 599 214 565T236 496Q243 469 247 442T255 388Q257 361 258 337T260 289Q260 287 260 285T260 281Q259 279 259 277T259 273Q259 269
259 265T259 258Q256 212 246 168T217 81Q199 38 180 4T139 -57Q136 -60 133 -63T128 -70Q125 -73 122 -76T116 -82Q110 -88 105 -93T95 -102H55V-102V-102Z" />
<glyph unicode="*" glyph-name="asterisk" horiz-adv-x="481" d="M189 512L47 575L48 576L50 579Q51 580 52 582T55 587Q57 589 59 592T63 598Q65 601 67 604T72 611Q73 613 74 615T76 619Q76 621 77 623T79 628L119 629L202 572L189 693H229Q231 690 234 689T240
687Q244 688 247 689T252 691L292 692L280 570L354 630H394Q396 625 397 622T401 615Q403 611 405 608T411 601Q413 597 416 593T422 586Q425 582 428 579T434 573L292 512L426 457Q423 446 420 437T414 420Q411 411 408 404T402 392L362 393L279 450L292 331Q283
329 274 329T257 329L217 330Q209 329 202 329T189 329L202 448L127 394H87L47 449L189 512V512V512Z" />
<glyph unicode="+" glyph-name="plus" horiz-adv-x="646" d="M47 291H276V520H316H379V291H599V228H379V0H339H276V228H47V291V291V291Z" />
<glyph unicode="," glyph-name="comma" horiz-adv-x="316" d="M63 -173L39 -165L118 79Q121 89 125 96T135 109Q140 114 146 117T158 122L160 124H200H204Q212 123 219 120T234 109Q240 102 243 94T247 75Q247 71 247 68T244 60Q243 56 241 53T237 45L103 -173H63V-173V-173Z"
/>
<glyph unicode="-" glyph-name="hyphen" horiz-adv-x="371" d="M79 268H331V197H291H39V268H79V268V268Z" />
<glyph unicode="." glyph-name="period" horiz-adv-x="316" d="M71 47Q73 64 77 77T91 100Q100 108 110 112T131 117L171 118H173H176Q187 116 197 111T218 97Q227 88 232 78T237 53Q236 37 230 26T215 6Q206 -1 196 -4T174 -8H134H132H131Q121 -7 111 -4T92 5Q83
12 78 22T71 45V47V47Z" />
<glyph unicode="/" glyph-name="slash" horiz-adv-x="316" d="M-39 -102L244 756H284Q286 753 289 752T295 750Q299 751 302 752T307 754L347 755L64 -102H24Q23 -102 22 -102T20 -102Q18 -101 17 -101T15 -101Q14 -101 13 -101T11 -101Q10 -100 9 -100T7 -100Q6
-100 6 -100T5 -101Q4 -101 4 -101T2 -102H-38H-39V-102Z" />
<glyph unicode="0" glyph-name="zero" horiz-adv-x="599" d="M39 323Q39 324 39 325T39 330Q39 332 39 335T41 341Q41 354 42 370T45 407Q47 427 50 448T60 492Q69 527 86 558T128 618Q152 647 191 661T283 675L323 676Q372 675 408 661T468 617Q492 588 508 557T534
490Q541 464 545 439T550 391Q551 367 551 350T552 321Q552 309 551 293T547 255Q545 234 541 212T529 167Q519 134 502 104T460 46Q436 18 401 5T318 -8H278H275H273H270H268Q208 -8 166 14T97 82Q72 127 58 177T40 283Q40 285 40 287T40 293Q39 295 39 297T39
302Q39 304 39 306T39 312Q39 314 39 316T39 321V323V323ZM166 306Q166 293 166 280T168 253Q168 246 169 239T171 224Q172 216 173 209T176 194Q182 163 193 135T220 80Q234 58 252 46T296 30Q327 34 348 49T383 92Q398 124 407 158T421 230Q422 237 422 244T423
258Q424 264 424 271T424 285Q424 292 424 298T425 312Q425 318 425 324T425 337Q425 402 416 456T388 552Q372 589 351 609T302 635Q258 629 230 603T191 529Q178 479 172 423T166 305V306Z" />
<glyph unicode="1" glyph-name="one" horiz-adv-x="599" d="M102 583Q131 596 159 609T216 635Q244 647 266 659T307 683L347 684L371 677V-8H331Q325 -7 320 -6T310 -3Q304 -4 298 -5T284 -8H244V583L174 543H134Q133 543 132 544T128 549Q127 551 126 552T125
555Q124 557 123 558T121 561Q120 563 119 564T117 567Q115 568 114 569T112 572Q110 575 108 577T102 581V583V583Z" />
<glyph unicode="2" glyph-name="two" horiz-adv-x="599" d="M87 575Q104 603 123 623T165 653Q187 664 212 669T268 675L308 676Q310 675 311 675T314 675Q315 674 316 674T319 674Q322 674 325 674T331 674Q363 671 393 659T450 623Q477 601 491 567T505 486Q505
465 501 443T489 398Q481 375 465 352T426 305L198 72L472 79H512Q511 73 510 69T508 59Q507 55 507 51T507 41Q507 36 507 31T508 20Q508 15 509 10T512 0H472H39V16Q47 22 55 29T71 44Q79 52 87 60T104 77Q107 80 110 83T117 89Q120 92 123 95T129 102Q132 105
135 108T142 115Q145 118 148 121T154 128Q185 160 212 190T265 250Q290 279 306 300T331 337Q338 348 344 361T354 387Q359 401 362 415T368 444Q368 449 368 454T370 465Q370 468 370 470T371 476Q371 478 371 481T371 487Q371 515 364 539T343 585Q331 603 313
614T269 627Q256 626 244 621T221 607Q208 597 199 585T183 560Q182 556 181 553T177 546Q176 542 175 539T174 533L158 528H118L87 575V575V575Z" />
<glyph unicode="3" glyph-name="three" horiz-adv-x="599" d="M94 614Q97 615 100 617T108 622Q112 625 116 628T127 636Q135 642 146 647T172 657Q186 662 204 664T244 667L284 668Q325 667 359 659T420 634Q446 618 459 589T473 518Q473 491 465 466T442 417Q427
393 403 377T347 352Q391 346 422 333T470 296Q487 274 496 247T505 187Q502 143 486 107T440 41Q410 12 362 -2T245 -16H205Q198 -16 190 -16T173 -14Q164 -13 155 -13T135 -10Q123 -7 112 -4T90 1Q79 5 70 10T55 22L71 79L87 87H127Q136 70 149 58T180 38Q193
32 206 28T233 22Q256 25 278 35T320 62Q343 81 355 110T370 179Q370 180 370 181T370 183V184Q370 185 370 186Q370 187 370 188T370 190V191Q371 192 371 193Q371 229 361 254T329 295Q312 307 293 314T252 324V324V324H251V324Q250 324 249 324T246 323Q244
322 243 322T240 322Q239 322 238 322T235 322Q233 321 232 321T229 321L189 322L192 328L194 334V339L195 345Q195 347 195 350T193 356Q192 359 192 362T189 368L229 369Q230 368 231 368T233 367Q234 367 235 367T237 366Q239 367 241 367T246 369Q264 372 280
381T312 405Q327 420 335 446T346 510Q346 539 338 561T313 599Q301 610 288 617T260 628Q249 626 239 622T217 610Q204 601 193 588T174 557L158 551H118L94 614V614V614Z" />
<glyph unicode="4" glyph-name="four" horiz-adv-x="599" d="M16 189V213L339 669H379H449V255L504 260H544Q543 254 542 249T539 239Q538 235 538 230T538 219Q538 214 538 209T539 198Q540 193 541 189T544 179L504 180L449 185V0H409Q400 0 391 0T372 0Q362
0 350 0T323 0V189H16V189V189ZM323 252V517L142 252H323V252V252Z" />
<glyph unicode="5" glyph-name="five" horiz-adv-x="599" d="M111 94Q122 76 136 63T170 40Q184 33 198 29T227 23Q250 26 272 36T314 62Q338 82 350 114T362 192V196V199V201V204Q360 246 349 276T317 324Q301 338 284 346T247 357Q237 356 227 354T207 348Q196
344 186 340T166 329L126 330L110 339V669H150H481Q481 666 481 664T481 661Q480 659 480 658T480 654Q480 653 480 651T480 648Q479 646 479 645T479 641Q478 637 478 634T477 627Q477 623 477 620T477 612Q477 610 477 608T477 604L478 598Q478 595 478 593T479
589Q479 587 479 585T481 581L441 582Q429 584 415 586T386 591Q371 593 353 594T315 596L197 598V401Q197 400 197 400T199 401Q200 401 200 401H201Q214 404 227 405T256 407L296 408Q298 407 300 407T306 407Q308 406 310 406T316 406Q321 405 326 405T336 404Q366
399 394 386T447 350Q473 328 487 293T505 211V210V208V206V204Q505 156 486 117T428 47Q390 16 344 1T245 -14H205Q198 -14 191 -14T176 -13Q168 -13 161 -12T146 -10Q139 -9 132 -7T117 -3Q109 -1 102 0T87 5Q82 7 77 8T67 12Q62 14 57 16T47 22L63 94H103H111V94V94Z"
/>
<glyph unicode="6" glyph-name="six" horiz-adv-x="599" d="M55 283Q57 384 80 458T149 579Q193 626 243 649T351 672L391 673Q394 672 397 672T405 672Q407 672 409 672T413 672Q414 671 416 671T420 671Q423 670 426 670T434 669Q438 669 441 669T449 667L457
630H417Q410 630 404 631T391 633Q390 633 389 633T385 634Q347 630 316 609T259 549Q234 512 219 467T199 367Q201 368 203 369T208 372Q209 373 210 373T212 375Q215 377 218 379T226 383Q241 391 263 395T315 400L355 401Q394 400 428 388T493 352Q522 328 537
293T552 211V208V204V200V196Q549 155 535 120T494 53Q468 22 428 7T333 -8H293Q291 -8 289 -8T285 -8Q283 -8 281 -8T276 -8Q230 -8 191 8T120 57Q87 90 71 140T55 259V265V271V276V282V283V283ZM190 204Q190 200 190 197T190 190Q190 187 190 184T191 177Q192
170 193 164T196 151Q201 127 211 105T238 62Q251 46 267 36T303 23Q325 26 342 36T372 63Q386 82 396 103T411 146Q412 150 412 153T413 161Q414 164 414 167T415 175Q416 183 416 189T417 203Q417 238 407 266T377 317Q362 334 345 344T310 358V358V358Q288 354
269 342T231 310Q213 291 203 264T190 203V204Z" />
<glyph unicode="7" glyph-name="seven" horiz-adv-x="599" d="M111 669H552V630Q530 593 508 556T462 480Q451 461 440 442T417 403Q405 383 394 364T371 325Q349 288 328 250T285 173Q274 154 264 135T242 96Q232 76 222 57T201 18Q200 15 199 13T195 8Q194 7
194 6T193 3Q192 2 192 1T190 0H150Q144 0 139 0T128 0Q123 0 119 0T109 0Q105 0 101 0T91 0Q87 0 82 0T71 0L424 589L111 575H71Q72 576 72 578T74 584Q74 587 74 590T76 596Q76 598 76 599T76 602Q76 603 76 604T76 607Q76 609 76 610T77 613Q77 615 77 616T77
619Q77 625 77 631T75 643Q74 649 74 655T71 667V669H111V669Z" />
<glyph unicode="8" glyph-name="eight" horiz-adv-x="599" d="M197 378Q170 382 150 394T114 427Q99 447 92 469T85 516V521V525Q87 553 99 578T135 628Q159 651 196 663T283 675L323 676Q371 675 406 663T466 627Q489 603 501 578T514 523V522V521Q514 496 506
474T483 431Q468 410 446 397T394 376Q433 372 462 358T511 317Q530 292 539 264T550 204Q550 201 550 199T550 194Q550 193 550 192T550 190Q549 188 549 187T549 185Q546 148 531 115T486 52Q458 22 418 8T326 -8H286H280H276Q215 -7 172 8T101 52Q74 81 61 113T47
180V183V185Q47 216 57 246T88 305Q108 334 135 351T197 376V378V378ZM182 189Q185 149 194 120T220 70Q234 53 254 43T301 30Q323 32 339 41T368 67Q382 86 391 107T405 150Q405 153 405 156T407 162Q407 164 407 167T408 173Q408 176 408 178T409 184Q409 186
409 189T409 195Q409 197 409 199T409 203Q408 205 408 207T408 211Q408 213 408 215T408 219Q407 221 407 223T407 227Q404 250 396 272T374 313Q362 330 343 339T297 351Q276 349 260 341T230 318Q215 302 205 284T190 245Q188 238 187 231T184 215Q183 208 183
201T182 188V189ZM213 512Q213 484 220 463T241 424Q253 410 269 402T305 392Q322 395 336 404T360 428Q372 446 378 467T385 510Q385 533 379 555T358 596Q347 612 332 621T296 634Q277 631 263 622T238 596Q225 577 219 556T213 511V512Z" />
<glyph unicode="9" glyph-name="nine" horiz-adv-x="599" d="M47 449Q47 452 47 456T47 465Q47 467 47 469T48 475Q48 477 48 479T49 484Q52 519 65 550T103 610Q127 639 170 653T276 667L316 668Q360 667 392 655T447 620Q470 597 485 572T510 519Q515 503 519
488T524 458Q526 443 527 431T528 407V404V400V395V391Q528 296 509 226T452 108Q413 62 371 34T283 -2Q276 -4 269 -4T255 -6Q248 -7 242 -7T229 -8H189Q181 -8 173 -8T157 -6Q149 -5 142 -4T126 0L94 63H134H158Q168 52 178 46T198 35Q203 33 208 32T218 29Q250
34 279 57T333 121Q358 162 373 207T392 300Q385 293 377 289T360 280Q350 276 340 273T319 268Q309 267 301 267T284 266L244 267Q203 266 168 276T104 309Q76 331 62 365T47 447V449V449ZM182 479Q182 477 182 476T182 473Q182 471 182 470T182 467Q182 464 182
461T183 456Q185 429 191 405T210 357Q220 339 236 329T276 315Q305 319 325 331T360 364Q375 387 383 412T391 466V472V478Q390 507 381 534T355 586Q342 606 325 618T287 634Q271 632 259 626T235 608Q222 594 212 579T196 546Q192 536 190 527T185 509Q184 500
183 492T182 478V479Z" />
<glyph unicode=":" glyph-name="colon" horiz-adv-x="316" d="M79 55Q81 68 86 79T100 98Q109 106 119 110T139 115L179 116H180H182Q194 115 204 112T225 100Q235 92 240 80T245 53Q244 37 238 25T223 5Q214 -1 204 -5T183 -9H143Q132 -9 122 -6T101 5Q91 13
86 25T79 53V55V55ZM79 409Q81 423 86 434T100 452Q109 459 119 462T140 466L180 467H181H183Q194 466 204 462T225 450Q235 442 240 432T245 407Q245 391 240 379T225 359Q215 351 205 347T183 343L143 344Q131 342 120 346T99 358Q89 366 84 378T79 407V409V409Z"
/>
<glyph unicode=";" glyph-name="semicolon" horiz-adv-x="316" d="M63 -173L39 -157L118 79Q120 87 124 94T134 107Q139 112 144 115T156 119L196 120H199H201Q209 119 216 116T231 105Q237 98 240 90T245 72Q245 67 244 62T241 51Q240 45 237 40T229 29L103 -173H63V-173V-173ZM94
402Q96 417 101 428T115 447Q124 455 134 458T155 463L195 464H196H198Q209 462 219 458T240 446Q250 439 255 429T260 407Q260 389 255 376T240 355Q230 347 220 343T198 339L158 340Q146 338 135 342T114 354Q104 362 99 373T94 400V402V402Z" />
<glyph unicode="&lt;" glyph-name="less" horiz-adv-x="646" d="M47 228V291L567 520H607V449L182 260L599 63V-8H559L47 228V228V228Z" />
<glyph unicode="=" glyph-name="equal" horiz-adv-x="646" d="M47 126V197H87H599V126H559H47V126V126ZM87 386H599V315H559H47V386H87V386V386Z" />
<glyph unicode="&gt;" glyph-name="greater" horiz-adv-x="646" d="M472 260L47 449V520H87L607 283V228L87 -8H47V63L472 260V260V260Z" />
<glyph unicode="?" glyph-name="question" horiz-adv-x="426" d="M118 55Q120 68 125 79T141 98Q151 106 161 110T184 115L224 116H225H227Q238 115 248 112T269 100Q279 93 285 81T292 53V52V51V49V47Q292 32 287 22T272 4Q262 -2 252 -5T229 -9H189H187H186Q173
-9 162 -5T139 6Q129 14 124 25T118 53V55V55ZM87 291Q87 311 94 332T114 372Q128 392 143 410T174 446Q189 462 202 477T229 507Q241 522 249 536T260 565V568V570V572V574V578V582Q259 595 253 608T235 634Q227 643 217 648T195 656Q190 655 185 654T174 650Q163
646 151 639T127 620L87 621L71 669Q80 673 90 678T111 687Q122 691 132 694T153 699Q155 699 157 699T163 700Q165 700 167 700T172 701Q174 701 176 701T181 702Q183 702 185 702T190 702L230 703Q258 702 282 694T328 668Q349 651 360 623T371 557Q371 556 371
555T371 551Q370 550 370 549T370 545Q370 544 370 543T370 539Q369 538 369 537T369 533Q366 520 361 507T349 481Q345 475 342 469T335 457Q331 451 328 446T320 436Q313 428 307 421T295 408Q289 402 284 398T276 392L270 387L265 383Q248 366 236 350T215 317Q208
301 204 288T200 262Q200 250 203 241T212 224Q215 220 219 218T228 213Q230 213 232 213T236 215Q238 216 240 216T244 218L284 219L276 181Q274 179 272 178T267 177Q265 176 263 176T259 175Q258 175 257 175T255 175Q253 174 252 174T250 174L210 175Q208 174
206 174T202 174Q178 173 158 181T120 208Q104 225 96 245T87 289V291V291Z" />
<glyph unicode="@" glyph-name="at" horiz-adv-x="843" d="M47 331Q47 345 48 362T54 398Q57 418 63 437T77 477Q94 518 122 556T190 629Q230 664 287 681T417 699L457 700Q524 699 575 686T663 645Q699 618 725 588T766 526Q774 508 780 492T789 458Q792 442
794 427T796 400Q796 389 794 376T788 348Q786 341 784 334T779 319Q776 311 773 304T767 289Q753 259 734 232T688 181Q663 156 633 144T568 132L528 133Q507 132 492 136T465 151Q461 155 457 159T450 168Q444 162 438 158T424 150Q410 143 396 140T366 136L326
137Q299 136 275 146T228 176Q206 196 195 222T184 280Q184 285 184 290T185 300Q185 305 186 310T189 321Q197 358 212 388T248 440Q269 463 291 479T337 504Q345 507 353 510T369 514Q377 516 385 516T401 517L441 518Q457 517 470 514T496 503Q498 502 498 502T500
500L504 512H544H638L568 244Q567 239 567 235T565 228Q564 225 564 222T564 217Q564 209 565 203T571 193Q572 192 572 192T574 190Q575 190 575 190T576 191Q577 191 578 191V191Q586 194 593 199T608 211Q624 225 638 244T666 288Q680 314 686 343T693 407Q693
415 693 422T690 437Q689 445 687 452T682 467Q671 500 649 530T591 589Q560 613 523 626T441 643Q440 643 439 643T435 643Q434 642 433 642T429 642Q422 641 415 641T401 638Q354 628 311 604T228 541Q189 502 170 453T150 344V339V333Q149 274 166 228T219 146Q254
112 292 89T372 53Q377 51 382 50T394 46Q399 45 404 44T415 42Q426 40 436 39T457 37L459 38Q488 39 514 47T562 68Q590 84 611 101T649 138Q654 143 657 148T665 158Q668 163 671 168T677 179L748 181H788L787 178L786 177Q766 139 737 106T670 43Q632 13 580
-1T463 -16H423Q422 -16 421 -16T418 -16Q416 -16 415 -16T412 -16Q409 -16 407 -16T402 -16Q327 -13 264 13T149 89Q98 139 73 195T47 316V320V324V327V330V331V331ZM331 339Q327 325 325 313T321 290Q320 280 319 272T318 255Q318 236 322 223T333 204Q338 200
344 197T357 191Q359 192 361 193T365 195Q367 197 369 198T373 202Q384 211 395 224T417 255Q428 272 436 290T452 328Q454 333 455 337T457 347Q458 351 459 356T461 365Q463 374 464 383T465 401Q465 415 462 426T454 448Q450 453 446 457T435 465Q434 465 433
464H432Q431 463 430 463T428 462Q424 460 420 458T411 452Q406 449 402 446T393 438Q384 430 376 420T359 397Q351 384 344 369T331 337L291 338V339H331V339Z" />
<glyph unicode="A" glyph-name="A" horiz-adv-x="709" d="M8 0L323 701H363H386L694 0H654Q651 0 648 0T640 0Q636 0 633 0T624 0Q622 0 620 0T615 1Q613 1 611 1T606 1Q604 0 602 0T597 0Q595 0 593 0T590 0Q588 0 587 0T583 0H543L433 276H229L127 0H87Q85 0
83 0T78 0L73 1Q72 0 70 0T67 0Q65 0 64 0T60 0H20Q17 0 14 0T8 0V0V0ZM253 323H417L335 519L253 323V323Z" />
<glyph unicode="B" glyph-name="B" horiz-adv-x="654" d="M94 0V685H134H371Q373 683 375 683T380 683Q382 683 384 683T389 683Q421 682 450 675T506 653Q533 640 546 614T560 547V544V541V537V534Q560 504 549 478T517 427Q496 403 469 389T410 368Q445 362
476 351T532 324Q558 308 570 278T583 203Q583 150 566 112T513 50Q479 26 441 14T360 0H320Q319 0 318 0T315 0Q313 0 312 0T309 0Q306 0 304 0T299 0H94V0V0ZM221 39H276Q311 37 338 45T388 71Q409 88 423 106T444 146Q444 148 444 150T446 155Q446 157 446 159T447
163Q448 167 448 171T449 179Q449 229 434 262T386 312Q359 326 318 334T221 343V39V39ZM221 386H244Q288 384 322 392T380 418Q403 435 416 460T433 518V522L434 525V527V530Q434 558 422 580T386 616Q362 630 335 637T276 644L221 646V386V386Z" />
<glyph unicode="C" glyph-name="C" horiz-adv-x="709" d="M39 339Q39 409 64 470T138 585Q188 638 256 664T409 691L449 692Q454 691 459 691T469 691Q474 690 479 690T489 690Q500 689 510 689T532 687Q553 686 573 683T614 674Q634 669 652 662T686 644L662
567H622H614Q596 583 577 596T538 620Q518 630 498 636T457 647Q451 648 445 648T434 650Q433 650 432 650V650Q431 650 431 650T429 650Q383 646 342 626T264 571Q224 531 203 476T182 350V344V338Q184 252 205 191T269 95Q308 62 350 45T438 24Q464 26 489 31T539
47Q565 57 588 70T630 100L670 101L662 39Q655 34 648 30T635 22Q628 18 621 15T607 9Q596 5 586 2T565 -5Q561 -6 558 -7T551 -9Q536 -12 522 -15T494 -20Q480 -22 467 -23T439 -24H399Q326 -24 263 -1T146 71Q92 120 66 186T39 337V339V339Z" />
<glyph unicode="D" glyph-name="D" horiz-adv-x="820" d="M134 693H457Q543 691 602 667T696 594Q730 546 747 490T764 368Q764 352 763 335T758 299Q755 280 751 262T739 224Q724 184 699 147T637 74Q601 40 548 21T426 0H386H94V693H134V693V693ZM229 645V47Q241
45 252 44T275 42Q278 42 280 42T285 42Q288 41 290 41T295 41Q376 43 436 61T533 113Q572 149 594 211T622 360Q622 362 622 364T623 368Q623 370 623 372T623 376Q623 380 623 383T623 391Q623 459 606 506T553 580Q518 607 480 624T399 647Q394 648 389 648T379
649Q373 650 368 650T358 651Q355 651 352 651T347 652Q344 652 341 652T335 652Q332 652 329 652T323 652Q319 652 316 652T310 651Q299 650 289 650T270 648Q263 647 257 647T246 646Q241 645 237 645T229 644V645Z" />
<glyph unicode="E" glyph-name="E" horiz-adv-x="544" d="M87 0V685H127H489Q488 680 487 677T485 670Q485 669 485 668T484 665Q483 663 483 662T483 659V657V653Q483 648 483 645T484 637Q484 635 484 633T486 629Q487 626 487 624T489 620L449 621Q434 623
419 625T387 628Q371 629 355 629T321 630V630V630H320V630Q316 629 313 629T305 629Q301 629 297 629T290 629Q286 629 282 629T272 629Q268 628 264 628T255 628Q246 628 238 628T221 628V386H331L425 394H465Q464 389 463 386T460 379Q459 375 459 372T459 364Q459
362 459 360T459 356Q459 353 459 351T460 347Q461 343 462 339T465 329L425 330L307 339H221V55Q228 53 236 52T253 51Q261 50 269 50T286 50Q291 50 295 50T303 51Q307 51 311 51T320 51Q340 52 359 53T397 55Q415 57 430 58T457 61L497 62Q496 57 495 53T492
43Q491 39 491 35T491 27Q491 23 491 19T492 11Q493 7 494 4T497 0H457H87V0V0Z" />
<glyph unicode="F" glyph-name="F" horiz-adv-x="544" d="M127 685H481Q480 681 480 679T478 674Q477 672 477 670T477 666Q476 663 476 661T475 657Q475 655 475 653T475 648Q475 644 475 640T476 630Q477 626 478 622T481 612L441 613Q437 612 434 612T427 614Q424
614 421 615T415 617Q400 619 385 621T356 625Q341 626 326 628T296 631Q276 633 255 634T213 635V394H323L425 402H465Q464 397 463 394T461 387Q461 386 461 385T460 382Q459 380 459 379T459 376V374V370Q459 365 459 362T460 354Q460 352 460 350T462 346Q463
343 463 341T465 337L425 338L323 346H213V0H173Q169 0 165 0T155 2H154V2V2H153H152Q152 2 151 2Q145 1 139 1T127 0H87V685H127V685V685Z" />
<glyph unicode="G" glyph-name="G" horiz-adv-x="820" d="M55 339Q59 418 78 477T133 574Q168 612 206 638T287 678Q309 686 330 691T373 699Q394 702 413 704T449 707L489 708Q521 707 553 704T619 693Q651 686 683 674T749 644L717 559H677Q672 561 666 565T654
576Q648 582 642 588T627 600Q613 611 595 621T556 640Q539 648 518 652T471 658Q466 658 461 658T449 656Q439 655 429 653T407 648Q370 638 336 617T269 562Q238 529 220 481T197 368V365V361V357V353Q196 279 216 219T276 113Q314 70 362 48T471 22Q491 23 509
25T546 32Q569 37 585 44T614 61V323H654Q656 321 658 321T663 319Q665 318 667 318T671 317Q672 317 672 317T674 317Q675 316 675 316T677 316V316H678V316V316Q683 317 689 318T701 321L741 322V31L738 28L735 27Q730 24 724 22T710 18Q703 15 695 13T678 9Q660
5 642 2T604 -3Q586 -6 570 -8T536 -12Q520 -14 506 -15T481 -16H441Q439 -16 437 -16T432 -16Q430 -16 428 -16T423 -16Q338 -16 271 7T154 79Q105 127 80 191T55 337V339V339Z" />
<glyph unicode="H" glyph-name="H" horiz-adv-x="820" d="M79 0V701H119Q122 699 126 698T134 695Q135 695 136 695T139 694Q140 694 141 694T144 694V694Q145 694 146 694Q147 694 148 694V694Q153 695 157 696T165 699L205 700V409Q219 405 241 403T293 399Q320
398 348 397T406 396Q432 396 456 396T505 398Q534 400 556 402T591 407V701H631Q632 699 633 699T635 698Q635 697 636 697T638 697Q640 696 642 696T646 696Q647 696 648 696T650 695Q651 694 652 694T654 694Q655 694 655 694T657 694Q662 695 667 696T677 699L717
700V0H677Q673 0 669 0T659 2H658V2V2H657H656Q656 2 655 2Q649 1 643 1T631 0H591V346Q584 346 575 346T554 348Q543 348 531 348T504 350Q482 352 458 352T408 353Q403 353 398 353T389 353Q384 352 380 352T370 352Q364 352 358 352T346 352Q339 351 333 351T321
351Q314 351 307 351T292 350Q284 349 277 349T262 348Q247 347 233 347T205 344V0H165Q159 0 155 0T145 2Q139 1 133 1T119 0H79V0V0Z" />
<glyph unicode="I" glyph-name="I" horiz-adv-x="316" d="M134 693Q139 690 143 689T154 686Q155 686 155 686T157 686Q158 686 158 686T160 686Q166 687 171 688T181 691L221 692V0H181Q177 0 172 0T161 2Q160 2 160 2T158 2Q157 2 156 2T154 2Q148 1 144 1T134
0H94V693H134V693V693Z" />
<glyph unicode="J" glyph-name="J" horiz-adv-x="316" d="M150 693Q155 690 159 689T170 686Q171 686 171 686T173 686Q174 686 174 686T176 686Q182 687 187 688T197 691L237 692V47Q237 9 223 -22T180 -80Q152 -107 119 -120T46 -135H6H2H0L-3 -134H-7L-8 -102Q33
-99 58 -83T92 -38Q101 -10 105 24T110 100V693H150V693V693Z" />
<glyph unicode="K" glyph-name="K" horiz-adv-x="654" d="M87 0V693H127Q130 691 134 690T143 687Q144 687 145 687T147 687Q147 686 148 686T150 686V686H151H152V686Q158 687 163 688T173 691L213 692V403Q215 404 216 405T219 408Q221 409 222 410T225 413Q227
415 229 417T234 421Q236 423 238 425T244 431Q248 435 252 439T260 447Q264 451 268 455T276 463L504 693H544Q549 690 553 689T561 687H562V687V687H563Q566 688 569 689T575 691L615 692L308 386L631 16V0H591Q588 0 585 0T579 1Q575 1 572 1T566 2Q565 2 564
2T562 3Q561 3 560 3T558 3Q557 3 556 3T554 3Q553 2 552 2T550 2Q543 1 536 1T520 0H480L244 291Q242 292 240 293T235 298Q233 300 231 302T227 308Q225 310 224 312T220 316Q218 317 217 319T213 323V0H173Q169 0 165 0T155 2H154V2V2H153H152Q152 2 151 2Q145
1 139 1T127 0H87V0V0Z" />
<glyph unicode="L" glyph-name="L" horiz-adv-x="544" d="M87 0V693H127Q131 690 136 689T147 686H148Q148 686 149 686Q150 686 150 686H151Q152 686 152 686T154 686V686Q155 686 156 686Q161 687 165 688T173 691L213 692V55Q220 53 228 52T245 51Q253 50 261
50T278 50Q283 50 287 50T295 51Q299 51 303 51T312 51Q332 52 351 53T389 55Q407 57 422 58T449 61L489 62Q488 58 487 55T486 49Q485 46 485 43T485 38Q485 35 485 32T485 27Q485 24 485 22T487 17Q487 16 487 15T488 11Q488 10 488 9T488 6L489 0H449H87V0V0Z"
/>
<glyph unicode="M" glyph-name="M" horiz-adv-x="930" d="M39 0L134 693H174H205L461 203L724 693H764H796L875 0H835Q829 0 823 0T812 2Q810 2 808 2T803 3L802 2Q802 2 801 2Q800 2 800 2H799Q793 1 787 1T772 0H732L691 454L465 16H425H409L191 445L150 0H110Q107
0 104 0T96 2V2V2Q95 2 95 2T93 2Q92 1 92 1H91Q88 0 85 0T79 0H39V0V0Z" />
<glyph unicode="N" glyph-name="N" horiz-adv-x="820" d="M94 0V693H134H182L622 209V693H662Q664 690 667 689T673 687Q677 688 680 689T685 691L725 692V0H685H646L197 499V0H157Q156 0 155 0T153 0Q151 0 150 0T148 1Q146 1 145 1T141 0Q139 0 138 0T134 0H94V0V0Z" />
<glyph unicode="O" glyph-name="O" horiz-adv-x="875" d="M39 346Q39 350 39 354T39 363Q39 368 39 373T41 383Q47 443 74 498T149 605Q196 656 265 681T425 707L465 708Q557 704 622 683T728 621Q768 581 793 537T830 445Q832 439 833 433T835 422Q836 416 837
410T839 398Q841 386 841 375T843 352V350V347V343V340Q843 256 815 191T728 78Q670 30 605 7T466 -16H426Q424 -16 422 -16T418 -16Q416 -16 414 -16T409 -16Q396 -16 384 -16T358 -13Q345 -12 332 -9T306 -3Q256 8 210 35T122 103Q80 144 60 204T39 344V346V346ZM182
345Q182 267 201 208T261 106Q297 68 342 47T443 23Q494 26 536 47T613 106Q651 148 673 208T701 344Q701 346 701 348T701 352Q701 354 701 356T701 360Q701 425 682 480T623 579Q586 619 540 641T437 666Q388 663 349 646T283 596Q253 560 233 521T200 440Q197
427 194 415T189 391Q187 379 186 367T182 344V345Z" />
<glyph unicode="P" glyph-name="P" horiz-adv-x="599" d="M111 693H363Q413 691 450 681T512 650Q536 630 548 601T560 533V530L561 526V522V518Q561 472 546 439T502 383Q473 361 441 346T374 323Q361 320 349 319T324 315Q312 314 301 314T278 313L238 314Q229
313 221 313T205 314V0H165Q159 0 154 0T143 2H142V2V2H141Q140 2 140 2T138 2Q132 1 126 1T111 0H71V693H111V693V693ZM205 362H260Q296 360 324 371T372 405Q392 428 403 453T418 506Q418 507 418 508T419 510Q419 511 419 512T419 514Q419 516 419 518T419 522Q419
548 411 570T387 613Q371 633 347 643T291 653L331 654H327H324L320 653H280H276L205 654V362V362Z" />
<glyph unicode="Q" glyph-name="Q" horiz-adv-x="875" d="M39 354Q42 439 71 504T157 615Q213 661 278 684T417 707L457 708Q546 707 614 683T732 609Q780 560 806 496T835 352Q835 293 819 239T770 136Q738 87 689 53T575 0L796 -165Q794 -166 792 -167T788 -169Q786
-169 784 -170T780 -172Q778 -173 777 -174T773 -176Q772 -176 771 -177T767 -179Q761 -182 755 -185T744 -191Q739 -194 734 -198T724 -206L720 -209L717 -213H677L459 -18Q458 -18 458 -18H457Q456 -18 456 -18T454 -18H414Q323 -18 254 7T138 85Q92 138 68 195T40
316Q39 318 39 320T39 325Q39 327 39 329T39 335V340V345V349V353V354V354ZM182 353Q182 267 200 204T254 101Q287 64 332 45T436 23Q500 26 546 50T622 120Q654 170 669 224T685 337Q685 350 685 364T682 395Q681 411 679 427T673 459Q665 497 647 531T602 596Q577
626 536 642T438 659Q383 657 339 634T259 568Q223 522 204 468T182 352V353Z" />
<glyph unicode="R" glyph-name="R" horiz-adv-x="654" d="M87 0V693H127H371Q421 691 458 679T520 644Q544 620 556 591T568 526Q568 492 559 465T529 417Q510 397 489 382T444 358Q433 354 423 350T401 344Q391 341 381 340T363 337L631 0H591Q587 0 584 0T576
1Q572 1 569 1T562 3Q559 3 557 3T552 3Q551 3 550 3T547 3Q546 2 545 2T542 2Q535 1 528 1T512 0H472L221 321V0H181Q178 0 175 0T169 1Q168 1 167 1T164 2Q162 2 161 2T158 3Q157 3 156 3H155Q154 2 153 2T151 2Q145 1 139 1T127 0H87V0V0ZM221 370Q223 368 226
368T232 367Q270 368 300 374T350 392Q373 405 388 419T413 450Q420 461 424 472T430 494Q432 505 432 513T433 526Q433 531 432 537T429 551Q428 559 424 567T415 584Q408 597 395 609T365 631Q348 642 324 647T268 652L221 654V370V370V370Z" />
<glyph unicode="S" glyph-name="S" horiz-adv-x="544" d="M55 535Q61 578 79 609T125 661Q154 681 184 692T247 707Q250 707 253 707T259 707Q261 707 262 707T266 708Q267 708 269 708T272 708L312 709Q337 708 360 704T405 692Q426 685 441 675T465 652Q459
646 455 640T448 625Q445 617 442 607T436 584L435 580L434 574H394L378 575Q377 577 376 580T372 588Q370 593 368 597T362 606Q355 616 345 625T320 642Q310 648 299 652T275 657Q258 655 243 646T213 623Q195 605 187 584T178 540Q178 538 178 536T178 531Q178
530 178 529T179 527Q179 526 179 525T179 523Q181 510 187 497T204 469Q215 456 230 445T268 423L379 378Q409 364 431 346T466 306Q480 284 486 261T493 213Q493 210 493 208T493 203Q493 202 493 201T493 199Q492 197 492 196T492 194Q488 154 470 118T418 49Q385
16 345 0T254 -16H214H209H205Q203 -16 201 -16T197 -16Q195 -15 193 -15T189 -15Q187 -15 185 -15T181 -14Q178 -14 176 -14T172 -13Q153 -10 135 -5T98 8Q80 16 67 24T42 42L40 44L39 46Q43 55 46 64T50 80Q51 84 51 87T52 95Q53 98 53 101T54 109Q54 111 54
112T55 116Q55 118 55 120T55 124Q55 128 55 132T55 140L71 142H111Q137 102 159 79T201 50Q215 46 227 43T249 38Q275 41 294 51T328 78Q345 99 353 122T363 170Q363 190 358 208T341 245Q331 263 315 276T276 297L173 346Q129 365 104 387T70 433Q63 457 59 482T55
533V535V535Z" />
<glyph unicode="T" glyph-name="T" horiz-adv-x="599" d="M236 0V643Q235 642 234 642T232 642Q231 641 230 641T228 641Q213 640 198 639T166 635Q160 634 155 634T144 632Q139 631 134 631T123 630Q113 629 104 628T85 624Q76 623 69 622T56 620L16 621Q17 622
17 624T19 629Q19 631 19 633T21 638Q21 640 21 642T21 646Q21 647 21 648T22 651Q22 652 22 653T22 655Q22 660 22 664T20 673Q19 678 19 682T16 691L543 693H583Q582 689 582 687T580 682Q579 680 579 678T579 674Q578 671 578 669T577 665Q577 663 577 661T577
656Q577 652 577 648T578 638Q579 634 580 630T583 620L543 621Q508 626 475 630T412 638Q398 640 386 640T363 642V0H323Q321 0 319 0T314 1Q311 1 309 1T304 2V2H303H302V2V2Q301 2 300 2Q294 1 288 1T276 0H236V0V0Z" />
<glyph unicode="U" glyph-name="U" horiz-adv-x="820" d="M87 268V693H127Q134 690 140 689T153 686Q156 686 159 686T165 687Q169 688 173 689T181 691L221 692V283Q221 213 235 165T280 87Q307 61 341 47T415 30Q465 32 501 48T560 92Q584 124 597 169T614 274V693H654Q656
691 657 691T660 689Q661 688 662 688T665 687Q667 687 668 687T671 689Q673 690 674 690T677 691L717 692V291Q717 221 701 166T651 68Q618 25 562 5T426 -16H386Q384 -16 382 -16T377 -16Q375 -16 373 -16T368 -16Q285 -16 229 5T144 69Q116 113 102 162T87 266V268V268Z"
/>
<glyph unicode="V" glyph-name="V" horiz-adv-x="709" d="M56 685Q63 682 69 681T83 678Q85 678 86 678T88 678Q90 678 91 678T94 678Q100 679 106 680T118 683L158 684L377 159Q384 170 390 183T404 213Q418 244 432 277T462 348Q467 360 471 372T481 398Q483
404 485 410T491 423Q493 429 495 435T500 448Q512 480 523 510T545 572Q556 602 565 630T583 683L623 684Q626 682 629 681T636 679Q637 679 637 679T639 679Q640 678 640 678T642 678V678V678Q644 678 646 678T652 680Q654 681 656 681T661 683L701 684L410 0H370Q369
0 368 0T367 1Q366 1 365 1T363 2Q361 3 359 3T354 4L394 5Q393 4 392 4T389 3Q387 3 386 3T383 2Q380 1 377 1T371 0H331L16 685H56V685V685Z" />
<glyph unicode="W" glyph-name="W" horiz-adv-x="1040" d="M220 0L0 685H40Q47 682 53 681T66 678V678Q67 678 68 678Q69 678 70 678V678V678Q71 678 72 678Q73 678 74 678V678Q80 679 87 680T102 683L142 684L297 172L472 685H512Q514 683 515 683T518 681Q519
680 520 680T523 679Q525 679 526 679T529 681Q531 682 532 682T535 683L575 684L744 179L906 685H946Q948 683 950 682T954 680Q956 679 958 679T963 679V679V679Q965 679 966 679T970 681Q971 682 973 682T976 683L1016 684L780 0H740Q736 0 733 0T725 2Q723
2 721 2T717 1Q715 0 713 0T709 0H669L508 506L339 0H299Q296 0 293 0T285 2V2H284V2V2Q278 1 272 1T260 0H220V0V0Z" />
<glyph unicode="X" glyph-name="X" horiz-adv-x="654" d="M268 346L55 685H95Q101 682 107 681T121 678Q122 678 123 678T125 678Q126 678 127 678T129 677Q130 677 131 677T134 678Q135 678 136 678T138 678Q146 679 152 680T165 683L205 684L343 457L488 685H528Q532
683 535 682T541 679Q546 680 550 681T559 683L599 684L386 378L623 0H583Q576 0 569 0T553 2Q552 2 551 2T549 3Q547 3 546 3T544 3Q543 3 542 3T540 3Q538 2 537 2T535 2Q528 1 521 1T505 0H465L311 272L158 0H118H113L109 2Q108 1 107 1T104 2Q103 2 102 2T99
2V2V2H98V2Q92 1 86 1T71 0H31L268 346V346V346Z" />
<glyph unicode="Y" glyph-name="Y" horiz-adv-x="654" d="M260 291L16 685H56Q64 682 72 681T88 678Q90 678 91 678T94 678V678H95H96V678Q101 678 105 678T114 679Q119 680 124 681T134 683L174 684L343 390L504 685H544Q549 682 554 681T565 678Q566 678 567
678T570 678Q571 678 572 678T575 679Q579 680 583 681T591 683L631 684Q625 675 620 667T609 651Q603 643 598 635T587 619Q581 611 576 603T565 586Q559 578 554 570T543 553Q521 520 501 488T461 424Q442 392 425 362T394 305V0H354Q348 0 343 0T332 2V2H331H330V2Q329
2 329 2T327 2Q321 1 315 1T300 0H260V291V291V291Z" />
<glyph unicode="Z" glyph-name="Z" horiz-adv-x="654" d="M95 685H631V661Q578 588 524 515T416 367Q362 292 306 212T190 45Q240 45 289 46T386 48Q442 50 491 55T583 69L623 70Q622 63 621 58T618 48Q617 44 617 40T617 31V26L618 21Q618 19 618 18T618 15Q618
13 618 12T619 9Q620 6 621 4T623 0H583H16V31L448 637Q403 635 361 634T277 631Q252 630 229 629T182 626Q159 624 138 623T95 620L55 621Q56 623 56 626T58 632Q59 635 59 638T61 644V648V652Q61 655 61 658T59 666Q58 670 58 674T55 683V685H95V685Z" />
<glyph unicode="[" glyph-name="bracketleft" horiz-adv-x="371" d="M134 -118V748H174H339V717H237V-87H339V-118H299H134V-118V-118Z" />
<glyph unicode="\" glyph-name="backslash" horiz-adv-x="544" d="M402 0L24 748H64Q66 746 68 745T74 743Q75 743 76 743T78 742H79Q80 741 81 741Q85 742 88 743T94 746L134 747L512 0H472Q470 0 468 0T463 1Q462 1 462 1H461Q460 1 460 1T458 2Q456 2 454 2T450
1Q448 0 446 0T442 0H402V0V0Z" />
<glyph unicode="]" glyph-name="bracketright" horiz-adv-x="371" d="M31 -79H134V717H31V748H71H237V-110H197H31V-79V-79V-79Z" />
<glyph unicode="^" glyph-name="asciicircum" horiz-adv-x="646" d="M39 276L268 685H308H371L599 276H559H480L319 562L158 276H118H39V276V276Z" />
<glyph unicode="_" glyph-name="underscore" horiz-adv-x="544" d="M40 -110H536V-157H496H0V-110H40V-110V-110Z" />
<glyph unicode="`" glyph-name="grave" horiz-adv-x="371" d="M197 535L39 638Q36 639 33 640T28 644Q26 646 25 648T21 652Q20 654 19 655T17 659Q16 661 16 663T16 667Q15 674 18 680T28 690Q34 695 41 697T57 701L97 702H98H100Q104 701 107 701T115 698Q118
697 121 695T127 691L284 535H244H197V535V535Z" />
<glyph unicode="a" glyph-name="a" horiz-adv-x="544" d="M47 110Q47 132 54 152T75 189Q89 206 113 219T173 242L299 268Q310 269 318 273T332 285Q337 293 339 302T342 321Q342 323 342 324T342 328Q341 330 341 332T341 336Q340 340 340 344T337 352Q332 368
322 383T298 411Q287 422 274 429T244 438Q237 437 231 435T219 431Q210 427 201 422T183 410Q178 406 173 401T163 391Q158 386 153 380T142 368L102 369L87 370V425Q89 425 92 426T98 429Q101 431 104 433T110 437Q124 445 139 451T173 465Q191 471 210 474T252
478L292 479Q336 478 369 469T423 440Q444 421 454 389T465 313V63Q465 53 466 48T472 39Q473 39 473 39T475 38Q475 37 475 37T477 36H478Q478 36 479 37H480V37L520 38V16Q515 10 510 7T498 1Q495 0 492 0T486 -1Q482 -2 479 -2T473 -3L468 -4H428H423Q408 -4
394 -1T368 10Q362 14 357 18T348 28Q333 17 319 9T290 -3Q273 -9 257 -12T225 -15H185Q155 -15 131 -7T86 19Q67 37 57 59T47 108V110V110ZM339 102V231Q299 224 270 216T220 197Q196 184 184 165T171 120Q171 116 171 113T172 106Q172 103 172 100T174 92L175
87L178 82Q183 72 190 64T210 48Q218 43 226 40T245 35Q247 35 248 35T251 36Q252 36 253 36T256 37Q264 39 272 42T288 51Q294 55 300 60T314 71Q317 74 320 77T327 84Q330 88 333 92T339 100V102V102Z" />
<glyph unicode="b" glyph-name="b" horiz-adv-x="599" d="M63 0V748H103Q108 745 112 744T123 741Q124 741 124 741T126 741Q127 741 127 741T129 741Q135 742 140 743T150 746L190 747V427Q197 432 205 437T221 448Q245 463 270 470T323 478L363 479Q414 478
452 460T517 405Q543 368 556 328T570 242V237V231Q568 185 553 145T511 66Q483 29 442 9T347 -16H307Q286 -16 266 -12T225 0Q210 7 197 15T169 35L127 0H87H63V0V0ZM190 228Q189 223 189 220T189 214Q189 211 189 208T189 203Q189 202 189 201V200Q189 199 189
198T189 196V191Q191 159 199 130T224 74Q238 52 257 40T301 23Q325 27 346 40T387 75Q410 101 421 141T433 234Q433 271 426 304T403 369Q390 396 369 411T318 430Q293 427 272 412T231 370Q210 339 200 303T190 226L150 227V228H190V228Z" />
<glyph unicode="c" glyph-name="c" horiz-adv-x="544" d="M39 228Q39 283 55 328T105 408Q138 443 188 460T307 478L347 479Q365 478 380 477T409 472Q421 469 433 466T457 458Q459 457 461 456T467 454Q469 452 471 451T476 449Q481 446 486 444T497 439L481
370H441H425Q413 386 400 399T370 421Q357 428 343 432T312 438Q281 434 257 419T214 375Q194 344 184 309T174 235Q174 196 184 161T216 93Q235 65 262 49T327 30Q343 32 357 35T383 44Q399 52 414 63T444 87L446 91L449 93H489L497 87L489 39Q473 25 454 15T415
0Q394 -5 373 -8T331 -12H291H288H285Q239 -11 197 3T116 47Q77 76 58 118T39 216V219V222V224V227V228V228Z" />
<glyph unicode="d" glyph-name="d" horiz-adv-x="599" d="M31 213Q31 277 45 327T88 413Q117 449 158 467T252 486L292 487Q293 486 294 486T297 486Q298 485 299 485T302 485Q304 485 306 485T312 485Q332 482 351 476T389 460Q391 459 392 458T396 456Q397 455
399 454T402 452V756H442Q447 753 452 752T463 749V749H464V749V749V749H465V749V749Q470 750 476 751T488 754L528 755V0H488Q484 0 480 0T470 2V2H469H468V2V2Q467 2 466 2Q460 1 454 1T442 0H402V42Q396 35 390 30T376 21Q358 10 341 4T306 -6Q304 -6 302 -6T298
-7Q296 -7 295 -7T291 -7Q289 -7 287 -7T284 -8Q282 -8 281 -8T277 -8H237Q197 -8 161 6T93 52Q62 84 47 121T31 202V207V212V213V213ZM166 228Q166 188 171 159T188 110Q199 90 212 76T238 53Q242 51 245 49T253 45Q256 43 259 42T267 40Q272 39 275 39T282 38Q304
42 323 54T360 87Q381 113 391 149T402 234Q402 242 402 252T400 272Q399 283 398 294T394 317Q389 340 380 361T356 401Q345 417 328 426T289 438Q262 434 242 424T209 396Q196 377 187 356T173 311Q170 299 169 288T167 266Q166 255 166 246T166 227V228Z" />
<glyph unicode="e" glyph-name="e" horiz-adv-x="544" d="M31 220Q31 284 47 332T98 413Q132 445 172 461T260 478L300 479Q342 478 375 468T430 437Q453 416 469 394T494 346Q497 336 500 326T504 304Q506 294 507 285T508 267Q508 264 508 262T508 257Q507 255
507 253T507 249Q507 245 507 241T505 234L465 235L166 236Q166 190 175 154T202 91Q218 67 247 54T316 38Q332 39 347 43T378 54Q398 62 413 73T441 100L481 101L489 47L487 44L485 43L479 39L473 35Q457 24 441 15T406 0Q388 -8 364 -12T308 -16H268Q206 -13
162 5T90 59Q63 94 49 134T31 218V220V220ZM386 276Q386 277 386 279T386 285Q386 287 386 288T386 291Q385 292 385 293T385 296Q384 323 377 347T355 394Q344 413 326 424T281 438Q262 435 246 426T216 402Q200 383 189 363T172 320Q171 314 170 308T167 296Q166
290 166 285T166 274L386 276V276V276Z" />
<glyph unicode="f" glyph-name="f" horiz-adv-x="316" d="M87 0V433H16Q17 432 17 433T19 437Q20 439 20 441T22 446V449V451Q22 452 22 453T21 456Q21 457 21 458T20 461Q19 464 19 466T16 470L87 472Q98 550 116 604T161 688Q188 718 217 733T277 749L317 750Q319
749 321 749T325 749Q326 748 328 748T332 748Q336 748 339 748T347 746Q344 734 342 724T340 704Q339 694 339 685T339 667L331 661H291Q285 662 279 664T267 670Q264 671 261 671T255 673Q239 670 228 663T211 643Q203 627 199 609T195 571Q195 570 195 569V568Q195
567 195 566T195 564Q195 563 195 562V561Q195 560 195 559T195 557Q195 550 195 543T197 529Q198 522 199 515T201 502Q201 498 201 494T203 485Q203 481 203 477T205 470L276 472H316Q315 470 315 469T313 468Q312 467 312 466T311 464Q310 462 310 460T310 455Q310
452 310 449T311 443Q312 440 313 437T316 431L276 432L205 433V0H165Q161 0 157 0T149 2Q144 1 139 1T127 0H87V0V0Z" />
<glyph unicode="g" glyph-name="g" horiz-adv-x="544" d="M47 346Q52 379 66 403T103 442Q126 457 150 465T201 477Q203 477 204 477T208 477Q209 477 211 477T214 477Q216 477 217 477T221 478Q222 478 224 478T228 478L268 479Q291 478 306 478T331 476Q340
475 347 475T358 473H360H362Q366 471 370 471T381 469Q387 468 396 468T419 468Q430 468 443 468T472 470L512 471V433H472L398 438Q412 427 423 414T444 383Q455 364 460 345T465 305Q461 265 448 238T414 196Q393 181 371 172T324 160Q315 159 306 158T288 157Q284
157 280 157T270 157Q266 156 262 156T254 156Q241 156 229 156T207 153Q197 152 191 149T182 140Q180 136 179 133T176 126Q175 122 175 119T175 114Q174 99 183 89T210 74Q228 69 247 66T288 62V62V62Q291 62 294 62T302 62Q306 62 310 62T318 63Q322 63 325
63T332 63L372 64Q379 63 384 63T394 61Q423 55 445 45T483 21Q498 7 507 -15T520 -71V-73V-76V-78V-81Q520 -86 520 -90T518 -99Q518 -101 518 -103T517 -109Q516 -111 516 -113T515 -118Q506 -146 486 -171T434 -221Q403 -244 361 -256T268 -268H228Q184 -268
148 -258T85 -226Q58 -205 45 -180T31 -126Q31 -96 37 -74T56 -35Q68 -19 87 -9T134 6Q119 12 107 19T87 36Q79 45 75 57T71 85Q71 97 73 107T79 124Q83 132 89 138T103 152Q107 155 111 158T120 164Q125 167 130 171T142 179Q109 189 90 203T62 236Q55 255 51
274T47 314Q47 316 47 318T47 323Q47 325 47 327T47 331V338V339Q47 340 47 341V342Q47 343 47 344V346V346ZM134 -110Q134 -115 134 -119T136 -129Q137 -134 138 -139T142 -149Q148 -163 160 -176T188 -203Q202 -213 220 -219T260 -227Q261 -227 262 -227T265
-227Q266 -226 267 -226T269 -226Q275 -225 282 -225T296 -222Q316 -217 334 -208T369 -187Q386 -174 394 -157T402 -118Q402 -115 402 -113T402 -108Q402 -106 402 -104T402 -99Q401 -80 394 -63T374 -31Q363 -18 340 -10T280 0Q254 -2 231 -6T187 -20Q163 -30
150 -52T134 -110V-110V-110ZM166 307Q166 279 173 258T196 219Q209 205 224 198T257 188Q272 191 286 199T314 221Q330 238 338 260T346 313Q346 345 338 370T314 412Q302 425 289 433T259 445Q242 441 229 435T206 417Q194 404 187 390T174 361Q171 354 170 347T167
331Q166 325 166 321T166 312Q166 310 166 309T166 306V307Z" />
<glyph unicode="h" glyph-name="h" horiz-adv-x="599" d="M71 0V764H111Q112 762 113 762T115 761Q115 760 116 760T118 760Q120 759 122 759T126 759Q127 759 128 759T130 758Q131 757 132 757T134 757Q135 757 135 757T137 757Q142 758 147 759T157 762L197
763V448Q205 454 213 460T232 473Q249 484 275 489T339 494L379 495Q411 494 438 481T486 442Q507 416 517 384T528 313V0H488Q482 0 477 0T466 2V2H465Q466 2 466 2H465V2V2Q462 2 459 2T454 1Q451 0 448 0T442 0H402V307Q402 338 393 362T366 403Q352 416 338
424T306 435Q287 431 269 420T234 392Q215 373 206 343T197 274V0H157Q153 0 149 0T139 2H138V2V2H137H136Q136 2 135 2Q129 1 123 1T111 0H71V0V0Z" />
<glyph unicode="i" glyph-name="i" horiz-adv-x="316" d="M87 0V488H127Q128 486 129 486T131 485Q131 484 132 484T134 484Q136 483 138 483T142 483Q143 483 144 483T146 482Q147 481 148 481T150 481Q151 481 151 481T153 481Q158 482 163 483T173 486L213
487V0H173Q169 0 165 0T155 2H154V2V2H153H152Q152 2 151 2Q145 1 139 1T127 0H87V0V0ZM79 661Q79 674 83 684T95 701Q103 708 112 711T131 715L171 716Q182 715 192 712T211 701Q220 694 224 684T229 659Q228 645 223 635T209 617Q201 610 192 607T173 603L133
604Q123 603 114 606T96 617Q87 625 83 635T79 659V661V661Z" />
<glyph unicode="j" glyph-name="j" horiz-adv-x="316" d="M102 -39V480H142Q147 477 151 476T161 473V473V473V473H162V473V473Q164 473 166 473T172 475Q174 476 176 476T181 478L221 479V-71Q221 -110 209 -143T174 -203Q151 -229 125 -242T70 -256H30Q28 -256
26 -256T23 -256Q21 -255 19 -255T15 -255Q11 -254 8 -254T0 -252V-220H40V-220V-220Q50 -216 59 -206T77 -180Q89 -158 95 -123T102 -39V-39V-39ZM87 661Q89 671 93 679T106 695Q114 701 123 704T142 708L182 709H183H185Q194 707 202 704T218 693Q226 686 231
676T237 652Q234 639 229 629T216 612Q208 605 200 602T182 599L142 600Q132 599 122 603T104 615Q95 623 91 634T87 659V661V661Z" />
<glyph unicode="k" glyph-name="k" horiz-adv-x="544" d="M71 0V772H111Q114 770 118 769T127 766Q128 766 129 766T131 766Q131 765 132 765T134 765V765H135H136V765Q142 766 147 767T157 770L197 771V295Q201 296 205 299T213 307Q230 322 249 340T288 379Q290
381 292 383T296 389Q298 391 300 393T306 399Q312 405 317 411T328 423Q333 428 338 434T349 446Q360 457 369 467T386 486L426 487Q429 485 432 484T439 482Q440 482 440 482T442 482Q443 481 443 481T445 481V481V481Q450 482 455 483T465 486L505 487V480L292
283L520 16V0H480Q477 0 474 0T468 1Q467 1 466 1T463 2Q461 2 460 2T457 3Q456 3 455 3H454Q453 2 452 2T450 2Q444 1 438 1T426 0H386Q378 7 371 15T355 32Q348 41 341 50T325 68Q297 101 273 131T226 189Q218 200 211 208T197 223V0H157Q153 0 149 0T139 2H138V2V2H137H136Q136
2 135 2Q129 1 123 1T111 0H71V0V0Z" />
<glyph unicode="l" glyph-name="l" horiz-adv-x="316" d="M94 0V772H134Q140 769 145 768T156 765V765H157V765V765V765H158V765V765Q163 766 169 767T181 770L221 771V0H181Q179 0 177 0T172 1Q169 1 167 1T162 2V2H161H160V2V2Q159 2 158 2Q152 1 146 1T134 0H94V0V0Z" />
<glyph unicode="m" glyph-name="m" horiz-adv-x="875" d="M63 0V488H103L109 485L115 484Q116 483 116 483T118 482V482Q119 481 120 481Q125 482 130 483T142 486L182 487V454Q188 458 194 462T207 471Q224 482 243 488T283 494L323 495Q349 494 369 491T404
483Q419 478 433 467T460 438Q462 435 464 432T468 426Q478 440 489 451T515 469Q537 481 559 487T606 494L646 495Q684 494 713 483T765 449Q787 427 799 403T813 351V348V344V340V337L812 333V330V0H772Q770 0 768 0T763 1Q760 1 758 1T753 2H752V2V2H751H750Q750
2 749 2Q743 1 737 1T725 0H685V323Q685 348 676 369T650 406Q637 417 623 424T593 435Q578 432 564 425T536 404Q519 388 509 364T497 305V0H457Q455 0 453 0T448 1Q445 1 443 1T438 2V2H437Q438 2 438 2H437V2V2Q432 1 428 1T418 0H378V323Q378 347 369 367T342
402Q328 414 313 421T281 432Q267 429 253 422T226 404Q209 389 200 365T190 305V0H150Q148 0 146 0T141 1Q138 1 136 1T131 2H130V2V2H129H128Q128 2 127 2Q121 1 115 1T103 0H63V0V0Z" />
<glyph unicode="n" glyph-name="n" horiz-adv-x="599" d="M79 0V488H119Q122 486 126 485T135 482Q136 482 137 482T139 482Q139 481 140 481T142 481V481H143H144V481Q150 482 155 483T165 486L205 487V448Q214 455 224 462T248 476Q264 485 285 489T331 494L371
495H372H374Q403 493 429 481T480 446Q504 423 516 384T528 289V0H488Q486 0 484 0T480 1Q477 1 475 1T471 2V2H470V2V2H469V2Q463 1 457 1T442 0H402V291Q402 325 393 351T367 396Q354 410 339 418T308 430Q290 426 274 416T242 389Q223 370 214 341T205 274V0H165Q159
0 154 0T143 2V2H142Q143 2 142 2V2V2V2Q139 2 136 2T131 1Q128 0 125 0T119 0H79V0V0Z" />
<glyph unicode="o" glyph-name="o" horiz-adv-x="599" d="M24 220Q24 278 41 326T94 411Q129 449 176 467T283 486L323 487Q367 486 401 475T461 443Q485 422 503 399T533 350Q541 333 546 317T554 284Q557 268 558 256T560 234Q560 225 560 216T557 196Q556 186
554 177T548 157Q538 126 519 97T472 42Q444 17 405 5T315 -8H275Q273 -8 271 -8T267 -8Q266 -8 265 -8H264Q263 -8 262 -8T260 -8Q204 -8 161 8T86 57Q55 90 40 130T24 218V220V220ZM158 213Q158 205 159 195T161 173Q163 161 166 149T175 122Q182 104 193 87T220
55Q233 42 250 35T290 24Q316 28 337 40T376 75Q397 101 409 141T425 234Q425 281 416 319T389 388Q373 414 350 428T296 446Q266 442 242 427T201 384Q181 353 170 319T157 246Q157 244 157 242T157 238V233Q157 231 157 230T157 227Q157 225 157 224T157 221Q157
218 157 216T158 211L118 212V213H158V213Z" />
<glyph unicode="p" glyph-name="p" horiz-adv-x="599" d="M103 480Q108 477 112 476T122 473V473V473V473H123V473V473Q125 473 127 473T133 475Q135 476 137 476T142 478L182 479V443Q186 445 190 448T198 454Q216 466 235 473T275 484Q277 484 279 484T283 485Q285
485 287 485T291 485Q293 485 295 485T299 486Q301 486 303 486T307 486L347 487Q391 486 428 472T494 428Q523 399 537 351T552 234Q552 188 540 147T501 67Q476 29 437 11T345 -8H305H301H298H294H291Q259 -8 235 -2T193 20Q192 21 191 22T188 25Q186 26 185
27T182 30V-260H142Q140 -259 138 -259T133 -257Q130 -256 128 -256T123 -255V-255H122Q123 -255 122 -255V-255V-255V-255Q117 -256 113 -257T103 -260H63V480H103V480V480ZM182 251V247V243Q182 234 182 224T183 201Q183 188 185 176T191 149Q196 130 205 113T229
79Q242 63 262 53T310 38Q332 42 350 54T382 87Q399 113 408 149T417 234Q417 238 417 241T417 249Q417 251 417 253T417 257Q416 259 416 261T416 265Q415 299 408 330T388 390Q377 415 358 429T310 446Q288 444 270 433T235 402Q217 380 204 342T182 250V251Z"
/>
<glyph unicode="q" glyph-name="q" horiz-adv-x="599" d="M31 236Q34 297 48 342T89 418Q115 448 152 463T236 478L276 479Q305 478 328 472T371 452Q380 446 387 440T402 427V480H442Q445 478 449 477T458 474Q459 474 460 474T462 474Q462 473 463 473T465 473H466V473V473H467Q473
474 478 475T488 478L528 479V-268H488Q484 -267 480 -266T470 -263V-263H469H468V-263V-263Q467 -263 466 -263Q460 -264 454 -265T442 -268H402V21Q395 14 387 9T368 0Q351 -8 328 -12T276 -16H236H234H233Q195 -15 161 -1T94 42Q63 71 47 119T31 234V236V236ZM158
235Q158 225 158 216T160 196Q161 191 162 186T164 175Q165 169 166 164T169 153Q175 129 186 108T213 67Q225 51 242 42T280 30Q306 33 325 44T358 75Q374 98 384 123T398 177Q399 183 399 189T401 201Q401 204 401 207T402 214Q402 217 402 220T402 226Q402 234
402 244T399 268Q398 282 396 295T388 323Q381 345 370 365T344 403Q331 418 314 426T273 438Q247 434 227 421T191 383Q174 355 166 324T157 257V252V247V241L158 235V235Z" />
<glyph unicode="r" glyph-name="r" horiz-adv-x="371" d="M79 0V480H119Q122 478 125 477T132 474Q133 474 133 474T135 474Q136 473 136 473T138 473V473V473Q140 473 142 473T148 475Q150 476 152 476T157 478L197 479V441Q199 442 201 444T206 449Q208 451
210 453T216 457Q234 472 254 479T299 487L339 488Q341 487 343 487T347 487Q348 487 349 487T351 487Q352 486 353 486T355 486L347 394H307Q300 396 293 399T278 403Q277 403 276 403T274 404Q272 404 271 404T269 405Q259 402 250 396T234 381Q223 368 216 353T203
322Q202 316 201 311T198 300Q197 295 197 291T197 281V0H157Q154 0 151 0T143 1Q142 1 142 1T141 2Q140 2 140 2T138 2V2V2Q133 1 129 1T119 0H79V0V0Z" />
<glyph unicode="s" glyph-name="s" horiz-adv-x="426" d="M47 339Q47 377 60 406T100 453Q127 471 156 480T218 490L258 491Q266 490 273 490T288 488Q295 487 302 486T317 483Q331 479 344 474T371 463L347 386H307H291Q287 400 279 411T258 431Q249 436 240
440T222 446Q213 445 205 441T189 432Q176 424 169 412T158 384L157 381V377L156 372V368Q156 349 163 335T186 312Q201 303 218 295T254 281Q256 280 257 280T261 279Q262 278 264 278T268 276Q272 275 275 274T283 272Q285 271 287 270T291 268Q293 267 295 267T300
266Q327 256 346 243T377 213Q389 197 395 180T402 146V144V141Q401 112 387 86T347 37Q322 14 291 3T221 -8H181Q160 -8 141 -6T101 0Q82 2 67 9T39 29L63 102H103H119Q127 87 135 76T153 57Q162 49 171 43T191 34Q193 33 194 33T198 32Q199 31 201 31T204 29Q217
32 228 37T250 52Q264 65 272 79T283 108V113V117Q281 139 272 154T247 178Q231 186 214 192T178 205L174 207L169 208Q167 208 165 208T160 210Q158 210 156 210T151 212Q149 213 147 213T143 215Q140 216 138 216T134 218Q116 224 101 234T73 257Q60 271 54 290T47
337V339V339Z" />
<glyph unicode="t" glyph-name="t" horiz-adv-x="316" d="M63 118V441H0Q2 441 2 442T4 446Q5 448 5 450T6 455Q6 457 6 460T4 466Q3 469 3 472T0 478L63 480V575L142 606H182V480H292Q291 476 290 473T287 468Q286 466 286 464T286 459Q286 457 286 455T287 450Q287
449 287 448T289 445Q290 443 290 442T292 439L252 440L182 441V181Q182 173 182 167T182 152Q182 145 182 138T184 124Q186 105 190 88T201 55Q206 44 214 37T235 25Q236 26 236 26T238 26Q245 28 252 30T268 37L308 38V8Q295 1 282 -2T257 -8Q245 -11 235 -12T214
-14H174Q146 -14 126 -6T91 20Q77 37 70 61T63 116V118V118Z" />
<glyph unicode="u" glyph-name="u" horiz-adv-x="599" d="M63 173V480H103Q108 477 112 476T123 473Q124 473 124 473T126 473Q127 473 127 473T129 473Q135 474 140 475T150 478L190 479V197Q190 165 197 137T217 85Q228 66 244 54T283 38Q309 41 327 51T357
78Q369 96 376 116T385 158Q385 159 385 160T386 163Q386 164 386 165T386 168Q386 170 386 171T386 174Q386 175 386 176T386 179V480H426Q427 478 428 478T430 477Q430 476 431 476T433 476Q435 475 437 475T441 475Q442 475 443 475T445 474Q446 473 447 473T449
473Q450 473 450 473T452 473Q457 474 462 475T472 478L512 479V0H472Q468 0 464 0T454 2V2H453H452V2V2Q451 2 450 2Q444 1 438 1T426 0H386V22Q379 16 372 12T357 6Q335 0 311 -4T260 -8H220Q182 -8 155 0T111 25Q95 42 85 60T70 100Q69 105 68 109T66 119Q65
123 65 128T64 137Q63 146 63 155T63 171V173V173Z" />
<glyph unicode="v" glyph-name="v" horiz-adv-x="544" d="M48 480H150Q155 461 161 441T175 399Q179 388 183 377T191 355Q195 343 199 332T208 310Q212 300 215 290T223 270Q227 260 231 250T239 231Q247 212 255 194T271 159Q273 154 275 150T280 140Q281 142
282 144T284 148Q285 151 286 153T288 158Q296 175 304 194T321 233Q322 236 323 239T325 245Q326 247 327 250T330 256Q332 262 334 268T339 280Q351 311 362 340T383 397Q393 425 399 445T409 478L480 480H520Q507 452 496 426T473 375Q462 350 452 325T430 276Q425
265 421 254T411 232Q409 227 407 222T402 211Q400 205 398 200T393 189Q384 166 375 143T355 95Q345 71 336 47T316 0H276Q273 0 270 0T264 1V1V1H263V1Q260 1 258 1T253 0H213L8 480H48V480V480Z" />
<glyph unicode="w" glyph-name="w" horiz-adv-x="820" d="M181 0Q175 17 169 37T156 78Q152 89 149 99T142 120Q138 131 135 141T127 163Q124 171 121 179T115 196Q112 204 109 212T103 229Q88 268 75 304T47 374Q34 407 24 433T8 478L48 479Q49 478 50 478T52
477Q52 476 53 476T55 476Q57 475 59 475T63 475Q64 475 65 475T67 474Q68 473 69 473T71 473Q72 473 72 473T74 473Q79 474 84 475T94 478L134 479Q136 473 137 468T140 457Q141 454 142 452T144 447Q144 444 145 442T147 436Q161 394 174 354T201 274Q212 244
222 214T245 155Q249 163 252 172T260 191Q272 223 284 258T310 330L312 337L314 343Q317 351 320 360T327 378Q330 386 333 395T339 413Q342 422 345 430T351 447Q353 455 356 463T362 478L402 479Q403 478 404 478T406 477Q406 476 407 476T409 475Q411 476 413
476T417 478L457 479Q460 464 464 450T472 420Q474 413 476 406T480 391Q482 383 484 376T489 361Q500 326 511 292T534 224Q541 206 547 189T561 156Q563 161 565 166T570 178Q581 204 592 232T615 290Q616 292 616 293T618 297Q619 299 619 301T621 305Q632 330
641 354T659 402Q668 425 674 444T685 478L725 479Q729 477 731 477T737 475Q739 475 740 475T743 474V474H744Q747 475 750 476T756 478L796 479Q766 419 739 360T687 241Q662 181 638 121T591 0H551Q550 0 549 0T546 0Q545 0 544 0T541 1Q540 1 538 1T535 0Q533
0 532 0T528 0H488Q485 13 482 28T473 59Q469 76 465 92T455 125Q452 133 449 141T443 159Q440 167 438 175T433 192Q425 216 418 238T402 281Q401 284 400 287T398 292Q397 295 396 297T394 303Q393 301 392 299T390 293Q389 291 388 289T386 283Q382 273 378
262T369 240Q364 228 360 217T351 193Q348 184 345 176T339 159Q336 151 333 143T327 126Q321 110 316 94T305 60Q299 44 294 29T284 0H244Q243 0 242 0T239 0Q238 0 237 0T234 1Q233 1 231 1T228 0Q226 0 225 0T221 0H181V0V0Z" />
<glyph unicode="x" glyph-name="x" horiz-adv-x="544" d="M213 236L24 480H64Q69 478 73 477T82 474Q87 473 91 473T100 473V473H101V473V473H102Q102 473 103 473Q104 473 104 473H105Q112 474 119 475T134 478L174 479Q182 460 191 444T210 411Q221 395 231
380T253 350Q255 347 257 344T263 338Q265 334 267 331T272 325Q273 324 274 323T276 320Q276 319 277 318T279 315L402 480H442Q445 478 448 477T455 474Q456 474 456 474T458 474Q459 473 459 473T461 473V473V473Q463 473 465 473T471 475Q473 476 475 476T480
478L520 479Q512 470 504 462T488 444Q484 440 480 436T472 427Q467 422 463 418T455 409Q452 405 449 401T442 394Q438 390 435 386T428 378Q421 370 415 363T402 347Q392 335 383 324T365 301Q356 290 348 280T331 258L512 16V0H472Q469 0 466 0T460 1Q459 1
458 1T455 2Q453 2 452 2T449 3Q448 3 447 3H446Q445 2 444 2T442 2Q436 1 430 1T418 0H378Q372 8 366 17T352 37Q345 48 339 58T325 79Q320 85 316 91T306 105Q304 108 302 111T297 118Q294 121 292 124T287 131Q280 139 274 147T261 164Q261 165 261 165T259
167Q258 167 258 167T257 169L134 0H94Q93 0 92 0T90 0Q88 0 87 0T85 1Q83 1 82 1T78 0Q76 0 75 0T71 0H31V16L213 236V236V236Z" />
<glyph unicode="y" glyph-name="y" horiz-adv-x="544" d="M56 480Q63 477 70 476T84 473Q85 473 86 473T88 473L89 472Q90 472 91 472Q93 473 94 473T97 473Q103 474 108 475T118 478L158 479Q162 465 170 443T190 388Q202 357 215 324T244 255Q245 253 246 251T248
246Q248 244 249 242T251 237Q253 233 255 229T259 219Q262 212 265 205T272 189Q275 182 278 175T284 160Q284 159 284 158T286 155Q287 154 287 153T288 150Q289 151 289 152T291 155Q291 156 291 157T293 160Q299 174 306 189T320 221Q322 226 324 231T329 243Q331
248 333 253T339 265Q353 300 366 332T390 395Q401 425 408 446T417 478L457 479Q461 477 464 476T472 474Q477 475 480 476T488 478L528 479L197 -260H157Q156 -259 155 -259T152 -258Q150 -257 149 -257T146 -255Q144 -256 142 -256T137 -258Q135 -258 133 -258T127
-260H87L220 8L16 480H56V480V480Z" />
<glyph unicode="z" glyph-name="z" horiz-adv-x="544" d="M111 472H505V457L190 39H150Q169 37 189 37T232 39Q254 40 276 41T322 44Q330 44 338 44T355 46Q363 46 371 46T387 48Q403 49 418 50T449 53L489 54Q488 50 487 47T486 42Q485 39 485 37T485 32Q485
29 485 27T485 22Q485 20 485 18T487 14V11L488 7L489 3V0H449H24V24Q32 32 40 41T58 61Q62 66 66 71T75 82Q79 87 83 92T92 102Q100 112 108 122T126 142Q134 153 142 163T159 184Q167 195 175 205T192 226Q200 237 208 247T224 268Q239 288 254 308T284 350Q298
370 311 389T337 428Q330 427 323 427T309 426Q292 425 276 425T242 423Q225 422 209 422T175 420Q167 419 159 419T143 418Q135 417 127 417T111 415L71 416L73 420L74 424Q75 425 75 427T76 431Q76 432 76 433T77 435Q77 436 77 437T77 439Q77 442 77 445T75
453Q74 457 74 461T71 470V472H111V472Z" />
<glyph unicode="{" glyph-name="braceleft" horiz-adv-x="371" d="M55 315Q84 325 101 338T124 367Q129 382 131 406T134 463V630Q134 659 142 680T168 715Q185 728 203 735T242 746Q244 746 246 746T250 747Q251 747 253 747T257 747Q259 747 261 747T265 748Q266
748 268 748T272 748L312 749Q314 748 316 748T321 748Q323 747 325 747T330 747Q332 747 334 747T339 747Q341 746 343 746T347 746H345H344Q324 739 308 731T281 714Q269 705 262 688T253 644V457V450V445Q253 425 251 408T243 373Q239 357 222 342T174 313Q194
307 209 298T234 274Q243 261 248 241T253 195V24Q253 -8 257 -31T270 -67Q279 -80 298 -90T347 -110Q343 -111 340 -111T331 -112Q329 -112 327 -112T322 -113Q320 -113 318 -113T312 -113H272Q269 -113 267 -113T262 -113Q259 -112 257 -112T251 -112Q245 -111
240 -111T229 -108Q211 -104 195 -96T163 -74Q148 -61 141 -40T134 10V17V23V189Q134 214 130 235T118 273Q110 290 94 300T55 313V315V315Z" />
<glyph unicode="|" glyph-name="bar" horiz-adv-x="371" d="M126 0V740H166H229V0H189H126V0V0Z" />
<glyph unicode="}" glyph-name="braceright" horiz-adv-x="371" d="M205 315Q178 321 162 331T141 354Q136 367 133 382T129 417Q128 422 128 426T127 435Q127 437 127 439T127 445Q126 447 126 449T126 455V614Q126 645 121 667T104 700Q93 711 80 720T52 736Q51
736 50 736T47 738Q45 738 44 738T41 740Q38 742 36 743T31 746L71 747Q124 746 159 737T211 708Q228 689 236 665T245 612V433Q245 426 245 421T245 410Q245 407 245 404T246 399Q246 396 246 393T248 387Q250 376 254 366T266 345Q274 335 286 327T316 313Q292
304 278 293T257 267Q251 254 248 240T245 211V31Q245 -4 238 -30T215 -75Q200 -93 173 -102T106 -111H66Q62 -111 59 -111T52 -111Q51 -111 49 -111T46 -111Q44 -110 43 -110T39 -110Q65 -104 82 -92T109 -63Q117 -45 121 -22T126 29V181Q126 212 130 235T145
272Q154 286 169 296T205 313V315V315Z" />
<glyph unicode="~" glyph-name="asciitilde" horiz-adv-x="646" d="M47 205Q49 208 52 213T60 226Q64 234 69 241T80 257Q89 269 101 280T126 301Q140 311 155 316T189 321L229 322Q245 321 260 318T291 310Q299 307 306 304T320 299Q328 296 335 293T349 287Q363
280 376 274T403 263Q411 259 418 258T433 254Q442 256 451 260T469 270Q482 279 494 295T520 337L560 338L599 291Q588 267 573 248T540 213Q521 197 502 189T463 179L423 180H420H417Q401 179 387 181T358 189Q345 194 332 199T307 212L303 214L300 216Q288 221
276 226T252 237Q243 240 234 243T213 248Q205 246 198 243T185 235Q175 228 168 220T154 202Q151 198 148 194T143 186Q141 182 139 179T135 172L131 168L127 164H87L47 205V205V205Z" />
</font>
</defs>
</svg>
